osu file format v14

[General]
AudioFilename: audio.mp3
AudioLeadIn: 0
PreviewTime: 184030
Countdown: 0
SampleSet: Soft
StackLeniency: 0.5
Mode: 0
LetterboxInBreaks: 0
WidescreenStoryboard: 0

[Editor]
Bookmarks: 52973,118801,190116
DistanceSpacing: 1
BeatDivisor: 4
GridSize: 32
TimelineZoom: 3.899998

[Metadata]
Title:Gravity
TitleUnicode:Gravity
Artist:ClariS
ArtistUnicode:ClariS
Creator:Ayana
Version:Beyond
Source:クオリディア・コード
Tags:Qualidea Code japanese anime pop jpop j-pop Clara Karen ending ed Fairy Castle full size length version Mayu Sakuma Xexyz Azunyan-
BeatmapID:3284712
BeatmapSetID:1608616

[Difficulty]
HPDrainRate:5
CircleSize:4
OverallDifficulty:8
ApproachRate:9.3
SliderMultiplier:1.7
SliderTickRate:1

[Events]
//Background and Video events
0,0,"chigusa_asuha_wallpaper267762.jpg",0,0
//Break Periods
2,86085,94916
2,171114,178573
//Storyboard Layer 0 (Background)
//Storyboard Layer 1 (Fail)
//Storyboard Layer 2 (Pass)
//Storyboard Layer 3 (Foreground)
//Storyboard Layer 4 (Overlay)
//Storyboard Sound Samples

[TimingPoints]
-514,342.857142857143,4,2,1,40,1,0
857,-250,4,2,1,40,0,0
9000,-250,4,2,1,5,0,0
9086,-100,4,2,1,60,0,0
17571,-100,4,2,1,5,0,0
17657,-100,4,2,1,60,0,0
19886,-100,4,2,1,5,0,0
20057,-166.666666666667,4,2,1,40,0,0
29571,-166.666666666667,4,2,1,5,0,0
29657,-100,4,2,1,60,0,0
37286,-100,4,2,1,5,0,0
37371,-100,4,2,1,60,0,0
37971,-100,4,2,1,5,0,0
38057,-100,4,2,1,60,0,0
40628,-125,4,2,1,60,0,0
47486,-100,4,2,1,60,0,0
47743,-100,4,2,1,5,0,0
47828,-100,4,2,1,60,0,0
51000,-100,4,2,1,5,0,0
51086,-100,4,2,1,60,0,0
52971,-83.3333333333333,4,2,1,80,0,1
72086,-83.3333333333333,4,2,1,5,0,1
72171,-83.3333333333333,4,2,1,80,0,1
73628,-83.3333333333333,4,2,1,5,0,1
73714,-83.3333333333333,4,2,1,80,0,1
79200,-83.3333333333333,4,2,1,60,0,1
79371,-83.3333333333333,4,2,1,65,0,1
79543,-83.3333333333333,4,2,1,70,0,1
79714,-83.3333333333333,4,2,1,75,0,1
79886,-83.3333333333333,4,2,1,80,0,1
80400,-200,4,2,1,60,0,0
95486,-100,4,2,1,60,0,0
103114,-100,4,2,1,5,0,0
103200,-100,4,2,1,60,0,0
106457,-125,4,2,1,60,0,0
113228,-125,4,2,1,5,0,0
113314,-100,4,2,1,60,0,0
116828,-100,4,2,1,5,0,0
116914,-100,4,2,1,60,0,0
117986,-100,4,2,1,40,0,0
118457,-83.3333333333333,4,2,1,80,0,1
131400,-83.3333333333333,4,2,1,5,0,1
131486,-83.3333333333333,4,2,1,80,0,1
136543,-83.3333333333333,4,2,1,5,0,1
136628,-83.3333333333333,4,2,1,80,0,1
137914,-83.3333333333333,4,2,1,5,0,1
138000,-83.3333333333333,4,2,1,80,0,1
146228,-100,4,2,1,60,0,0
184457,-142.857142857143,4,2,1,60,0,0
184628,-125.925925925926,4,2,1,60,0,0
185828,-125.925925925926,4,2,1,30,0,0
186000,-125.925925925926,4,2,1,60,0,0
187371,-125.925925925926,4,2,1,60,0,0
190114,-83.3333333333333,4,2,1,80,0,1
205286,-83.3333333333333,4,2,1,5,0,1
205371,-83.3333333333333,4,2,1,80,0,1
225686,-83.3333333333333,4,2,1,5,0,1
225771,-83.3333333333333,4,2,1,80,0,1
231171,-83.3333333333333,4,2,1,5,0,1
231257,-83.3333333333333,4,2,1,80,0,1
232714,-83.3333333333333,4,2,1,5,0,1
232800,-83.3333333333333,4,2,1,80,0,1
233057,-83.3333333333333,4,2,1,5,0,1
233143,-83.3333333333333,4,2,1,80,0,1
233400,-83.3333333333333,4,2,1,5,0,1
233486,-83.3333333333333,4,2,1,80,0,1
239486,-166.666666666667,4,2,1,40,0,0
243600,-250,4,2,1,40,0,0

[Colours]
Combo1 : 250,180,240
Combo2 : 120,200,230
Combo3 : 255,230,130
Combo4 : 160,230,150

[HitObjects]
84,168,343,5,2,0:0:0:0:
97,187,514,1,2,0:0:0:0:
106,208,686,1,2,0:0:0:0:
108,230,857,2,0,L|90:331,2,102,2|2|2,0:0|0:0|0:0,0:0:0:0:
213,66,2571,2,0,P|217:27|228:-10,2,68,2|0|0,0:0|0:0|0:0,0:0:0:0:
285,181,3600,6,0,P|291:202|292:220,3,34,2|0|0|0,0:0|0:0|0:0|0:0,0:0:0:0:
208,155,4971,2,0,P|187:150|170:141,3,34,2|0|0|0,0:0|0:0|0:0|0:0,0:0:0:0:
268,101,6343,2,0,P|283:85|299:76,2,34,2|0|0,0:0|0:0|0:0,0:0:0:0:
268,101,6857,1,2,0:0:0:0:
370,31,7200,1,2,0:0:0:0:
457,126,7543,1,2,0:0:0:0:
457,126,7714,6,0,P|425:200|419:234,1,102,2|0,0:0|0:0,0:0:0:0:
510,326,8400,2,0,B|490:300|463:294|463:294|428:312|402:303,1,119,2|0,0:0|0:0,0:0:0:0:
404,303,9086,6,0,L|310:276,1,85,4|0,0:0|0:0,0:0:0:0:
214,139,9428,2,0,P|237:220|231:304,1,170,8|8,0:0|0:1,0:0:0:0:
137,382,9943,1,2,0:0:0:0:
137,382,10114,1,10,0:0:0:0:
0,220,10286,6,0,B|48:190|48:190|166:224,1,170,2|0,0:0|0:0,0:0:0:0:
240,32,10800,2,0,P|195:34|147:52,1,85,8|0,0:0|0:0,0:0:0:0:
281,213,11143,2,0,P|301:173|310:122,1,85,8|0,0:1|0:0,0:0:0:0:
104,157,11486,2,0,P|126:193|158:222,1,85,8|0,0:0|0:0,0:0:0:0:
288,341,11828,6,0,L|204:369,1,85,4|0,0:3|0:0,0:0:0:0:
395,214,12171,2,0,L|475:240,1,85,8|0,0:0|0:0,0:0:0:0:
350,73,12514,1,8,0:1:0:0:
255,169,12686,2,0,P|245:231|250:289,1,85,2|8,0:0|0:0,0:0:0:0:
491,99,13028,6,0,B|468:50|404:44|404:44|370:75|311:78,1,170,2|0,0:0|0:0,0:0:0:0:
219,46,13543,2,0,L|127:17,1,85,8|0,0:0|0:0,0:0:0:0:
20,236,13886,2,0,L|105:210,1,85,8|0,0:1|0:0,0:0:0:0:
219,179,14228,1,8,0:0:0:0:
0,78,14400,1,8,0:0:0:0:
0,78,14486,1,8,0:0:0:0:
0,78,14571,6,0,B|-20:133|-20:133|29:257,1,170,4|8,0:0|0:0,0:0:0:0:
179,357,15086,2,0,P|93:320|3:356,1,170,2|8,0:0|0:1,0:0:0:0:
179,357,15600,2,0,L|282:327,1,85,8|0,0:0|0:0,0:0:0:0:
360,226,15943,5,10,0:1:0:0:
407,363,16114,1,2,0:0:0:0:
261,334,16286,1,10,0:0:0:0:
425,281,16457,2,0,B|454:271|454:271|509:291,1,85,10|0,0:1|0:0,0:0:0:0:
444,130,16800,1,10,0:1:0:0:
444,130,16971,2,0,B|415:120|415:120|360:140,1,85,8|0,0:0|0:0,0:0:0:0:
210,275,17314,6,0,P|230:227|229:144,1,127.5,4|0,0:0|0:0,0:0:0:0:
161,69,17657,1,8,0:0:0:0:
38,189,17828,2,0,L|125:171,1,85,2|8,0:0|0:1,0:0:0:0:
229,30,18171,2,0,L|145:48,1,85,8|0,0:0|0:0,0:0:0:0:
247,167,18514,1,2,0:0:0:0:
394,139,18686,5,4,0:0:0:0:
256,192,18771,12,0,19886,0:0:0:0:
462,326,20057,6,0,L|472:272,1,50.9999984436036,2|0,0:0|0:0,0:0:0:0:
385,205,20400,1,2,0:0:0:0:
385,205,20571,2,0,L|375:255,1,50.9999984436036,2|0,0:0|0:0,0:0:0:0:
308,330,20914,2,0,P|233:309|198:306,1,101.999996887207,2|0,0:0|0:0,0:0:0:0:
58,358,21428,6,0,P|94:325|98:255,1,101.999996887207,2|0,0:0|0:0,0:0:0:0:
7,226,21943,2,0,L|23:296,1,50.9999984436036,2|0,0:0|0:0,0:0:0:0:
103,274,22286,2,0,L|91:224,1,50.9999984436036,2|0,0:0|0:0,0:0:0:0:
146,142,22628,1,2,0:0:0:0:
146,142,22714,1,2,0:0:0:0:
146,142,22800,6,0,L|209:161,1,50.9999984436036,2|0,0:0|0:0,0:0:0:0:
74,79,23143,1,2,0:0:0:0:
74,79,23314,2,0,L|26:124,1,50.9999984436036,2|0,0:0|0:0,0:0:0:0:
161,52,23657,2,0,L|145:-12,1,50.9999984436036,2|0,0:0|0:0,0:0:0:0:
148,2,24000,1,2,0:0:0:0:
275,0,24171,6,0,L|257:103,1,101.999996887207,2|0,0:0|0:0,0:0:0:0:
198,168,24686,1,0,0:0:0:0:
333,225,24857,1,2,0:0:0:0:
257,100,25028,1,0,0:0:0:0:
245,246,25200,1,2,0:0:0:0:
341,136,25371,1,0,0:0:0:0:
198,168,25543,6,0,L|81:200,1,101.999996887207,4|0,0:3|0:0,0:0:0:0:
244,245,26057,2,0,L|195:259,1,50.9999984436036,8|0,0:1|0:0,0:0:0:0:
290,322,26400,2,0,L|241:336,1,50.9999984436036,2|0,0:0|0:0,0:0:0:0:
240,336,26743,1,2,0:0:0:0:
374,254,26914,6,0,P|419:281|473:302,1,101.999996887207,4|0,0:3|0:0,0:0:0:0:
417,181,27428,2,0,P|450:200|479:212,1,50.9999984436036,8|0,0:1|0:0,0:0:0:0:
461,109,27771,2,0,P|494:128|523:140,1,50.9999984436036,2|0,0:0|0:0,0:0:0:0:
406,44,28114,1,2,0:0:0:0:
334,161,28286,6,0,P|336:198|347:233,2,50.9999984436036,4|0|0,0:3|0:0|0:0,0:0:0:0:
328,77,28800,2,0,P|231:40|210:34,1,101.999996887207,10|0,0:1|0:0,0:0:0:0:
99,105,29314,2,0,P|126:81|137:38,1,76.4999976654053,2|0,0:0|0:0,0:0:0:0:
138,43,29657,6,0,P|100:99|95:209,1,170,4|8,0:0|0:0,0:0:0:0:
205,316,30171,2,0,P|175:255|82:196,1,170,4|8,0:3|0:0,0:0:0:0:
0,289,30686,1,8,0:3:0:0:
92,199,30857,1,8,0:3:0:0:
205,316,31028,6,0,L|303:291,1,85,4|0,0:0|0:0,0:0:0:0:
362,228,31371,1,8,0:0:0:0:
462,364,31543,6,0,P|406:334|351:318,1,85,2|8,0:0|0:1,0:0:0:0:
297,166,31886,2,0,P|357:145|413:137,1,85,2|8,0:0|0:0,0:0:0:0:
483,187,32228,1,2,0:0:0:0:
330,0,32400,6,0,L|296:175,1,170,4|8,0:3|0:0,0:0:0:0:
135,133,32914,2,0,P|175:97|211:75,1,85,2|8,0:0|0:1,0:0:0:0:
188,290,33257,2,0,P|136:273|99:253,1,85,2|8,0:0|0:0,0:0:0:0:
12,173,33600,1,2,0:0:0:0:
241,219,33771,6,0,L|199:397,1,170,4|8,0:3|0:0,0:0:0:0:
228,205,34286,2,0,P|280:185|311:179,1,85,2|8,0:0|0:1,0:0:0:0:
444,381,34628,2,0,P|400:345|379:322,1,85,2|8,0:0|0:0,0:0:0:0:
489,105,34971,2,0,P|483:148|470:188,1,85,2|4,0:0|0:3,0:0:0:0:
387,231,35314,1,2,0:0:0:0:
387,231,35486,1,8,0:0:0:0:
199,52,35657,5,2,0:0:0:0:
312,102,35828,1,8,0:1:0:0:
142,156,36000,1,8,0:0:0:0:
334,95,36171,1,8,0:0:0:0:
84,254,36343,1,8,0:0:0:0:
60,251,36428,1,8,0:0:0:0:
42,243,36514,6,0,P|10:179|6:138,1,85,4|0,0:0|0:0,0:0:0:0:
59,28,36857,1,8,0:0:0:0:
194,207,37028,2,0,L|340:171,1,127.5,8|0,0:1|0:0,0:0:0:0:
397,155,37371,1,8,0:1:0:0:
280,2,37543,1,8,0:0:0:0:
175,191,37714,6,0,B|163:244|163:244|190:332,1,127.5,4|0,0:0|0:0,0:0:0:0:
213,384,38057,1,8,0:1:0:0:
317,176,38228,1,8,0:0:0:0:
495,363,38400,2,0,L|407:331,1,85,4|0,0:0|0:0,0:0:0:0:
386,130,38743,2,0,L|465:159,1,85,8|8,0:1|0:0,0:0:0:0:
465,159,39086,1,2,0:0:0:0:
299,88,39257,6,0,B|201:76|233:136|132:120,1,170,4|8,0:0|0:0,0:0:0:0:
0,185,39771,2,0,L|91:219,1,85,2|0,0:0|0:0,0:0:0:0:
193,282,40114,1,8,0:1:0:0:
79,214,40286,1,8,0:0:0:0:
78,347,40457,1,2,0:0:0:0:
193,282,40628,6,0,P|224:273|282:264,1,68,4|0,0:3|0:0,0:0:0:0:
394,328,40971,2,0,P|370:305|333:259,1,68,8|8,0:0|0:1,0:0:0:0:
347,278,41228,1,8,0:1:0:0:
347,278,41314,1,8,0:1:0:0:
314,195,41486,1,8,0:3:0:0:
370,125,41657,1,8,0:3:0:0:
225,181,41828,1,8,0:1:0:0:
225,181,41914,1,8,0:1:0:0:
225,181,42000,1,4,0:3:0:0:
280,111,42171,6,0,L|286:44,2,68,2|0|8,0:0|0:0|0:1,0:0:0:0:
169,251,42686,2,0,P|101:232|18:217,1,136,8|8,0:0|0:1,0:0:0:0:
0,121,43200,6,0,P|39:116|86:103,1,68,4|0,0:3|0:0,0:0:0:0:
189,9,43543,1,8,0:0:0:0:
189,9,43714,2,0,P|173:45|163:142,1,136,2|8,0:0|0:0,0:0:0:0:
272,212,44228,1,2,0:0:0:0:
162,140,44400,1,10,0:1:0:0:
272,212,44571,1,2,0:0:0:0:
382,284,44743,6,0,L|477:262,1,68,4|0,0:3|0:0,0:0:0:0:
272,212,45086,1,2,0:0:0:0:
437,285,45257,2,0,L|370:300,1,68,10|8,0:1|0:0,0:0:0:0:
187,376,45600,2,0,L|254:361,1,68,2|0,0:0|0:0,0:0:0:0:
89,212,45943,6,0,P|59:274|51:346,1,136,8|8,0:1|0:0,0:0:0:0:
72,193,46457,2,0,L|54:101,1,68,2|0,0:0|0:0,0:0:0:0:
107,0,46800,1,8,0:0:0:0:
58,126,46971,1,8,0:1:0:0:
270,103,47143,2,0,L|180:83,1,68,2|0,0:0|0:0,0:0:0:0:
403,248,47486,6,4,P|453:180|467:104,1,127.5,4|0,0:0|0:0,0:0:0:0:
441,64,47828,1,10,0:0:0:0:
386,240,48000,2,0,L|400:332,1,85,2|8,0:0|0:1,0:0:0:0:
270,103,48343,2,0,L|257:18,1,85,10|8,0:1|0:0,0:0:0:0:
45,213,48686,1,8,0:1:0:0:
45,213,48771,1,8,0:1:0:0:
45,213,48857,6,0,B|84:190|84:190|178:211,1,127.5,4|0,0:3|0:0,0:0:0:0:
256,229,49200,1,8,0:0:0:0:
92,309,49371,2,0,L|174:328,1,85,0|8,0:0|0:1,0:0:0:0:
331,138,49714,2,0,L|248:118,1,85,8|8,0:1|0:0,0:0:0:0:
357,343,50057,1,8,0:0:0:0:
385,353,50143,1,8,0:0:0:0:
412,363,50228,6,0,B|460:338|463:293|463:293|439:254|433:192,1,170,4|8,0:0|0:0,0:0:0:0:
347,42,50743,2,0,P|290:99|220:124,1,127.5,4|0,0:0|0:0,0:0:0:0:
140,126,51086,1,8,0:1:0:0:
315,266,51257,2,0,B|251:279|251:279|215:266|215:266|150:280,1,170,4|8,0:0|0:1,0:0:0:0:
27,189,51771,5,8,3:2:0:0:
43,195,51857,1,0,3:2:0:0:
59,201,51943,1,0,3:2:0:0:
248,117,52114,5,0,3:2:0:0:
234,81,52199,1,0,3:2:0:0:
208,53,52285,1,0,3:2:0:0:
175,35,52371,1,0,3:2:0:0:
137,31,52456,1,2,3:2:0:0:
100,40,52543,1,0,3:2:0:0:
69,61,52628,1,2,3:2:0:0:
47,92,52713,1,0,3:2:0:0:
38,129,52799,1,2,3:2:0:0:
42,167,52885,1,0,0:0:0:0:
59,201,52971,6,0,L|40:317,1,101.999996887207,4|0,0:0|0:0,0:0:0:0:
206,350,53314,1,10,0:0:0:0:
304,208,53485,1,2,0:0:0:0:
304,208,53828,5,10,0:1:0:0:
200,72,54000,1,10,0:0:0:0:
38,129,54171,1,2,0:0:0:0:
38,129,54514,5,2,0:0:0:0:
42,301,54686,1,10,0:0:0:0:
206,350,54857,1,2,0:0:0:0:
206,350,55200,5,10,0:1:0:0:
200,72,55371,1,10,0:0:0:0:
42,301,55543,1,2,0:0:0:0:
304,208,55714,6,0,L|413:191,1,101.999996887207,4|0,0:0|0:0,0:0:0:0:
200,72,56057,1,10,0:0:0:0:
117,269,56228,2,0,L|16:284,1,101.999996887207,2|8,0:0|0:1,0:0:0:0:
253,141,56571,2,0,P|276:95|282:45,1,101.999996887207,10|8,0:1|0:0,0:0:0:0:
310,338,56914,6,0,P|408:366|514:385,1,203.999993774414,2|0,0:0|0:0,0:0:0:0:
310,338,57428,1,8,0:0:0:0:
380,93,57600,2,0,L|408:208,1,101.999996887207,2|8,0:0|0:1,0:0:0:0:
213,305,57943,1,8,0:1:0:0:
209,56,58114,1,8,0:0:0:0:
412,199,58285,1,8,0:0:0:0:
412,199,58371,1,8,0:0:0:0:
412,199,58457,5,4,0:0:0:0:
213,305,58628,1,2,0:0:0:0:
107,106,58800,1,10,0:0:0:0:
306,0,58971,1,2,0:0:0:0:
306,0,59314,5,10,0:1:0:0:
412,199,59486,1,10,0:0:0:0:
213,305,59658,1,2,0:0:0:0:
213,305,60000,5,2,0:0:0:0:
107,106,60172,1,10,0:0:0:0:
306,0,60343,1,2,0:0:0:0:
412,199,60514,5,10,0:1:0:0:
306,0,60686,1,10,0:1:0:0:
213,305,60857,1,10,0:0:0:0:
107,106,61029,1,2,0:0:0:0:
412,199,61200,6,0,L|517:219,1,101.999996887207,4|0,0:3|0:0,0:0:0:0:
107,106,61543,2,0,L|6:86,1,101.999996887207,8|0,0:0|0:0,0:0:0:0:
313,255,61886,1,8,0:1:0:0:
218,91,62057,1,8,0:1:0:0:
313,255,62228,1,8,0:0:0:0:
507,88,62400,1,8,0:1:0:0:
507,88,62486,1,8,0:1:0:0:
507,88,62571,6,0,B|447:134|388:117|388:117|356:68|280:73,1,203.999993774414,4|8,0:3|0:0,0:0:0:0:
111,182,63086,2,0,B|220:211,1,101.999996887207,2|8,0:0|0:1,0:0:0:0:
325,75,63428,1,8,0:1:0:0:
209,208,63600,1,8,0:0:0:0:
52,46,63771,1,8,0:0:0:0:
40,70,63857,1,8,0:0:0:0:
30,90,63943,6,0,B|8:150|8:150|45:318,1,203.999993774414,4|8,0:0|0:0,0:0:0:0:
292,330,64457,2,0,P|300:237|181:227,1,203.999993774414,2|8,0:0|0:1,0:0:0:0:
39,287,64971,1,8,0:0:0:0:
163,140,65143,1,0,0:0:0:0:
292,330,65314,6,0,L|399:308,1,101.999996887207,4|0,0:3|0:0,0:0:0:0:
421,98,65657,5,10,0:0:0:0:
208,207,65828,1,0,0:0:0:0:
391,191,66000,5,10,0:1:0:0:
162,120,66171,1,8,0:1:0:0:
302,238,66343,5,10,0:0:0:0:
192,24,66514,1,0,0:0:0:0:
10,223,66686,6,0,B|89:206|89:206|133:223|133:223|213:205,1,203.999993774414,4|8,0:0|0:0,0:0:0:0:
445,365,67200,2,0,B|365:348|365:348|321:365|321:365|241:347,1,203.999993774414,2|8,0:0|0:1,0:0:0:0:
75,299,67714,1,8,0:0:0:0:
207,206,67886,1,0,0:0:0:0:
27,37,68057,6,0,L|49:136,1,101.999996887207,4|0,0:3|0:0,0:0:0:0:
75,299,68400,1,8,0:0:0:0:
185,107,68571,2,0,L|207:206,1,101.999996887207,4|0,0:3|0:0,0:0:0:0:
234,367,68914,1,10,0:1:0:0:
75,299,69086,1,10,0:0:0:0:
223,188,69257,1,2,0:0:0:0:
434,330,69428,6,0,L|222:369,1,203.999993774414,4|8,0:3|0:0,0:0:0:0:
423,151,69943,2,0,L|223:188,1,203.999993774414,2|8,0:0|0:1,0:0:0:0:
452,354,70457,2,0,P|496:302|498:229,1,101.999996887207,8|0,0:0|0:0,0:0:0:0:
277,37,70800,6,0,P|324:120|446:146,1,203.999993774414,4|8,0:3|0:0,0:0:0:0:
137,356,71314,2,0,P|209:287|309:287,1,203.999993774414,4|8,0:3|0:1,0:0:0:0:
101,5,71828,2,0,P|127:76|107:149,1,152.999995330811,8|0,0:0|0:0,0:0:0:0:
120,340,72171,6,0,P|84:246|107:148,1,203.999993774414,4|8,0:3|0:0,0:0:0:0:
307,107,72686,2,0,B|270:111|240:131|225:161|225:161|225:161|225:161|233:125|223:90|200:66,1,203.999993774414,2|8,0:0|0:1,0:0:0:0:
287,0,73200,1,8,0:0:0:0:
325,228,73371,6,0,L|362:420,1,152.999995330811,8|0,0:1|0:0,0:0:0:0:
354,378,73714,1,8,0:1:0:0:
179,244,73886,1,8,0:0:0:0:
512,259,74057,2,0,B|432:242|432:242|388:259|388:259|308:241,1,203.999993774414,4|8,0:3|0:1,0:0:0:0:
107,149,74571,1,8,0:0:0:0:
276,30,74743,1,8,0:0:0:0:
295,41,74828,1,8,0:0:0:0:
316,52,74914,6,0,B|349:101|349:101|309:265,1,203.999993774414,4|8,0:0|0:0,0:0:0:0:
74,360,75428,2,0,P|103:250|185:247,1,203.999993774414,4|8,0:0|0:0,0:0:0:0:
449,372,75943,2,0,B|369:355|369:355|325:372|325:372|245:354,1,203.999993774414,4|0,0:0|0:0,0:0:0:0:
179,244,76457,1,8,0:1:0:0:
251,355,76628,5,8,0:0:0:0:
251,355,76800,1,0,0:0:0:0:
239,126,76971,1,8,0:1:0:0:
179,244,77143,1,8,0:1:0:0:
242,129,77314,1,8,0:0:0:0:
47,252,77486,1,8,0:0:0:0:
47,252,77571,1,8,0:0:0:0:
47,252,77657,5,4,0:0:0:0:
170,18,77828,1,2,0:0:0:0:
311,241,78000,1,8,0:0:0:0:
0,128,78171,6,0,B|54:127|92:62|92:62|126:115|204:110,1,203.999993774414,4|8,0:0|0:1,0:0:0:0:
392,26,78686,2,0,P|355:96|329:234,1,203.999993774414,12|0,0:0|0:0,0:0:0:0:
362,384,79200,5,0,3:0:0:0:
256,333,79371,1,0,3:0:0:0:
112,352,79543,1,0,3:0:0:0:
256,229,79714,1,8,3:2:0:0:
432,304,79886,1,8,3:2:0:0:
256,125,80057,1,8,3:2:0:0:
64,256,80228,1,8,3:2:0:0:
255,21,80400,6,0,P|276:25|297:31,2,42.5,2|0|0,0:0|0:0|0:0,0:0:0:0:
364,104,80914,1,2,0:0:0:0:
172,173,81771,6,0,P|147:179|116:189,2,42.5,2|0|0,0:0|0:0|0:0,0:0:0:0:
64,256,82285,1,2,0:0:0:0:
391,293,83143,6,0,P|416:299|447:309,2,42.5,2|0|0,0:0|0:0|0:0,0:0:0:0:
499,376,83657,1,2,0:0:0:0:
391,293,84000,1,2,0:0:0:0:
266,345,84343,1,2,0:0:0:0:
266,345,84514,6,0,B|210:347|167:311|167:311|134:309|95:334,2,170,2|2|4,0:0|0:0|0:0,0:0:0:0:
459,306,95486,6,0,L|492:119,1,170,4|8,0:0|0:0,0:0:0:0:
365,42,96000,2,0,L|335:209,1,170,4|8,0:0|0:3,0:0:0:0:
260,337,96514,1,8,0:3:0:0:
169,232,96686,1,8,0:0:0:0:
169,232,96771,1,8,0:0:0:0:
169,232,96857,6,0,B|148:257|110:264|110:264|-6:223,1,170,4|8,0:0|0:0,0:0:0:0:
8,71,97371,2,0,L|108:107,1,85,2|8,0:0|0:1,0:0:0:0:
113,283,97714,2,0,L|33:254,1,85,2|8,0:0|0:0,0:0:0:0:
109,92,98057,1,8,0:1:0:0:
131,85,98143,1,8,0:1:0:0:
153,78,98228,6,0,B|251:46|230:119|339:88,1,170,4|8,0:3|0:0,0:0:0:0:
477,40,98743,2,0,P|414:15|381:16,1,85,2|8,0:0|0:1,0:0:0:0:
344,180,99086,2,0,P|406:204|439:203,1,85,2|8,0:0|0:0,0:0:0:0:
512,140,99428,1,0,0:0:0:0:
323,192,99600,6,0,L|365:386,1,170,4|8,0:3|0:0,0:0:0:0:
216,223,100114,2,0,L|235:104,1,85,2|8,0:0|0:1,0:0:0:0:
373,377,100457,2,0,L|392:258,1,85,2|8,0:0|0:0,0:0:0:0:
99,384,100800,6,0,P|59:298|44:205,1,170,2|0,0:0|0:0,0:0:0:0:
130,76,101315,1,10,0:0:0:0:
45,224,101486,1,10,0:1:0:0:
146,52,101657,1,8,0:0:0:0:
220,254,101828,1,8,0:1:0:0:
327,30,102000,1,8,0:0:0:0:
424,290,102171,1,8,0:0:0:0:
424,290,102257,1,8,0:0:0:0:
424,290,102343,6,0,P|450:219|461:100,1,170,4|8,0:0|0:0,0:0:0:0:
261,361,102857,2,0,P|257:274|236:210,1,127.5,4|0,0:0|0:0,0:0:0:0:
178,164,103200,1,8,0:1:0:0:
78,332,103371,1,8,0:0:0:0:
27,126,103543,6,0,B|94:111|94:111|114:81|114:81|194:62,1,170,4|8,0:0|0:1,0:0:0:0:
303,21,104057,1,8,0:0:0:0:
328,258,104228,2,0,L|216:227,1,85,4|0,0:0|0:0,0:0:0:0:
78,332,104571,2,0,L|159:354,1,85,8|8,0:1|0:0,0:0:0:0:
246,235,104914,1,2,0:0:0:0:
437,384,105086,6,0,P|411:265|413:186,1,170,4|8,0:0|0:0,0:0:0:0:
427,5,105600,2,0,L|406:95,1,85,2|0,0:0|0:0,0:0:0:0:
303,21,105943,2,0,L|282:111,1,85,8|8,0:1|0:0,0:0:0:0:
246,235,106286,1,2,0:0:0:0:
91,169,106457,6,0,P|128:153|185:145,1,68,4|0,0:3|0:0,0:0:0:0:
297,280,106800,1,8,0:0:0:0:
297,280,106971,2,0,P|264:255|229:209,1,68,8|0,0:0|0:0,0:0:0:0:
126,342,107314,1,8,0:3:0:0:
126,342,107485,2,0,P|120:300|128:243,1,68,8|0,0:3|0:0,0:0:0:0:
155,147,107828,5,4,0:0:0:0:
26,119,108000,2,0,L|44:27,2,68,2|0|8,0:0|0:0|0:1,0:0:0:0:
179,13,108514,2,0,L|152:164,1,136,8|0,0:0|0:0,0:0:0:0:
347,125,109028,2,0,P|317:109|281:100,1,68,8|0,0:1|0:0,0:0:0:0:
207,278,109371,1,8,0:0:0:0:
207,278,109543,2,0,P|235:260|261:233,1,68,2|8,0:0|0:1,0:0:0:0:
347,125,109886,1,8,0:0:0:0:
466,317,110057,1,2,0:0:0:0:
365,278,110228,1,10,0:1:0:0:
466,317,110400,1,2,0:0:0:0:
207,278,110571,6,0,L|119:305,1,68,4|0,0:3|0:0,0:0:0:0:
269,75,110914,1,2,0:0:0:0:
366,145,111086,2,8,L|431:125,1,68,8|8,0:1|0:0,0:0:0:0:
222,257,111428,2,0,L|134:284,1,68,2|0,0:0|0:0,0:0:0:0:
0,71,111771,6,0,P|40:132|74:207,1,136,4|8,0:3|0:0,0:0:0:0:
47,316,112286,1,2,0:0:0:0:
47,316,112457,1,2,0:0:0:0:
222,257,112628,1,10,0:0:0:0:
146,373,112799,1,8,0:3:0:0:
285,379,112971,2,0,L|403:354,1,102,8|0,0:3|0:0,0:0:0:0:
437,206,113314,6,0,P|393:259|390:373,1,170,4|8,0:0|0:0,0:0:0:0:
458,222,113828,2,0,L|430:119,1,85,2|8,0:0|0:1,0:0:0:0:
341,9,114171,2,0,L|318:91,1,85,10|8,0:1|0:0,0:0:0:0:
236,211,114514,1,2,0:0:0:0:
158,86,114686,6,0,B|203:62|203:62|329:93,1,170,4|8,0:0|0:0,0:0:0:0:
58,187,115200,2,0,P|20:117|13:81,1,85,2|8,0:0|0:1,0:0:0:0:
215,225,115543,2,0,P|173:292|145:316,1,85,10|8,0:1|0:0,0:0:0:0:
0,372,115886,1,8,0:0:0:0:
17,364,115971,1,8,0:0:0:0:
37,356,116057,6,0,P|154:318|208:314,1,170,4|8,0:0|0:0,0:0:0:0:
134,127,116571,2,0,P|201:213|239:243,1,127.5,4|0,0:0|0:0,0:0:0:0:
306,253,116914,1,8,0:1:0:0:
392,5,117086,6,0,P|356:93|337:185,1,170,6|8,0:0|0:1,0:0:0:0:
436,275,117600,1,8,0:0:0:0:
340,166,117771,1,8,0:0:0:0:
200,314,117943,6,0,L|209:335,8,21.25,2|2|2|2|2|2|2|2|2,0:0|0:0|0:0|0:0|0:0|0:0|0:0|0:0|0:0,0:0:0:0:
216,141,118457,5,8,0:0:0:0:
247,147,118542,1,8,0:0:0:0:
278,153,118628,1,8,0:0:0:0:
309,160,118714,1,8,0:0:0:0:
340,166,118800,6,0,L|447:141,1,101.999996887207,4|0,0:0|0:0,0:0:0:0:
237,45,119143,1,10,0:0:0:0:
78,73,119314,1,2,0:0:0:0:
78,73,119657,5,10,0:1:0:0:
26,225,119828,1,10,0:0:0:0:
129,347,120000,1,2,0:0:0:0:
129,347,120343,5,2,0:0:0:0:
287,317,120515,1,10,0:0:0:0:
340,166,120686,1,2,0:0:0:0:
340,166,121028,5,10,0:1:0:0:
237,45,121200,1,10,0:0:0:0:
287,317,121371,1,2,0:0:0:0:
0,238,121543,6,0,L|211:197,1,203.999993774414,4|8,0:0|0:0,0:0:0:0:
334,14,122057,2,0,P|270:30|234:45,1,101.999996887207,2|8,0:0|0:1,0:0:0:0:
341,250,122400,2,0,P|358:186|363:147,1,101.999996887207,10|8,0:1|0:0,0:0:0:0:
12,254,122743,6,0,P|56:296|203:351,1,203.999993774414,2|0,0:0|0:0,0:0:0:0:
341,250,123257,1,8,0:0:0:0:
163,342,123428,2,0,L|283:311,1,101.999996887207,0|8,0:0|0:1,0:0:0:0:
341,250,123771,1,8,0:1:0:0:
364,372,123943,1,8,0:0:0:0:
228,219,124114,1,8,0:1:0:0:
228,219,124200,1,8,0:0:0:0:
228,219,124286,5,4,0:0:0:0:
295,58,124457,1,2,0:0:0:0:
466,77,124628,1,10,0:0:0:0:
501,245,124800,1,2,0:0:0:0:
501,245,125143,5,10,0:1:0:0:
352,330,125314,1,10,0:0:0:0:
228,219,125486,1,2,0:0:0:0:
228,219,125828,5,2,0:0:0:0:
296,58,126000,1,10,0:0:0:0:
466,77,126171,1,2,0:0:0:0:
352,330,126343,5,10,0:1:0:0:
296,58,126514,1,10,0:1:0:0:
501,245,126686,1,10,0:0:0:0:
228,219,126857,1,2,0:0:0:0:
466,77,127028,6,0,L|444:184,1,101.999996887207,4|0,0:3|0:0,0:0:0:0:
335,357,127371,2,0,L|313:254,1,101.999996887207,8|0,0:0|0:0,0:0:0:0:
125,34,127714,1,8,0:1:0:0:
304,167,127886,1,8,0:1:0:0:
128,37,128057,1,8,0:0:0:0:
14,234,128228,1,8,0:1:0:0:
19,250,128314,1,8,0:1:0:0:
28,262,128400,6,0,L|249:214,1,203.999993774414,4|8,0:3|0:0,0:0:0:0:
394,0,128914,2,0,P|355:74|348:109,1,101.999996887207,2|8,0:0|0:1,0:0:0:0:
414,285,129257,1,8,0:1:0:0:
351,91,129428,1,8,0:0:0:0:
221,249,129600,1,8,0:0:0:0:
221,249,129686,1,8,0:0:0:0:
221,249,129771,6,0,B|206:291|206:291|234:390,1,101.999996887207,4|0,0:0|0:0,0:0:0:0:
351,91,130114,1,8,0:0:0:0:
512,285,130286,2,0,B|470:270|470:270|371:298,1,101.999996887207,2|8,0:0|0:1,0:0:0:0:
221,346,130628,1,8,0:1:0:0:
340,195,130800,1,8,0:0:0:0:
234,361,130971,1,0,0:0:0:0:
145,175,131143,6,0,P|69:193|9:262,1,152.999995330811,4|0,0:0|0:0,0:0:0:0:
2,340,131486,2,0,P|25:280|12:233,1,101.999996887207,8|0,0:0|0:0,0:0:0:0:
41,0,131828,5,8,0:1:0:0:
161,198,132000,1,8,0:1:0:0:
203,75,132171,5,8,0:0:0:0:
121,299,132343,1,0,0:0:0:0:
363,69,132514,6,0,B|305:27|233:47|233:47|217:88|154:97,2,203.999993774414,4|8|8,0:0|0:0|0:1,0:0:0:0:
496,138,133371,1,8,0:1:0:0:
363,69,133543,2,0,L|395:210,1,101.999996887207,8|0,0:0|0:0,0:0:0:0:
479,376,133886,6,0,P|432:289|335:270,1,203.999993774414,4|8,0:0|0:0,0:0:0:0:
50,325,134400,2,0,P|148:327|213:253,1,203.999993774414,4|8,0:0|0:1,0:0:0:0:
188,67,134914,1,8,0:0:0:0:
214,252,135086,1,0,0:0:0:0:
466,45,135257,6,0,L|227:5,1,203.999993774414,4|8,0:0|0:0,0:0:0:0:
0,193,135771,2,0,L|201:159,1,203.999993774414,2|8,0:0|0:1,0:0:0:0:
420,262,136286,2,0,P|346:267|304:358,1,152.999995330811,8|0,0:0|0:0,0:0:0:0:
434,285,136628,6,0,P|473:158|480:55,1,203.999993774414,4|8,0:3|0:0,0:0:0:0:
289,342,137143,2,0,P|286:209|261:109,1,203.999993774414,4|8,0:3|0:1,0:0:0:0:
142,384,137657,2,0,P|102:280|54:209,1,152.999995330811,8|0,0:0|0:0,0:0:0:0:
87,143,138000,6,0,P|79:216|82:261,1,101.999996887207,4|0,0:0|0:0,0:0:0:0:
172,0,138343,1,8,0:0:0:0:
271,140,138514,2,0,P|373:186|477:220,1,203.999993774414,2|8,0:0|0:1,0:0:0:0:
271,140,139028,1,8,0:0:0:0:
387,0,139200,2,0,L|414:115,1,101.999996887207,4|0,0:3|0:0,0:0:0:0:
199,238,139543,2,0,L|175:138,1,101.999996887207,4|8,0:3|0:0,0:0:0:0:
448,364,139886,2,0,P|354:323|225:358,1,203.999993774414,4|8,0:3|0:1,0:0:0:0:
90,266,140400,1,8,0:0:0:0:
173,54,140571,1,8,0:0:0:0:
173,54,140657,1,8,0:0:0:0:
173,54,140743,6,0,L|227:281,1,203.999993774414,4|8,0:0|0:0,0:0:0:0:
510,229,141257,2,0,B|475:167|401:167|401:167|366:213|309:209,1,203.999993774414,4|8,0:0|0:0,0:0:0:0:
114,374,141771,2,0,P|193:340|177:218,1,203.999993774414,4|0,0:0|0:0,0:0:0:0:
68,149,142286,1,8,0:1:0:0:
68,149,142457,2,0,L|50:262,1,101.999996887207,8|0,0:0|0:0,0:0:0:0:
281,53,142800,5,8,0:0:0:0:
68,149,142971,1,8,0:1:0:0:
343,207,143143,1,8,0:0:0:0:
208,100,143314,1,8,0:0:0:0:
208,100,143400,1,8,0:0:0:0:
208,100,143486,5,4,0:0:0:0:
164,265,143657,1,2,0:0:0:0:
281,53,143828,1,2,0:0:0:0:
512,272,144000,2,0,P|399:235|306:219,1,203.999993774414,6|8,0:3|0:1,0:0:0:0:
11,151,144514,2,0,P|124:114|217:98,1,203.999993774414,4|8,0:0|0:1,0:0:0:0:
369,67,145028,1,8,3:1:0:0:
315,220,145200,1,8,3:2:0:0:
207,99,145371,1,0,3:0:0:0:
473,196,145543,5,8,3:2:0:0:
282,129,145714,1,8,3:2:0:0:
497,204,145886,1,8,3:2:0:0:
144,290,146057,1,8,3:2:0:0:
176,193,146228,5,2,0:0:0:0:
191,210,147600,5,8,0:0:0:0:
369,67,147771,1,8,0:1:0:0:
403,292,147943,1,8,0:1:0:0:
191,210,148114,2,0,P|114:222|11:255,1,170,8|8,0:0|0:3,0:0:0:0:
210,225,148628,1,8,0:0:0:0:
45,166,148800,1,8,0:0:0:0:
45,166,148886,1,8,0:0:0:0:
45,166,148971,6,0,L|19:284,1,85,4|0,0:0|0:0,0:0:0:0:
191,308,149314,2,0,L|209:224,1,85,8|0,0:0|0:0,0:0:0:0:
205,64,149657,1,8,0:1:0:0:
205,64,149828,1,8,0:1:0:0:
354,116,150000,2,0,P|396:118|438:114,1,85,8|0,0:0|0:0,0:0:0:0:
395,42,150257,1,8,0:1:0:0:
395,42,150343,6,0,P|371:77|353:115,1,85,4|0,0:3|0:0,0:0:0:0:
363,297,150686,1,10,0:0:0:0:
460,294,150857,2,0,P|441:255|416:221,1,85,10|0,0:1|0:0,0:0:0:0:
250,140,151200,1,10,0:1:0:0:
209,224,151371,2,0,P|251:226|293:222,1,85,10|0,0:0|0:0,0:0:0:0:
38,128,151714,6,0,B|16:183|16:183|48:319,2,170,4|8|8,0:3|0:0|0:1,0:0:0:0:
143,0,152571,1,10,0:1:0:0:
38,128,152743,1,10,0:0:0:0:
146,3,152914,1,2,0:0:0:0:
296,85,153086,6,0,P|392:67|474:58,1,170,4|8,0:0|0:0,0:0:0:0:
266,195,153600,2,0,B|214:187|187:133|187:133|148:113|106:132,1,170,4|8,0:0|0:1,0:0:0:0:
369,311,154114,2,0,L|468:274,1,85,8|8,0:0|0:0,0:0:0:0:
342,296,154371,1,8,0:0:0:0:
342,296,154457,6,0,L|262:325,1,85,4|0,0:0|0:0,0:0:0:0:
41,256,154800,1,10,0:0:0:0:
65,340,154971,2,0,L|145:311,1,85,2|8,0:0|0:1,0:0:0:0:
227,180,155314,1,10,0:1:0:0:
203,96,155485,2,0,L|123:125,1,85,10|8,0:0|0:1,0:0:0:0:
216,62,155743,1,8,0:1:0:0:
216,62,155828,6,0,L|296:33,1,85,4|0,0:3|0:0,0:0:0:0:
462,103,156171,1,8,0:0:0:0:
406,175,156343,2,0,L|289:149,1,85,8|0,0:1|0:0,0:0:0:0:
481,274,156686,1,8,0:1:0:0:
425,346,156858,2,0,L|308:320,1,85,8|0,0:0|0:0,0:0:0:0:
165,243,157200,6,0,B|258:207|245:279|370:227,2,170,4|8|8,0:3|0:0|0:1,0:0:0:0:
46,280,158057,1,8,0:1:0:0:
46,280,158228,2,0,P|22:226|18:188,1,85,8|0,0:0|0:0,0:0:0:0:
54,50,158571,5,4,0:3:0:0:
83,58,158656,1,8,0:1:0:0:
106,80,158742,1,8,0:1:0:0:
115,111,158828,1,8,0:1:0:0:
108,141,158913,1,8,0:1:0:0:
198,48,159086,2,0,P|263:30|378:13,1,170,4|8,0:0|0:1,0:0:0:0:
498,135,159600,1,8,0:0:0:0:
364,14,159771,1,8,0:0:0:0:
364,14,159857,1,8,0:0:0:0:
364,14,159943,6,0,L|336:128,1,85,4|0,0:0|0:0,0:0:0:0:
478,218,160286,2,0,L|498:135,1,85,8|0,0:0|0:0,0:0:0:0:
298,278,160628,1,8,0:1:0:0:
298,278,160800,1,8,0:1:0:0:
478,218,160971,2,0,L|457:300,1,85,8|8,0:0|0:1,0:0:0:0:
365,370,161228,1,8,0:1:0:0:
358,384,161314,6,0,P|285:358|165:329,1,170,4|8,0:3|0:0,0:0:0:0:
5,301,161828,2,0,B|35:304|61:321|73:346|73:346|73:346|73:346|66:316|75:286|94:266,1,170,6|8,0:3|0:1,0:0:0:0:
197,232,162343,2,0,L|217:314,1,85,8|0,0:0|0:0,0:0:0:0:
52,102,162686,6,0,L|100:297,2,170,4|8|8,0:3|0:0|0:1,0:0:0:0:
85,3,163543,1,8,0:1:0:0:
52,102,163714,2,0,P|96:103|145:92,1,85,8|0,0:0|0:0,0:0:0:0:
292,23,164057,5,6,0:3:0:0:
136,95,164228,1,2,0:0:0:0:
297,0,164400,1,10,0:0:0:0:
432,123,164571,1,10,0:1:0:0:
432,123,164914,5,10,0:1:0:0:
208,56,165086,1,10,0:0:0:0:
141,280,165257,1,8,0:0:0:0:
146,297,165343,1,8,0:0:0:0:
156,313,165428,6,0,B|207:338|207:338|350:297,1,170,4|8,0:0|0:0,0:0:0:0:
512,384,165943,2,0,P|448:275|437:204,1,170,4|0,0:0|0:0,0:0:0:0:
313,61,166457,2,0,L|300:182,1,85,4|0,0:0|0:0,0:0:0:0:
211,199,166800,5,2,0:0:0:0:
174,163,166914,2,0,P|166:133|158:94,1,56.6666666666667,2|6,0:0|0:0,0:0:0:0:
129,284,167143,5,10,0:0:0:0:
163,320,167257,2,0,P|171:350|179:389,1,56.6666666666667,10|10,0:0|0:0,0:0:0:0:
22,290,167486,1,10,0:0:0:0:
24,271,167600,1,10,0:3:0:0:
26,252,167714,1,10,0:3:0:0:
16,226,167828,1,10,0:3:0:0:
17,216,167943,1,10,0:3:0:0:
18,207,168057,1,10,0:3:0:0:
19,197,168171,5,6,0:0:0:0:
172,163,168857,5,2,0:0:0:0:
325,129,169543,5,2,0:0:0:0:
478,95,170228,5,2,0:0:0:0:
19,197,170914,5,4,0:0:0:0:
54,222,179143,5,2,3:0:0:0:
133,167,179314,1,0,3:0:0:0:
139,262,179486,1,0,3:0:0:0:
25,204,179657,5,10,3:1:0:0:
161,152,179828,1,8,3:1:0:0:
138,294,180000,1,8,3:1:0:0:
79,115,180171,5,10,0:1:0:0:
251,181,180343,1,8,0:1:0:0:
102,337,180514,1,8,0:1:0:0:
206,41,180686,5,10,0:0:0:0:
343,229,180857,1,8,0:0:0:0:
102,337,181028,1,8,0:0:0:0:
422,66,181200,5,10,0:0:0:0:
301,324,181372,1,8,0:0:0:0:
10,234,181543,1,8,0:0:0:0:
384,146,181714,5,6,0:0:0:0:
322,183,184457,6,0,P|296:194|269:201,1,29.7499990921021,2|2,0:0|0:0,0:0:0:0:
229,146,184628,6,0,B|191:98|109:117|96:199|142:242|189:239|189:239|248:234|290:306|241:371|178:367|148:331,1,472.500000000001,4|0,0:0|0:0,0:0:0:0:
149,331,186000,2,0,B|112:282|150:206|232:214|263:270|248:313|248:313|230:370|290:429|365:396|376:335|347:297,1,472.49999999999,2|2,0:0|0:0,0:0:0:0:
348,298,187371,5,4,0:0:0:0:
364,320,187714,5,8,0:1:0:0:
149,331,187886,1,8,0:1:0:0:
409,214,188057,5,8,0:1:0:0:
120,194,188228,1,8,0:0:0:0:
459,96,188400,5,8,0:0:0:0:
86,32,188571,1,12,0:0:0:0:
120,194,189600,5,0,0:0:0:0:
128,210,189771,1,0,0:0:0:0:
137,226,189943,1,0,0:0:0:0:
359,238,190114,5,4,0:0:0:0:
289,69,190285,1,2,0:0:0:0:
110,89,190456,1,10,0:0:0:0:
74,264,190628,1,2,0:0:0:0:
74,264,190971,5,10,0:1:0:0:
229,353,191142,1,10,0:0:0:0:
359,238,191314,1,2,0:0:0:0:
359,238,191656,5,2,0:0:0:0:
289,68,191828,1,10,0:0:0:0:
110,89,191999,1,2,0:0:0:0:
359,238,192171,5,10,0:1:0:0:
110,89,192342,1,10,0:1:0:0:
229,353,192514,1,10,0:0:0:0:
289,68,192685,1,2,0:0:0:0:
74,264,192856,6,0,P|147:296|205:309,1,101.999996887207,4|0,0:3|0:0,0:0:0:0:
289,68,193200,2,0,P|224:115|184:158,1,101.999996887207,8|0,0:0|0:0,0:0:0:0:
168,301,193543,1,8,0:1:0:0:
208,130,193714,1,8,0:1:0:0:
168,301,193886,1,8,0:0:0:0:
488,298,194057,1,8,0:1:0:0:
488,298,194143,1,8,0:1:0:0:
488,298,194228,6,0,L|263:249,1,203.999993774414,4|8,0:3|0:0,0:0:0:0:
44,333,194743,2,0,P|141:286|131:171,1,203.999993774414,2|8,0:0|0:1,0:0:0:0:
80,27,195257,1,8,0:0:0:0:
48,176,195428,1,8,0:0:0:0:
48,176,195514,1,8,0:0:0:0:
48,176,195600,6,0,L|180:207,1,101.999996887207,4|0,0:0|0:0,0:0:0:0:
369,180,195943,1,8,0:0:0:0:
240,0,196114,2,0,B|215:62|215:62|268:223,1,203.999993774414,2|8,0:0|0:1,0:0:0:0:
345,346,196628,1,8,0:0:0:0:
345,346,196800,1,0,0:0:0:0:
468,200,196971,6,0,L|337:173,1,101.999996887207,4|0,0:3|0:0,0:0:0:0:
98,190,197314,5,10,0:0:0:0:
352,194,197485,1,0,0:0:0:0:
169,264,197657,5,10,0:1:0:0:
355,89,197828,1,8,0:1:0:0:
276,267,198000,5,10,0:0:0:0:
282,12,198171,1,0,0:0:0:0:
70,175,198343,6,0,L|115:395,1,203.999993774414,4|8,0:0|0:0,0:0:0:0:
167,45,198857,2,0,P|87:5|65:-2,1,101.999996887207,2|8,0:0|0:1,0:0:0:0:
217,200,199200,1,8,0:1:0:0:
217,200,199371,2,0,P|291:150|308:135,1,101.999996887207,8|0,0:0|0:0,0:0:0:0:
439,5,199714,6,0,P|464:100|538:229,1,203.999993774414,4|8,0:0|0:0,0:0:0:0:
278,125,200228,2,0,P|324:215|351:313,1,203.999993774414,4|8,0:0|0:1,0:0:0:0:
216,362,200743,1,10,0:0:0:0:
364,290,200914,1,2,0:0:0:0:
219,365,201086,6,0,B|90:357|162:300|-8:301,1,203.999993774414,4|8,0:0|0:0,0:0:0:0:
25,104,201600,2,0,B|154:112|82:169|252:168,1,203.999993774414,2|8,0:0|0:1,0:0:0:0:
196,62,202114,1,8,0:0:0:0:
48,209,202286,1,0,0:0:0:0:
199,65,202457,6,0,B|278:48|278:48|322:65|322:65|402:47,1,203.999993774414,4|8,0:3|0:0,0:0:0:0:
432,245,202971,2,0,B|357:261|357:261|313:244|313:244|234:261,1,203.999993774414,4|8,0:3|0:1,0:0:0:0:
413,226,203486,2,0,L|529:201,1,101.999996887207,8|0,0:0|0:0,0:0:0:0:
197,374,203828,6,0,P|143:288|145:187,1,203.999993774414,4|8,0:3|0:0,0:0:0:0:
304,33,204343,2,0,B|279:52|263:86|267:123|267:123|267:123|267:123|257:91|229:66|193:58,1,203.999993774414,2|8,0:3|0:1,0:0:0:0:
377,127,204857,1,8,0:0:0:0:
164,168,205028,6,0,L|-13:121,1,152.999995330811,4|0,0:0|0:0,0:0:0:0:
145,187,205371,2,0,L|278:222,1,101.999996887207,4|8,0:3|0:0,0:0:0:0:
464,218,205714,1,4,0:0:0:0:
317,14,205886,1,8,0:0:0:0:
243,212,206057,5,8,0:0:0:0:
243,212,206143,1,8,0:0:0:0:
243,212,206228,2,0,L|178:227,1,50.9999984436036,8|8,0:0|0:0,0:0:0:0:
16,128,206400,2,0,L|98:109,1,50.9999984436036,8|8,0:0|0:0,0:0:0:0:
307,311,206571,5,4,0:0:0:0:
70,365,206742,1,2,0:0:0:0:
16,128,206914,1,10,0:0:0:0:
253,73,207085,1,2,0:0:0:0:
253,73,207428,5,10,0:1:0:0:
307,311,207600,1,10,0:0:0:0:
70,365,207772,1,2,0:0:0:0:
70,365,208114,5,2,0:0:0:0:
16,128,208286,1,10,0:0:0:0:
253,73,208457,1,2,0:0:0:0:
253,73,208800,5,10,0:1:0:0:
307,311,208971,1,10,0:0:0:0:
16,128,209143,1,2,0:0:0:0:
70,365,209314,6,0,L|186:336,1,101.999996887207,4|0,0:0|0:0,0:0:0:0:
241,95,209657,1,8,0:0:0:0:
488,310,209828,2,0,P|437:304|369:278,1,101.999996887207,2|8,0:0|0:1,0:0:0:0:
440,38,210171,2,0,P|460:85|471:157,1,101.999996887207,10|8,0:1|0:0,0:0:0:0:
119,200,210514,6,0,P|200:140|300:143,1,203.999993774414,2|0,0:0|0:0,0:0:0:0:
391,289,211028,1,8,0:0:0:0:
315,42,211200,2,0,L|297:169,1,101.999996887207,2|8,0:0|0:1,0:0:0:0:
205,346,211543,1,8,0:1:0:0:
119,200,211714,1,8,0:0:0:0:
392,289,211886,1,8,0:0:0:0:
392,289,211971,1,8,0:0:0:0:
392,289,212057,5,6,0:0:0:0:
439,131,212228,1,2,0:0:0:0:
329,9,212400,1,10,0:0:0:0:
167,45,212571,1,2,0:0:0:0:
167,45,212914,5,10,0:1:0:0:
119,201,213085,1,10,0:0:0:0:
229,321,213257,1,2,0:0:0:0:
229,321,213600,5,2,0:0:0:0:
401,298,213771,1,10,0:0:0:0:
439,131,213943,1,2,0:0:0:0:
119,201,214114,5,10,0:1:0:0:
167,45,214286,1,10,0:1:0:0:
401,298,214457,1,10,0:0:0:0:
439,131,214629,1,2,0:0:0:0:
119,201,214800,6,0,P|61:284|79:384,2,203.999993774414,4|8|8,0:0|0:0|0:1,0:0:0:0:
401,298,215657,1,8,0:1:0:0:
162,306,215828,1,8,0:0:0:0:
290,112,216000,1,8,0:1:0:0:
290,112,216086,1,8,0:1:0:0:
290,112,216171,6,0,B|330:173|330:173|293:342,2,203.999993774414,4|8|8,0:3|0:0|0:1,0:0:0:0:
99,0,217028,1,8,0:1:0:0:
100,219,217200,1,8,0:0:0:0:
290,112,217371,1,8,0:0:0:0:
290,112,217457,1,8,0:0:0:0:
290,112,217543,6,0,B|407:64|383:139|499:100,1,203.999993774414,4|8,0:0|0:0,0:0:0:0:
210,305,218057,2,0,B|93:353|117:278|1:317,1,203.999993774414,2|8,0:0|0:1,0:0:0:0:
250,211,218571,2,0,L|352:232,1,101.999996887207,8|0,0:0|0:0,0:0:0:0:
462,259,218914,5,4,0:3:0:0:
462,259,219086,1,0,0:0:0:0:
328,27,219257,5,8,0:0:0:0:
233,240,219428,1,0,0:0:0:0:
339,257,219600,5,8,0:1:0:0:
222,10,219771,1,8,0:1:0:0:
127,223,219943,2,0,L|157:350,1,101.999996887207,8|0,0:0|0:0,0:0:0:0:
512,148,220286,6,0,B|481:100|402:101|402:101|375:135|302:144,1,203.999993774414,4|8,0:0|0:0,0:0:0:0:
122,33,220800,2,0,L|227:8,1,101.999996887207,2|8,0:0|0:1,0:0:0:0:
127,223,221143,1,8,0:1:0:0:
127,223,221314,2,0,L|27:199,1,101.999996887207,8|0,0:0|0:0,0:0:0:0:
334,138,221657,6,0,L|373:372,1,203.999993774414,4|8,0:0|0:0,0:0:0:0:
316,121,222171,1,4,0:3:0:0:
367,339,222343,1,2,0:0:0:0:
138,241,222514,1,10,0:1:0:0:
367,339,222686,1,10,0:0:0:0:
229,184,222857,1,2,0:0:0:0:
81,349,223028,6,0,P|29:261|64:143,1,203.999993774414,4|8,0:0|0:0,0:0:0:0:
189,44,223543,2,0,P|138:133|19:161,1,203.999993774414,4|8,0:0|0:1,0:0:0:0:
169,29,224057,2,0,P|228:9|303:2,1,101.999996887207,8|0,0:0|0:0,0:0:0:0:
431,223,224400,6,0,B|479:105|404:138|445:24,1,203.999993774414,4|8,0:3|0:0,0:0:0:0:
267,2,224914,2,0,B|225:115|300:82|252:200,1,203.999993774414,4|8,0:3|0:1,0:0:0:0:
153,363,225428,2,0,P|109:317|163:239,1,152.999995330811,8|0,0:0|0:0,0:0:0:0:
253,200,225771,6,0,L|488:256,2,203.999993774414,4|8|8,0:3|0:0|0:1,0:0:0:0:
85,54,226628,1,8,0:1:0:0:
85,54,226800,1,8,0:0:0:0:
25,270,226971,2,0,P|117:236|145:231,1,101.999996887207,4|0,0:3|0:0,0:0:0:0:
253,200,227314,1,8,0:1:0:0:
195,15,227486,5,8,0:0:0:0:
135,252,227657,1,8,0:1:0:0:
305,51,227828,5,8,0:0:0:0:
245,288,227999,1,8,0:1:0:0:
415,87,228172,5,8,0:0:0:0:
355,324,228343,1,8,0:1:0:0:
195,15,228514,6,0,L|225:236,1,203.999993774414,4|8,0:3|0:0,0:0:0:0:
443,62,229028,2,0,L|405:282,1,203.999993774414,4|8,0:3|0:1,0:0:0:0:
181,33,229543,2,0,L|200:175,1,101.999996887207,8|0,0:0|0:0,0:0:0:0:
87,384,229886,6,0,P|26:238|-7:186,1,203.999993774414,4|8,0:3|0:0,0:0:0:0:
230,315,230400,2,0,P|222:156|209:96,1,203.999993774414,4|8,0:3|0:1,0:0:0:0:
420,349,230914,2,0,P|467:197|470:158,1,152.999995330811,8|0,0:0|0:0,0:0:0:0:
423,4,231257,6,0,L|469:218,1,203.999993774414,4|8,0:3|0:0,0:0:0:0:
404,22,231771,1,0,0:0:0:0:
465,203,231943,1,8,0:1:0:0:
223,83,232114,1,8,0:1:0:0:
465,203,232286,1,8,0:0:0:0:
284,264,232457,6,0,P|114:225|103:225,1,152.999995330811,4|0,0:3|0:0,0:0:0:0:
30,334,232800,2,0,P|148:206|154:196,1,152.999995330811,4|0,0:3|0:0,0:0:0:0:
96,79,233143,2,0,P|147:245|152:255,1,152.999995330811,4|0,0:3|0:0,0:0:0:0:
184,323,233486,1,8,0:1:0:0:
323,110,233657,1,8,0:0:0:0:
440,293,233828,1,8,0:0:0:0:
446,314,233914,1,8,0:0:0:0:
439,331,234000,6,0,P|350:329|310:214,1,203.999993774414,4|8,0:0|0:0,0:0:0:0:
512,81,234514,2,0,B|480:77|445:91|423:121|423:121|423:121|423:121|438:91|434:53|413:23,1,203.999993774414,6|8,0:0|0:0,0:0:0:0:
108,112,235028,6,0,B|183:96|183:96|227:113|227:113|306:96,1,203.999993774414,4|0,0:0|0:0,0:0:0:0:
414,24,235543,1,8,0:1:0:0:
291,119,235714,2,0,L|172:143,1,101.999996887207,8|0,0:0|0:0,0:0:0:0:
0,67,236057,1,8,0:0:0:0:
192,140,236228,1,8,0:1:0:0:
0,300,236400,1,8,0:0:0:0:
108,112,236571,1,8,0:0:0:0:
108,112,236657,1,8,0:0:0:0:
108,112,236742,5,4,0:0:0:0:
218,330,236914,1,2,0:0:0:0:
433,218,237086,1,2,0:0:0:0:
169,220,237257,6,0,L|30:188,1,101.999996887207,6|0,0:3|0:0,0:0:0:0:
305,96,237600,1,2,0:0:0:0:
411,374,237771,2,0,L|210:327,1,203.999993774414,4|0,0:3|0:0,0:0:0:0:
223,113,238286,5,2,3:0:0:0:
213,328,238457,1,8,3:1:0:0:
305,96,238628,1,8,3:1:0:0:
129,306,238800,1,8,3:2:0:0:
389,118,238971,1,8,3:2:0:0:
54,264,239143,1,8,3:2:0:0:
464,160,239314,1,8,3:2:0:0:
5,194,239486,6,0,L|-24:114,2,50.9999984436036,2|0|0,0:0|0:0|0:0,0:0:0:0:
26,71,240000,1,2,0:0:0:0:
192,224,240857,6,0,L|163:144,2,50.9999984436036,2|0|0,0:0|0:0|0:0,0:0:0:0:
213,101,241371,1,2,0:0:0:0:
379,254,242228,6,0,L|350:174,2,50.9999984436036,2|0|0,0:0|0:0|0:0,0:0:0:0:
400,131,242742,1,2,0:0:0:0:
408,115,243086,1,2,0:0:0:0:
408,97,243428,1,2,0:0:0:0:
350,26,243600,6,0,B|317:29|295:54|295:54|257:60|217:26,2,136,2|2|2,0:0|0:0|0:0,0:0:0:0:
