osu file format v14

[General]
AudioFilename: audio.ogg
AudioLeadIn: 0
PreviewTime: 57381
Countdown: 0
SampleSet: Drum
StackLeniency: 0.7
Mode: 3
LetterboxInBreaks: 0
SpecialStyle: 0
WidescreenStoryboard: 0

[Editor]
Bookmarks: 1614,13393,25172,36951,45786,57565,69344,81123
DistanceSpacing: 1.4
BeatDivisor: 4
GridSize: 4
TimelineZoom: 1.5

[Metadata]
Title:Folila (TV Size)
TitleUnicode:ふぉりら (TV Size)
Artist:ClariS
ArtistUnicode:ClariS
Creator:Drum-Hitnormal
Version:Hard
Source:カノジョも彼女 Season 2
Tags:kanojo mo kanojo anime japanese pop jpop j-pop ending ed dudehacker ml-ysg nabi- クラリス Clara クララ Karen カレン 重永 亮介 Ryosuke Shigenaga 丸山 真由子 Mayuko Maruyama VVCL-2372
BeatmapID:4417574
BeatmapSetID:2105369

[Difficulty]
HPDrainRate:7.5
CircleSize:4
OverallDifficulty:7.5
ApproachRate:5
SliderMultiplier:1.4
SliderTickRate:1

[Events]
//Background and Video events
0,0,"kanokano.jpg",0,0
Video,0,"kanoakanos2.mp4"
//Break Periods
//Storyboard Layer 0 (Background)
//Storyboard Layer 1 (Fail)
//Storyboard Layer 2 (Pass)
//Storyboard Layer 3 (Foreground)
//Storyboard Layer 4 (Overlay)
//Storyboard Sound Samples

[TimingPoints]
142,368.098159509202,4,3,1,70,1,0

[HitObjects]
192,192,142,5,0,0:0:0:0:
64,192,326,1,0,0:0:0:0:
320,192,326,1,0,0:0:0:0:
192,192,510,128,0,602:0:0:0:0:
448,192,510,128,0,694:0:0:0:0:
64,192,878,1,0,0:0:0:0:
192,192,970,1,0,0:0:0:0:
320,192,1062,1,0,0:0:0:0:
448,192,1154,1,0,0:0:0:0:
64,192,1246,1,0,0:0:0:0:
192,192,1338,1,0,0:0:0:0:
320,192,1430,1,0,0:0:0:0:
448,192,1522,1,0,0:0:0:0:
64,192,1614,1,2,0:0:0:0:
192,192,1614,1,0,0:0:0:0:
320,192,1982,128,0,2350:0:0:0:0:
64,192,2350,128,8,2718:0:0:0:0:
448,192,2350,1,2,0:0:0:0:
320,192,2718,1,8,0:0:0:0:
448,192,2718,1,0,0:0:0:0:
192,192,2902,128,0,3270:0:0:0:0:
64,192,2902,1,2,0:0:0:0:
320,192,3270,128,0,3638:0:0:0:0:
448,192,3638,1,0,0:0:0:0:
64,192,3822,128,2,4191:0:0:0:0:
192,192,3822,1,8,0:0:0:0:
320,192,4191,1,8,0:0:0:0:
448,192,4191,1,0,0:0:0:0:
64,192,4375,1,2,0:0:0:0:
192,192,4375,1,0,0:0:0:0:
192,192,4927,1,0,0:0:0:0:
320,192,5111,1,0,0:0:0:0:
64,192,5295,1,2,0:0:0:0:
448,192,5295,128,8,5663:0:0:0:0:
64,192,5663,1,8,0:0:0:0:
192,192,5663,1,0,0:0:0:0:
320,192,5847,1,2,0:0:0:0:
448,192,5847,1,0,0:0:0:0:
64,192,6031,1,0,0:0:0:0:
192,192,6215,1,0,0:0:0:0:
448,192,6399,1,0,0:0:0:0:
320,192,6583,1,0,0:0:0:0:
192,192,6767,128,8,7135:0:0:0:0:
64,192,6767,1,2,0:0:0:0:
448,192,7135,128,0,7503:0:0:0:0:
320,192,7319,128,0,7503:0:0:0:0:
64,192,7503,1,2,0:0:0:0:
192,192,7503,1,0,0:0:0:0:
64,192,7872,128,8,8240:0:0:0:0:
448,192,7872,1,0,0:0:0:0:
192,192,8240,1,2,0:0:0:0:
320,192,8240,1,0,0:0:0:0:
320,192,8424,1,0,0:0:0:0:
192,192,8424,1,2,0:0:0:0:
320,192,8608,1,8,0:0:0:0:
448,192,8608,1,0,0:0:0:0:
64,192,8792,1,2,0:0:0:0:
192,192,8792,128,0,9160:0:0:0:0:
64,192,9160,1,2,0:0:0:0:
448,192,9160,1,0,0:0:0:0:
192,192,9344,1,8,0:0:0:0:
320,192,9344,1,0,0:0:0:0:
448,192,9528,1,0,0:0:0:0:
192,192,9712,1,2,0:0:0:0:
64,192,9712,128,8,10080:0:0:0:0:
320,192,10080,1,8,0:0:0:0:
448,192,10080,1,0,0:0:0:0:
64,192,10264,1,2,0:0:0:0:
192,192,10264,1,0,0:0:0:0:
192,192,10632,1,0,0:0:0:0:
320,192,10816,1,8,0:0:0:0:
448,192,10816,1,0,0:0:0:0:
64,192,11000,1,0,0:0:0:0:
448,192,11184,128,8,11553:0:0:0:0:
192,192,11184,1,2,0:0:0:0:
320,192,11368,1,0,0:0:0:0:
64,192,11553,1,8,0:0:0:0:
192,192,11553,1,0,0:0:0:0:
320,192,11737,1,2,0:0:0:0:
448,192,11737,1,0,0:0:0:0:
64,192,11921,1,0,0:0:0:0:
192,192,12105,1,0,0:0:0:0:
448,192,12289,1,0,0:0:0:0:
320,192,12289,1,8,0:0:0:0:
64,192,12473,1,0,0:0:0:0:
192,192,12657,1,8,0:0:0:0:
448,192,12657,1,0,0:0:0:0:
320,192,12841,1,0,0:0:0:0:
64,192,12841,1,8,0:0:0:0:
448,192,12933,1,8,0:0:0:0:
64,192,13025,1,2,0:0:0:0:
192,192,13025,1,0,0:0:0:0:
448,192,13209,1,0,0:0:0:0:
64,192,13393,1,2,0:0:0:0:
192,192,13393,128,4,13577:0:0:0:0:
320,192,13393,1,0,0:0:0:0:
448,192,13761,128,0,13945:0:0:0:0:
192,192,13761,128,8,14129:0:0:0:0:
64,192,14037,1,8,0:0:0:0:
320,192,14129,128,0,14497:0:0:0:0:
64,192,14313,128,2,14497:0:0:0:0:
192,192,14497,128,8,14681:0:0:0:0:
448,192,14497,1,0,0:0:0:0:
320,192,14681,128,2,14865:0:0:0:0:
448,192,14681,128,0,15049:0:0:0:0:
320,192,15049,128,0,15418:0:0:0:0:
192,192,15049,128,2,15234:0:0:0:0:
448,192,15234,1,8,0:0:0:0:
192,192,15418,128,0,15786:0:0:0:0:
64,192,15418,128,0,15602:0:0:0:0:
448,192,15510,1,8,0:0:0:0:
64,192,15786,128,2,15970:0:0:0:0:
320,192,15786,1,0,0:0:0:0:
320,192,15970,128,8,16338:0:0:0:0:
448,192,15970,128,0,16338:0:0:0:0:
64,192,16338,1,2,0:0:0:0:
192,192,16338,128,0,16706:0:0:0:0:
448,192,16706,1,0,0:0:0:0:
320,192,16706,128,8,17074:0:0:0:0:
448,192,16982,1,8,0:0:0:0:
64,192,17074,128,0,17442:0:0:0:0:
192,192,17074,128,0,17258:0:0:0:0:
448,192,17258,128,2,17442:0:0:0:0:
192,192,17442,128,8,17626:0:0:0:0:
320,192,17626,128,2,17994:0:0:0:0:
448,192,17626,128,0,17810:0:0:0:0:
64,192,17994,128,2,18178:0:0:0:0:
192,192,17994,128,0,18362:0:0:0:0:
448,192,18178,1,8,0:0:0:0:
64,192,18362,128,2,18730:0:0:0:0:
320,192,18362,128,0,18546:0:0:0:0:
448,192,18730,128,0,19099:0:0:0:0:
192,192,18730,1,2,0:0:0:0:
64,192,18915,1,8,0:0:0:0:
320,192,18915,128,0,19283:0:0:0:0:
64,192,19283,1,2,0:0:0:0:
192,192,19283,128,4,19467:0:0:0:0:
448,192,19283,1,0,0:0:0:0:
192,192,19651,128,8,20019:0:0:0:0:
320,192,19651,1,0,0:0:0:0:
448,192,19927,1,8,0:0:0:0:
320,192,20019,128,0,20387:0:0:0:0:
64,192,20203,128,2,20387:0:0:0:0:
192,192,20387,128,8,20571:0:0:0:0:
320,192,20571,128,2,20755:0:0:0:0:
448,192,20571,128,0,20939:0:0:0:0:
192,192,20939,128,2,21123:0:0:0:0:
320,192,20939,128,0,21307:0:0:0:0:
64,192,21123,1,8,0:0:0:0:
64,192,21307,128,0,21491:0:0:0:0:
192,192,21307,128,0,21675:0:0:0:0:
448,192,21399,1,8,0:0:0:0:
320,192,21675,1,0,0:0:0:0:
64,192,21675,128,2,21859:0:0:0:0:
320,192,21859,128,8,22227:0:0:0:0:
448,192,21859,128,0,22227:0:0:0:0:
64,192,22227,1,2,0:0:0:0:
192,192,22227,128,0,22595:0:0:0:0:
320,192,22595,128,8,22964:0:0:0:0:
448,192,22595,1,0,0:0:0:0:
448,192,22872,1,8,0:0:0:0:
192,192,22964,128,0,23148:0:0:0:0:
64,192,22964,128,0,23332:0:0:0:0:
448,192,23148,128,2,23332:0:0:0:0:
320,192,23332,128,8,23516:0:0:0:0:
192,192,23516,128,2,23700:0:0:0:0:
448,192,23516,128,0,23884:0:0:0:0:
64,192,23884,128,2,24068:0:0:0:0:
320,192,23884,128,0,24252:0:0:0:0:
448,192,24068,1,8,0:0:0:0:
64,192,24252,128,2,24620:0:0:0:0:
192,192,24252,128,0,24436:0:0:0:0:
192,192,24620,1,2,0:0:0:0:
448,192,24620,128,0,24988:0:0:0:0:
320,192,24804,128,0,25172:0:0:0:0:
64,192,24804,1,8,0:0:0:0:
448,192,25172,1,0,0:0:0:0:
64,192,25172,128,2,25448:0:0:0:0:
192,192,25172,128,4,25448:0:0:0:0:
192,192,25540,128,8,25816:0:0:0:0:
320,192,25540,128,0,25816:0:0:0:0:
64,192,25816,1,8,0:0:0:0:
448,192,25816,1,0,0:0:0:0:
320,192,25908,128,0,26184:0:0:0:0:
64,192,26092,1,2,0:0:0:0:
192,192,26092,1,0,0:0:0:0:
64,192,26276,1,8,0:0:0:0:
448,192,26276,1,0,0:0:0:0:
320,192,26461,1,0,0:0:0:0:
192,192,26461,1,2,0:0:0:0:
192,192,26645,1,0,0:0:0:0:
320,192,26829,1,2,0:0:0:0:
448,192,26829,1,0,0:0:0:0:
64,192,27013,1,8,0:0:0:0:
192,192,27013,1,0,0:0:0:0:
320,192,27197,1,0,0:0:0:0:
64,192,27289,1,8,0:0:0:0:
448,192,27289,1,0,0:0:0:0:
320,192,27381,1,0,0:0:0:0:
192,192,27381,1,0,0:0:0:0:
192,192,27565,1,2,0:0:0:0:
448,192,27565,1,0,0:0:0:0:
64,192,27749,1,8,0:0:0:0:
320,192,27749,1,0,0:0:0:0:
64,192,27933,1,0,0:0:0:0:
320,192,28117,1,2,0:0:0:0:
448,192,28117,1,0,0:0:0:0:
192,192,28301,1,0,0:0:0:0:
448,192,28485,1,0,0:0:0:0:
64,192,28485,1,8,0:0:0:0:
320,192,28669,1,0,0:0:0:0:
64,192,28761,1,8,0:0:0:0:
192,192,28761,1,0,0:0:0:0:
320,192,28853,1,0,0:0:0:0:
448,192,28853,1,0,0:0:0:0:
64,192,29037,1,2,0:0:0:0:
448,192,29037,1,0,0:0:0:0:
320,192,29221,1,0,0:0:0:0:
64,192,29221,1,8,0:0:0:0:
192,192,29405,1,0,0:0:0:0:
448,192,29589,1,0,0:0:0:0:
320,192,29589,1,2,0:0:0:0:
64,192,29773,1,0,0:0:0:0:
192,192,29957,1,8,0:0:0:0:
448,192,29957,1,0,0:0:0:0:
320,192,30141,1,0,0:0:0:0:
64,192,30326,1,2,0:0:0:0:
192,192,30326,1,0,0:0:0:0:
448,192,30510,1,0,0:0:0:0:
64,192,30694,1,8,0:0:0:0:
320,192,30694,1,0,0:0:0:0:
192,192,30878,1,0,0:0:0:0:
64,192,31062,128,2,31338:0:0:0:0:
192,192,31062,128,4,31338:0:0:0:0:
320,192,31062,128,0,31338:0:0:0:0:
192,192,31430,128,8,31706:0:0:0:0:
320,192,31430,128,0,31706:0:0:0:0:
64,192,31706,1,8,0:0:0:0:
448,192,31706,1,0,0:0:0:0:
320,192,31798,128,0,32074:0:0:0:0:
64,192,31982,1,2,0:0:0:0:
192,192,31982,1,0,0:0:0:0:
448,192,32166,1,0,0:0:0:0:
64,192,32166,1,8,0:0:0:0:
192,192,32350,1,2,0:0:0:0:
448,192,32350,1,0,0:0:0:0:
320,192,32534,1,0,0:0:0:0:
64,192,32718,1,2,0:0:0:0:
192,192,32718,1,0,0:0:0:0:
320,192,32902,1,8,0:0:0:0:
448,192,32902,1,0,0:0:0:0:
192,192,33086,1,0,0:0:0:0:
448,192,33178,1,0,0:0:0:0:
64,192,33178,1,8,0:0:0:0:
192,192,33270,1,0,0:0:0:0:
320,192,33270,1,0,0:0:0:0:
64,192,33454,1,2,0:0:0:0:
320,192,33454,1,0,0:0:0:0:
192,192,33638,1,8,0:0:0:0:
448,192,33638,1,0,0:0:0:0:
448,192,33822,1,0,0:0:0:0:
64,192,34007,1,2,0:0:0:0:
192,192,34007,1,0,0:0:0:0:
320,192,34191,1,0,0:0:0:0:
448,192,34375,1,0,0:0:0:0:
64,192,34375,1,8,0:0:0:0:
192,192,34559,1,0,0:0:0:0:
320,192,34651,1,8,0:0:0:0:
448,192,34651,1,0,0:0:0:0:
64,192,34743,1,0,0:0:0:0:
192,192,34743,1,0,0:0:0:0:
64,192,34927,1,2,0:0:0:0:
448,192,34927,1,0,0:0:0:0:
192,192,35111,1,8,0:0:0:0:
448,192,35111,1,0,0:0:0:0:
320,192,35295,1,0,0:0:0:0:
192,192,35479,1,0,0:0:0:0:
64,192,35479,1,2,0:0:0:0:
448,192,35571,1,0,0:0:0:0:
192,192,35663,1,0,0:0:0:0:
448,192,35755,1,0,0:0:0:0:
64,192,35847,1,8,0:0:0:0:
320,192,35847,1,0,0:0:0:0:
192,192,35939,1,0,0:0:0:0:
320,192,36031,1,0,0:0:0:0:
192,192,36123,1,0,0:0:0:0:
448,192,36215,1,0,0:0:0:0:
320,192,36215,1,2,0:0:0:0:
64,192,36307,1,0,0:0:0:0:
448,192,36399,1,0,0:0:0:0:
64,192,36491,1,0,0:0:0:0:
192,192,36583,1,8,0:0:0:0:
320,192,36583,1,0,0:0:0:0:
320,192,36767,1,0,0:0:0:0:
64,192,36951,1,2,0:0:0:0:
192,192,36951,1,4,0:0:0:0:
448,192,36951,1,0,0:0:0:0:
64,192,37135,1,0,0:0:0:0:
64,192,37319,1,0,0:0:0:0:
64,192,37503,1,0,0:0:0:0:
64,192,37688,128,8,38056:0:0:0:0:
320,192,37688,1,0,0:0:0:0:
320,192,37872,128,0,38424:0:0:0:0:
64,192,38240,128,0,38424:0:0:0:0:
448,192,38424,1,0,0:0:0:0:
448,192,38608,1,0,0:0:0:0:
192,192,38792,1,2,0:0:0:0:
448,192,38792,1,0,0:0:0:0:
448,192,38976,1,0,0:0:0:0:
64,192,39160,1,8,0:0:0:0:
320,192,39160,1,0,0:0:0:0:
448,192,39160,128,0,39896:0:0:0:0:
192,192,39528,128,0,39896:0:0:0:0:
64,192,39896,128,2,40264:0:0:0:0:
320,192,39896,1,0,0:0:0:0:
320,192,40264,1,0,0:0:0:0:
192,192,40632,128,0,41000:0:0:0:0:
448,192,40632,1,0,0:0:0:0:
64,192,40632,1,8,0:0:0:0:
448,192,41000,1,0,0:0:0:0:
320,192,41368,1,0,0:0:0:0:
64,192,41553,1,2,0:0:0:0:
320,192,41553,1,0,0:0:0:0:
64,192,41737,1,2,0:0:0:0:
320,192,41737,1,0,0:0:0:0:
320,192,41921,1,0,0:0:0:0:
320,192,42105,128,0,42841:0:0:0:0:
64,192,42105,1,8,0:0:0:0:
448,192,42105,1,0,0:0:0:0:
192,192,42473,128,0,42841:0:0:0:0:
64,192,42841,1,2,0:0:0:0:
448,192,42841,1,0,0:0:0:0:
64,192,43025,1,0,0:0:0:0:
64,192,43209,1,0,0:0:0:0:
320,192,43209,1,0,0:0:0:0:
448,192,43393,1,0,0:0:0:0:
64,192,43577,1,8,0:0:0:0:
192,192,43577,1,0,0:0:0:0:
448,192,43577,1,0,0:0:0:0:
320,192,43761,1,0,0:0:0:0:
320,192,43945,1,0,0:0:0:0:
64,192,43945,1,0,0:0:0:0:
448,192,44129,1,0,0:0:0:0:
192,192,44313,1,2,0:0:0:0:
448,192,44313,1,0,0:0:0:0:
192,192,44497,128,0,44865:0:0:0:0:
448,192,44681,1,0,0:0:0:0:
320,192,44865,1,0,0:0:0:0:
64,192,45049,1,8,0:0:0:0:
320,192,45049,128,0,45786:0:0:0:0:
448,192,45049,1,0,0:0:0:0:
64,192,45418,128,8,45786:0:0:0:0:
192,192,45418,1,0,0:0:0:0:
448,192,45786,128,0,46522:0:0:0:0:
192,192,45786,128,4,45970:0:0:0:0:
320,192,45970,128,0,46154:0:0:0:0:
64,192,46154,128,0,46338:0:0:0:40:LR_Clap Normal.wav
320,192,46338,128,0,46706:0:0:0:0:
64,192,46522,128,0,47258:0:0:0:40:LR_Clap Normal.wav
192,192,46706,128,0,46890:0:0:0:0:
448,192,46890,128,0,47074:0:0:0:40:LR_Clap Normal.wav
320,192,47074,128,0,47258:0:0:0:0:
192,192,47258,128,0,47442:0:0:0:40:LR_Clap Normal.wav
448,192,47258,128,0,47994:0:0:0:0:
192,192,47626,128,0,47810:0:0:0:40:LR_Clap Normal.wav
192,192,47994,128,0,48362:0:0:0:40:LR_Clap Normal.wav
320,192,47994,128,0,48730:0:0:0:0:
448,192,48362,1,0,0:0:0:40:LR_Clap Normal.wav
64,192,48730,128,0,49467:0:0:0:40:LR_Clap Normal.wav
192,192,48730,128,0,48915:0:0:0:0:
448,192,48915,128,0,49099:0:0:0:0:
320,192,49099,128,0,49283:0:0:0:40:LR_Clap Normal.wav
192,192,49283,128,0,49651:0:0:0:0:
448,192,49467,128,0,50203:0:0:0:40:LR_Clap Normal.wav
64,192,49651,128,0,49835:0:0:0:0:
192,192,49835,128,0,50019:0:0:0:40:LR_Clap Normal.wav
320,192,50019,128,0,50203:0:0:0:0:
64,192,50203,128,0,50387:0:0:0:40:LR_Clap Normal.wav
192,192,50203,128,0,50939:0:0:0:0:
64,192,50571,128,0,50755:0:0:0:40:LR_Clap Normal.wav
64,192,50939,128,0,51307:0:0:0:40:LR_Clap Normal.wav
320,192,50939,128,0,51675:0:0:0:0:
448,192,51307,1,0,0:0:0:40:LR_Clap Normal.wav
64,192,51675,128,2,52043:0:0:0:0:
448,192,51675,128,0,51859:0:0:0:40:LR_Clap Normal.wav
320,192,51859,1,0,0:0:0:0:
448,192,52043,128,0,52227:0:0:0:40:LR_Clap Normal.wav
192,192,52043,128,2,52411:0:0:0:0:
64,192,52227,1,0,0:0:0:0:
320,192,52411,128,2,52780:0:0:0:0:
448,192,52411,128,0,52595:0:0:0:40:LR_Clap Normal.wav
192,192,52595,1,0,0:0:0:0:
64,192,52780,128,2,52964:0:0:0:0:
448,192,52780,128,0,53148:0:0:0:40:LR_Clap Normal.wav
192,192,52964,1,0,0:0:0:0:
64,192,53148,128,2,53332:0:0:0:0:
320,192,53148,128,0,53516:0:0:0:40:LR_Clap Normal.wav
448,192,53332,128,0,53516:0:0:0:0:
64,192,53516,128,2,53884:0:0:0:0:
192,192,53516,128,0,53884:0:0:0:40:LR_Clap Normal.wav
320,192,53884,128,2,54252:0:0:0:0:
448,192,53884,128,0,54252:0:0:0:40:LR_Clap Normal.wav
64,192,54252,128,2,54620:0:0:0:0:
192,192,54252,128,0,54620:0:0:0:40:LR_Clap Normal.wav
320,192,54620,128,2,54988:0:0:0:0:
448,192,54620,128,4,55172:0:0:0:0:
192,192,54988,1,0,0:0:0:0:
64,192,54988,1,8,0:0:0:0:
64,192,55356,128,2,55724:0:0:0:0:
320,192,55356,1,0,0:0:0:0:
448,192,55356,1,0,0:0:0:0:
320,192,55540,1,2,0:0:0:0:
448,192,55540,1,0,0:0:0:0:
192,192,55724,1,8,0:0:0:0:
448,192,55724,1,0,0:0:0:0:
320,192,55816,1,0,0:0:0:0:
192,192,55908,1,0,0:0:0:0:
320,192,56092,1,0,0:0:0:0:
448,192,56092,1,0,0:0:0:0:
64,192,56092,1,8,0:0:0:0:
64,192,56276,1,8,0:0:0:0:
320,192,56276,1,0,0:0:0:0:
448,192,56276,1,0,0:0:0:0:
192,192,56461,1,0,0:0:0:0:
64,192,56645,1,0,0:0:0:0:
192,192,56829,1,8,0:0:0:0:
320,192,56829,1,0,0:0:0:0:
448,192,56829,1,0,0:0:0:0:
320,192,57013,1,0,0:0:0:0:
448,192,57013,1,0,0:0:0:0:
192,192,57013,1,8,0:0:0:0:
64,192,57381,128,0,57473:0:0:0:0:
192,192,57381,128,0,57473:0:0:0:0:
64,192,57565,128,2,57749:0:0:0:0:
192,192,57565,128,4,57841:0:0:0:0:
448,192,57565,128,0,57933:0:0:0:0:
64,192,57933,1,8,0:0:0:0:
192,192,57933,1,0,0:0:0:0:
448,192,58117,128,0,58209:0:0:0:0:
320,192,58117,128,0,58209:0:0:0:0:
64,192,58209,1,8,0:0:0:0:
448,192,58301,128,0,58577:0:0:0:0:
320,192,58301,128,0,58485:0:0:0:0:
192,192,58485,1,2,0:0:0:0:
320,192,58669,1,8,0:0:0:0:
448,192,58669,1,0,0:0:0:0:
64,192,58853,128,0,58945:0:0:0:0:
192,192,58853,128,0,58945:0:0:0:0:
64,192,59037,128,2,59221:0:0:0:0:
192,192,59037,128,0,59313:0:0:0:0:
448,192,59221,1,2,0:0:0:0:
192,192,59405,1,0,0:0:0:0:
64,192,59405,1,8,0:0:0:0:
320,192,59589,128,0,59681:0:0:0:0:
448,192,59589,128,0,59681:0:0:0:0:
64,192,59681,1,8,0:0:0:0:
320,192,59773,128,0,59957:0:0:0:0:
448,192,59773,128,0,60049:0:0:0:0:
192,192,59957,1,2,0:0:0:0:
64,192,60141,128,8,60510:0:0:0:0:
320,192,60141,1,0,0:0:0:0:
192,192,60326,128,0,60510:0:0:0:0:
448,192,60510,1,0,0:0:0:0:
320,192,60510,128,2,60694:0:0:0:0:
192,192,60878,128,8,61246:0:0:0:0:
448,192,60878,1,0,0:0:0:0:
448,192,61062,128,0,61246:0:0:0:0:
64,192,61154,1,8,0:0:0:0:
320,192,61246,1,0,0:0:0:0:
192,192,61430,1,2,0:0:0:0:
448,192,61430,128,0,61798:0:0:0:0:
192,192,61614,1,8,0:0:0:0:
320,192,61614,1,0,0:0:0:0:
64,192,61798,128,0,62902:0:0:0:0:
320,192,61982,1,0,0:0:0:0:
192,192,61982,128,2,62166:0:0:0:0:
448,192,62166,128,0,62350:0:0:0:0:
192,192,62350,1,8,0:0:0:0:
320,192,62350,128,0,62534:0:0:0:0:
448,192,62534,128,0,62718:0:0:0:0:
320,192,62626,1,8,0:0:0:0:
192,192,62718,128,2,62902:0:0:0:0:
320,192,62902,128,2,63086:0:0:0:0:
448,192,62902,1,0,0:0:0:0:
64,192,63086,128,8,63270:0:0:0:0:
192,192,63086,1,0,0:0:0:0:
448,192,63270,128,0,63454:0:0:0:0:
64,192,63454,1,2,0:0:0:0:
192,192,63454,128,4,63638:0:0:0:0:
320,192,63454,1,0,0:0:0:0:
320,192,63822,128,8,64191:0:0:0:0:
448,192,63822,1,0,0:0:0:0:
192,192,64007,128,0,64191:0:0:0:0:
448,192,64099,1,8,0:0:0:0:
64,192,64191,1,0,0:0:0:0:
320,192,64375,1,0,0:0:0:0:
192,192,64375,128,2,64559:0:0:0:0:
64,192,64559,1,8,0:0:0:0:
448,192,64559,1,0,0:0:0:0:
448,192,64743,128,0,64927:0:0:0:0:
64,192,64927,128,2,65111:0:0:0:0:
192,192,64927,1,0,0:0:0:0:
320,192,65111,128,2,65295:0:0:0:0:
448,192,65111,1,0,0:0:0:0:
192,192,65295,128,0,66031:0:0:0:0:
64,192,65295,1,8,0:0:0:0:
64,192,65571,1,8,0:0:0:0:
448,192,65663,128,0,66031:0:0:0:0:
320,192,65847,1,2,0:0:0:0:
64,192,66031,1,8,0:0:0:0:
320,192,66031,128,0,66399:0:0:0:0:
64,192,66399,128,2,66583:0:0:0:0:
192,192,66399,1,0,0:0:0:0:
64,192,66767,1,8,0:0:0:0:
192,192,66767,1,0,0:0:0:0:
448,192,66767,1,0,0:0:0:0:
320,192,66951,128,0,67135:0:0:0:0:
448,192,67043,1,8,0:0:0:0:
192,192,67135,128,0,67319:0:0:0:0:
64,192,67319,1,2,0:0:0:0:
448,192,67319,128,0,67503:0:0:0:0:
64,192,67503,128,8,67872:0:0:0:0:
320,192,67503,128,0,67688:0:0:0:0:
192,192,67688,128,2,67872:0:0:0:0:
448,192,67688,1,0,0:0:0:0:
448,192,67872,128,8,68148:0:0:0:0:
320,192,67964,128,0,68148:0:0:0:0:
192,192,68056,128,0,68148:0:0:0:0:
64,192,68240,128,8,68516:0:0:0:0:
192,192,68332,128,0,68516:0:0:0:0:
320,192,68424,128,0,68516:0:0:0:0:
448,192,68608,128,8,68884:0:0:0:0:
320,192,68700,128,0,68884:0:0:0:0:
192,192,68792,128,0,68884:0:0:0:0:
64,192,68976,1,8,0:0:0:0:
192,192,68976,1,0,0:0:0:0:
320,192,68976,1,0,0:0:0:0:
320,192,69160,128,2,69252:0:0:0:0:
448,192,69160,128,0,69252:0:0:0:0:
320,192,69344,128,4,69620:0:0:0:0:
448,192,69344,128,0,69528:0:0:0:0:
64,192,69344,128,2,69712:0:0:0:0:
320,192,69712,1,8,0:0:0:0:
448,192,69712,1,0,0:0:0:0:
64,192,69896,128,0,69988:0:0:0:0:
192,192,69896,128,0,69988:0:0:0:0:
448,192,69988,1,8,0:0:0:0:
64,192,70080,128,0,70356:0:0:0:0:
192,192,70080,128,0,70264:0:0:0:0:
448,192,70264,1,2,0:0:0:0:
64,192,70448,1,8,0:0:0:0:
192,192,70448,1,0,0:0:0:0:
448,192,70632,128,0,70724:0:0:0:0:
320,192,70632,128,0,70724:0:0:0:0:
320,192,70816,128,2,71092:0:0:0:0:
448,192,70816,128,0,71000:0:0:0:0:
192,192,71000,1,2,0:0:0:0:
320,192,71184,1,8,0:0:0:0:
448,192,71184,1,0,0:0:0:0:
64,192,71368,128,0,71461:0:0:0:0:
192,192,71368,128,0,71461:0:0:0:0:
448,192,71461,1,8,0:0:0:0:
192,192,71553,128,0,71737:0:0:0:0:
64,192,71553,128,0,71829:0:0:0:0:
448,192,71737,1,2,0:0:0:0:
320,192,71921,1,8,0:0:0:0:
448,192,71921,128,0,72289:0:0:0:0:
320,192,72105,128,0,72289:0:0:0:0:
64,192,72289,1,2,0:0:0:0:
192,192,72289,128,0,72473:0:0:0:0:
64,192,72657,1,8,0:0:0:0:
320,192,72657,128,0,73025:0:0:0:0:
64,192,72841,128,0,73025:0:0:0:0:
448,192,72933,1,8,0:0:0:0:
192,192,73025,1,0,0:0:0:0:
320,192,73209,1,0,0:0:0:0:
64,192,73209,128,2,73577:0:0:0:0:
192,192,73393,1,8,0:0:0:0:
320,192,73393,1,0,0:0:0:0:
448,192,73577,128,0,74681:0:0:0:0:
192,192,73761,1,2,0:0:0:0:
320,192,73761,128,0,73945:0:0:0:0:
64,192,73945,128,0,74129:0:0:0:0:
192,192,74129,128,8,74313:0:0:0:0:
320,192,74129,1,0,0:0:0:0:
64,192,74313,128,0,74497:0:0:0:0:
192,192,74405,1,8,0:0:0:0:
320,192,74497,128,2,74681:0:0:0:0:
64,192,74681,1,2,0:0:0:0:
192,192,74681,128,0,74865:0:0:0:0:
320,192,74865,1,8,0:0:0:0:
448,192,74865,128,0,75049:0:0:0:0:
64,192,75049,128,0,75234:0:0:0:0:
192,192,75234,1,2,0:0:0:0:
320,192,75234,128,4,75602:0:0:0:0:
448,192,75234,1,0,0:0:0:0:
448,192,75418,128,0,75602:0:0:0:0:
192,192,75602,128,0,75970:0:0:0:0:
64,192,75602,1,8,0:0:0:0:
320,192,75786,128,0,75970:0:0:0:0:
64,192,75878,1,8,0:0:0:0:
448,192,75970,128,0,76338:0:0:0:0:
192,192,76154,1,2,0:0:0:0:
320,192,76154,128,0,76338:0:0:0:0:
64,192,76338,1,8,0:0:0:0:
192,192,76338,128,0,76706:0:0:0:0:
64,192,76522,128,0,76706:0:0:0:0:
448,192,76706,1,0,0:0:0:0:
320,192,76706,128,2,77442:0:0:0:0:
64,192,76890,1,2,0:0:0:0:
192,192,77074,128,8,77810:0:0:0:0:
448,192,77074,1,0,0:0:0:0:
448,192,77350,1,8,0:0:0:0:
64,192,77442,128,0,77810:0:0:0:0:
320,192,77626,1,2,0:0:0:0:
320,192,77810,128,8,78178:0:0:0:0:
448,192,77810,1,0,0:0:0:0:
64,192,78178,1,2,0:0:0:0:
192,192,78178,128,0,78546:0:0:0:0:
448,192,78362,1,0,0:0:0:0:
64,192,78546,1,8,0:0:0:0:
320,192,78546,1,0,0:0:0:0:
448,192,78546,1,0,0:0:0:0:
192,192,78730,1,2,0:0:0:0:
320,192,78730,128,0,79099:0:0:0:0:
64,192,78915,1,8,0:0:0:0:
448,192,78915,1,0,0:0:0:0:
192,192,79099,1,2,0:0:0:0:
448,192,79191,1,0,0:0:0:0:
320,192,79191,1,8,0:0:0:0:
64,192,79283,1,0,0:0:0:0:
192,192,79283,1,0,0:0:0:0:
64,192,79467,1,2,0:0:0:0:
448,192,79467,1,0,0:0:0:0:
192,192,79651,1,2,0:0:0:0:
320,192,79651,1,4,0:0:0:0:
448,192,79651,128,0,80847:0:0:0:0:
64,192,79835,128,0,80019:0:0:0:0:
320,192,80019,128,0,80203:0:0:0:0:
192,192,80203,128,0,80387:0:0:0:0:
64,192,80387,128,0,80755:0:0:0:0:
320,192,80571,128,0,80939:0:0:0:0:
192,192,80755,128,0,81031:0:0:0:0:
64,192,80939,128,0,81123:0:0:0:0:
192,192,81123,1,2,0:0:0:0:
320,192,81123,1,4,0:0:0:0:
448,192,81123,1,0,0:0:0:0:
64,192,81491,1,8,0:0:0:0:
320,192,81491,1,0,0:0:0:0:
448,192,81491,1,0,0:0:0:0:
192,192,81767,1,0,0:0:0:0:
64,192,81767,1,8,0:0:0:0:
320,192,81859,1,0,0:0:0:0:
448,192,81859,1,0,0:0:0:0:
192,192,82043,1,2,0:0:0:0:
320,192,82043,1,0,0:0:0:0:
64,192,82227,1,8,0:0:0:0:
192,192,82227,1,0,0:0:0:0:
448,192,82227,1,0,0:0:0:0:
320,192,82411,1,0,0:0:0:0:
64,192,82411,1,2,0:0:0:0:
448,192,82411,1,0,0:0:0:0:
320,192,82780,1,0,0:0:0:0:
192,192,82780,1,2,0:0:0:0:
64,192,82964,1,8,0:0:0:0:
192,192,82964,1,0,0:0:0:0:
448,192,82964,1,0,0:0:0:0:
320,192,83148,1,0,0:0:0:0:
64,192,83240,1,8,0:0:0:0:
192,192,83240,1,0,0:0:0:0:
448,192,83332,1,0,0:0:0:0:
192,192,83516,1,2,0:0:0:0:
320,192,83516,1,0,0:0:0:0:
448,192,83700,1,0,0:0:0:0:
64,192,83700,1,8,0:0:0:0:
320,192,83700,1,0,0:0:0:0:
192,192,83884,1,0,0:0:0:0:
64,192,84068,1,2,0:0:0:0:
192,192,84068,1,0,0:0:0:0:
448,192,84068,1,0,0:0:0:0:
64,192,84436,1,8,0:0:0:0:
320,192,84436,1,0,0:0:0:0:
448,192,84436,1,0,0:0:0:0:
192,192,84620,1,0,0:0:0:0:
448,192,84712,1,0,0:0:0:0:
320,192,84712,1,8,0:0:0:0:
64,192,84804,1,0,0:0:0:0:
192,192,84988,1,2,0:0:0:0:
320,192,84988,1,0,0:0:0:0:
64,192,85172,1,8,0:0:0:0:
192,192,85172,1,0,0:0:0:0:
448,192,85172,1,0,0:0:0:0:
320,192,85356,1,0,0:0:0:0:
64,192,85540,1,2,0:0:0:0:
448,192,85540,1,0,0:0:0:0:
192,192,85724,1,0,0:0:0:0:
64,192,85908,1,8,0:0:0:0:
320,192,85908,1,0,0:0:0:0:
448,192,85908,1,0,0:0:0:0:
192,192,86092,1,0,0:0:0:0:
192,192,86276,1,2,0:0:0:0:
320,192,86276,1,0,0:0:0:0:
320,192,86461,1,0,0:0:0:0:
64,192,86645,128,8,86737:0:0:0:0:
448,192,86645,1,0,0:0:0:0:
192,192,86737,128,0,86829:0:0:0:0:
320,192,86829,128,0,87105:0:0:0:0:
192,192,86921,128,0,87197:0:0:0:0:
64,192,87013,128,0,87289:0:0:0:0:
