osu file format v14

[General]
AudioFilename: audio.mp3
AudioLeadIn: 0
PreviewTime: 40465
Countdown: 0
SampleSet: Soft
StackLeniency: 0.7
Mode: 0
LetterboxInBreaks: 0
WidescreenStoryboard: 1

[Editor]
DistanceSpacing: 1
BeatDivisor: 4
GridSize: 8
TimelineZoom: 1.2

[Metadata]
Title:Fight!! (TV Size)
TitleUnicode:Fight!! (TV Size)
Artist:ClariS
ArtistUnicode:ClariS
Creator:Yorita Yoshino
Version:Easy
Source:はたらく細胞!!
Tags:japanese anime jpop pop ending ed clara karen sinn present SeeL Angelsnow Hataraku Saibou Cells at Work
BeatmapID:3224092
BeatmapSetID:1356184

[Difficulty]
HPDrainRate:2
CircleSize:3
OverallDifficulty:1
ApproachRate:3
SliderMultiplier:1
SliderTickRate:1

[Events]
//Background and Video events
Video,0,"platelet.mp4"
0,0,"123.jpg",0,0
//Break Periods
//Storyboard Layer 0 (Background)
//Storyboard Layer 1 (Fail)
//Storyboard Layer 2 (Pass)
//Storyboard Layer 3 (Foreground)
//Storyboard Layer 4 (Overlay)
//Storyboard Sound Samples

[TimingPoints]
250,517.241379310345,4,2,2,60,1,0
2189,-100,4,2,2,5,0,0
2318,-100,4,2,2,70,0,0
2706,-100,4,2,2,5,0,0
2836,-100,4,2,2,80,0,0
3224,-100,4,2,2,5,0,0
3353,-100,4,2,2,90,0,0
4258,-100,4,2,2,5,0,0
4387,-100,4,2,2,90,0,0
5939,-100,4,2,2,80,0,0
6456,-100,4,2,3,60,0,0
14732,-100,4,2,2,40,0,0
20939,-100,4,2,2,60,0,0
22232,-100,4,2,2,40,0,0
23008,-100,4,2,2,60,0,0
27146,-100,4,2,3,60,0,0
29215,-100,4,2,2,60,0,0
29732,-100,4,2,3,60,0,0
29991,-100,4,2,2,60,0,0
31284,-100,4,2,2,40,0,0
34646,-100,4,2,2,50,0,0
34905,-100,4,2,2,60,0,0
35163,-100,4,2,2,70,0,0
35422,-100,4,2,3,80,0,0
35681,-100,4,2,2,80,0,0
36198,-100,4,2,3,80,0,0
36456,-100,4,2,2,80,0,0
37491,-100,4,2,3,60,0,0
37750,-100,4,2,2,60,0,0
38525,-100,4,2,2,70,0,0
39560,-100,4,2,2,60,0,0
40594,-100,4,2,3,80,0,0
40982,-100,4,2,2,80,0,0
41176,-100,4,2,2,60,0,0
41629,-100,4,2,2,100,0,1
42663,-100,4,2,3,100,0,1
42793,-100,4,2,2,100,0,1
42922,-100,4,2,3,100,0,1
43568,-100,4,2,2,5,0,1
43698,-100,4,2,2,100,0,1
44086,-100,4,2,2,5,0,1
44215,-100,4,2,2,100,0,1
45767,-100,4,2,3,100,0,1
46155,-100,4,2,2,5,0,1
46284,-100,4,2,2,100,0,1
46672,-100,4,2,2,100,0,1
46801,-100,4,2,3,100,0,1
46931,-100,4,2,2,100,0,1
47836,-100,4,2,2,80,0,1
48094,-100,4,2,2,90,0,1
48353,-100,4,2,2,100,0,1
48741,-100,4,2,2,5,0,1
48870,-100,4,2,3,100,0,1
49258,-100,4,2,2,5,0,1
49387,-100,4,2,2,100,0,1
49452,-100,4,2,2,60,0,1
49905,-100,4,2,2,100,0,1
50939,-100,4,2,3,100,0,1
51068,-100,4,2,2,100,0,1
51198,-100,4,2,3,100,0,1
51844,-100,4,2,2,100,0,1
54043,-100,4,2,3,100,0,1
54431,-100,4,2,2,5,0,1
54560,-100,4,2,2,100,0,1
55077,-100,4,2,3,100,0,1
55206,-100,4,2,2,100,0,1
59732,-100,4,2,3,100,0,1
60120,-100,4,2,3,5,0,1
60250,-100,4,2,3,100,0,1
60637,-100,4,2,2,5,0,1
60767,-100,4,2,3,100,0,1
61284,-100,4,2,2,100,0,1
66456,-100,4,2,2,60,0,0
68525,-100,4,2,3,60,0,0
76284,-100,4,2,3,80,0,0
84560,-100,4,2,3,60,0,0
87405,-100,4,2,3,40,0,0

[Colours]
Combo1 : 227,227,0
Combo2 : 232,0,0
Combo3 : 192,192,192
Combo4 : 0,217,217

[HitObjects]
52,311,250,6,0,B|133:304|133:304|154:326|154:326|247:316,1,200,0|0,0:2|0:2,0:0:0:0:
335,350,1801,1,0,0:2:0:0:
421,300,2318,2,0,P|427:234|407:192,1,100,2|0,0:2|0:2,0:2:0:0:
341,136,3353,1,2,0:2:0:0:
252,315,4387,5,6,1:2:0:0:
106,278,5163,1,6,1:2:0:0:
91,128,5939,1,4,0:3:0:0:
151,48,6456,6,0,L|262:59,1,100,6|10,3:2|3:2,0:2:0:0:
350,53,7491,2,0,L|361:-6,2,50,2|0|10,3:2|0:2|3:2,0:0:0:0:
411,131,8525,2,0,B|400:147|400:147|411:240,1,100,2|10,3:2|3:2,0:2:0:0:
393,325,9560,2,0,P|352:328|331:318,1,50,2|0,3:2|0:2,0:2:0:0:
298,305,10077,1,10,3:2:0:0:
204,340,10594,6,0,B|159:355|159:355|111:333,1,100,6|10,3:2|3:2,0:2:0:0:
68,242,11629,2,0,P|26:236|8:249,2,50,2|0|10,3:2|0:2|3:2,0:0:0:0:
144,178,12663,2,0,L|133:92,2,75,6|2|2,1:2|3:2|3:2,0:2:0:0:
181,211,13698,2,0,P|238:219|281:196,1,100,4|0,0:3|1:2,0:0:0:0:
322,113,14732,6,0,B|339:91|339:91|462:116,2,150,8|8|2,3:3|0:3|0:2,0:2:0:0:
369,201,16801,5,8,0:3:0:0:
273,316,17577,2,0,L|110:301,1,150,8|2,0:3|0:2,0:2:0:0:
54,222,18870,2,0,P|24:289|43:361,2,150,8|8|2,0:3|0:3|0:2,0:2:0:0:
22,127,20939,5,4,3:2:0:0:
89,53,21456,2,0,L|154:58,1,50,0|4,1:3|3:2,0:0:0:0:
222,111,22232,2,0,L|339:90,1,100,4|4,3:0|3:3,0:2:0:0:
369,84,23008,6,0,P|360:135|374:202,1,100,6|10,3:2|0:2,0:0:0:0:
441,248,24043,1,2,3:2:0:0:
407,342,24560,1,10,0:2:0:0:
307,339,25077,6,0,P|280:289|277:231,1,100,2|10,3:2|0:2,0:0:0:0:
192,189,26112,1,2,3:2:0:0:
121,259,26629,1,10,0:2:0:0:
157,350,27146,6,0,L|317:338,1,150,6|4,1:2|1:2,0:0:0:0:
404,320,28439,2,0,P|415:342|414:366,2,50,0|8|0,3:2|0:2|3:2,0:0:0:0:
437,282,29215,6,0,B|423:255|423:255|434:119,1,150,4|4,1:2|1:2,0:0:0:0:
401,40,30508,2,0,P|431:26|453:28,2,50,0|0|4,3:2|1:2|1:3,0:0:0:0:
356,62,31284,5,4,3:2:0:0:
159,27,32318,1,2,0:2:0:0:
124,224,33353,1,2,0:2:0:0:
321,259,34387,1,2,0:2:0:0:
358,292,34646,2,0,L|352:365,2,50,0|0|2,3:3|1:2|3:3,0:0:0:0:
404,272,35422,6,0,L|395:199,1,50,6|2,1:2|3:0,0:0:0:0:
323,155,36198,2,0,L|314:82,1,50,6|2,1:2|3:0,0:0:0:0:
243,36,36974,1,0,1:2:0:0:
243,36,37491,6,0,P|203:72|103:50,1,150,2|2,3:2|1:3,0:0:0:0:
53,139,38784,2,0,P|46:190|75:251,1,100,0|2,1:2|1:3,0:0:0:0:
89,276,39560,2,0,L|200:258,1,100,0|8,3:2|0:3,0:0:0:0:
257,331,40594,5,2,0:2:0:0:
353,305,41112,1,2,0:2:0:0:
440,352,41629,2,0,P|455:302|441:233,1,100,6|8,0:2|0:2,0:2:0:0:
394,172,42663,1,2,3:2:0:0:
437,81,43181,1,10,0:2:0:0:
356,21,43698,2,0,L|241:38,1,100,2|10,3:2|0:2,0:2:0:0:
170,86,44732,6,0,L|106:80,1,50,2|0,3:2|0:2,0:0:0:0:
69,79,45250,1,10,0:2:0:0:
2,153,45767,2,0,P|-4:205|29:262,2,100,2|10|2,3:2|0:2|3:2,0:2:0:0:
94,191,47318,1,10,0:2:0:0:
188,222,47836,2,0,L|183:276,2,50,0|0|0,1:2|1:2|1:2,0:0:0:0:
277,177,48870,2,0,L|262:58,1,100,2|2,3:2|0:2,0:2:0:0:
358,42,49905,6,0,P|415:52|448:98,1,100,6|8,3:2|0:2,0:2:0:0:
407,175,50939,1,2,3:2:0:0:
464,257,51456,1,10,0:2:0:0:
421,347,51974,6,0,L|307:337,1,100,0|10,3:2|0:2,0:2:0:0:
229,297,53008,2,0,P|188:307|169:322,1,50,2|0,3:2|0:2,0:0:0:0:
147,347,53525,1,8,0:2:0:0:
104,256,54043,6,0,P|50:237|0:250,2,100,2|10|2,3:2|0:2|3:2,0:2:0:0:
180,191,55594,1,8,0:2:0:0:
114,115,56112,6,0,L|58:119,2,50,0|0|0,1:2|1:2|1:2,0:0:0:0:
134,69,56887,2,0,L|245:87,1,100,4|0,3:2|0:2,0:2:0:0:
271,53,57663,1,8,3:2:0:0:
369,69,58181,6,0,P|350:122|367:183,1,100,4|8,3:2|0:2,0:0:0:0:
438,221,59215,2,0,P|444:270|425:316,1,100,0|10,3:2|3:2,0:2:0:0:
332,352,60250,5,2,3:2:0:0:
232,340,60767,2,0,L|243:284,1,50,10|0,3:2|0:0,0:2:0:0:
211,251,61284,2,0,L|148:261,2,50,2|0|2,1:2|3:2|1:2,0:0:0:0:
303,212,62318,6,0,L|301:156,1,50,6|0,1:2|1:2,0:0:0:0:
204,136,63094,2,0,L|202:80,1,50,6|0,1:2|1:2,0:0:0:0:
122,25,63870,1,4,3:0:0:0:
40,82,64387,6,0,L|26:194,1,100,6|8,3:2|3:2,0:2:0:0:
44,279,65422,2,0,P|5:276|-7:260,2,50,0|0|8,3:2|3:2|1:2,0:0:0:0:
124,338,66456,5,2,3:3:0:0:
273,347,67232,1,2,0:3:0:0:
422,359,68008,2,0,L|411:303,1,50,0|0,1:2|3:2,0:0:0:0:
450,277,68525,6,0,B|473:234|473:234|456:165,1,100,6|10,3:2|3:2,0:2:0:0:
413,95,69560,2,0,L|467:85,2,50,2|0|10,3:2|0:2|3:2,0:0:0:0:
315,71,70594,2,0,B|289:43|289:43|207:61,1,100,2|10,3:2|3:2,0:2:0:0:
155,124,71629,2,0,L|160:177,1,50,2|0,3:2|0:2,0:2:0:0:
119,203,72146,1,10,3:2:0:0:
49,274,72663,6,0,P|95:309|140:299,1,100,6|10,3:2|3:2,0:2:0:0:
229,330,73698,2,0,L|218:380,2,50,2|0|14,3:2|0:2|3:2,0:0:0:0:
320,289,74732,6,0,L|307:177,1,100,6|10,3:2|3:2,0:2:0:0:
394,138,75767,2,0,L|395:80,1,50,2|0,3:2|0:2,0:2:0:0:
398,38,76284,1,10,1:2:0:0:
302,9,76801,6,0,L|185:31,1,100,6|10,3:1|3:2,0:2:0:0:
119,81,77836,2,0,L|57:71,2,50,2|0|10,3:1|0:0|3:2,0:2:0:0:
58,160,78870,2,0,L|-4:150,2,50,2|0|10,3:1|0:0|3:2,0:2:0:0:
83,256,79905,2,0,L|21:246,2,50,2|0|8,3:1|0:0|3:2,0:2:0:0:
165,312,80939,6,0,P|215:277|266:286,1,100,6|10,3:1|3:2,0:2:0:0:
335,335,81974,2,0,L|329:387,2,50,2|0|6,3:1|0:0|1:2,0:2:0:0:
393,254,83008,2,0,P|413:255|462:295,2,75,2|2|2,3:2|3:2|3:2,0:2:0:0:
355,221,84043,1,8,0:3:0:0:
420,145,84560,1,2,3:2:0:0:
361,64,85077,5,6,3:2:0:0:
256,192,85336,12,2,87405,0:2:0:0:
