osu file format v14

[General]
AudioFilename: Drawing.mp3
AudioLeadIn: 300
PreviewTime: 73140
Countdown: 0
SampleSet: Normal
StackLeniency: 0.7
Mode: 0
LetterboxInBreaks: 0
WidescreenStoryboard: 0

[Editor]
DistanceSpacing: 0.8
BeatDivisor: 4
GridSize: 32
TimelineZoom: 1.3

[Metadata]
Title:Drawing
TitleUnicode:Drawing
Artist:ClariS
ArtistUnicode:ClariS
Creator:[Twinkle]
Version:Normal
Source:
Tags:Party Time クラリス Clara クララ Aris Alice アリス Karen カレン
BeatmapID:672156
BeatmapSetID:299410

[Difficulty]
HPDrainRate:4
CircleSize:3
OverallDifficulty:4
ApproachRate:5
SliderMultiplier:1.2
SliderTickRate:1

[Events]
//Background and Video events
0,0,"BG.jpg",0,0
//Break Periods
//Storyboard Layer 0 (Background)
//Storyboard Layer 1 (Fail)
//Storyboard Layer 2 (Pass)
//Storyboard Layer 3 (Foreground)
//Storyboard Sound Samples

[TimingPoints]
413,454.545454545455,4,1,0,40,1,0
413,-100,4,2,2,60,0,0
7231,-100,4,1,2,50,0,0
7685,-100,4,1,2,50,0,1
22231,-100,4,1,2,30,0,1
29503,-100,4,1,2,50,0,0
73140,-100,4,1,2,50,0,1
100413,-100,4,1,2,50,0,0
101322,-100,4,1,2,50,0,0
102231,-100,4,1,2,60,0,1
102344,-100,4,1,2,20,0,0
108367,-100,4,1,2,5,0,0

[Colours]
Combo1 : 135,3,135
Combo2 : 38,136,255
Combo3 : 120,64,251
Combo4 : 255,104,228

[HitObjects]
133,31,413,6,0,P|36:85|63:193,1,240,2|0,0:0|0:0,0:0:0:0:
83,288,1776,1,0,0:0:0:0:
155,224,2231,2,0,B|265:154|265:266|383:222,1,240,2|0,0:0|0:0,0:0:0:0:
421,309,3594,1,0,0:0:0:0:
476,230,4049,6,0,B|495:156|480:96|480:96|389:44,1,240,2|0,0:0|0:0,0:0:0:0:
331,120,5413,1,2,0:0:0:0:
235,121,5867,2,0,L|208:5,2,120,2|0|0,0:0|0:0|0:0,0:0:0:0:
173,194,7231,1,0,0:0:0:0:
77,177,7685,6,0,P|22:276|86:370,1,240,6|0,0:0|0:0,0:0:0:0:
174,332,9049,1,8,0:0:0:0:
269,337,9503,2,0,P|259:278|233:224,1,120,0|8,0:0|0:0,0:0:0:0:
329,216,10413,2,0,P|342:157|365:102,1,120,0|8,0:0|0:0,0:0:0:0:
387,8,11322,6,0,L|271:36,1,120,0|8,0:0|0:0,0:0:0:0:
225,52,12003,2,0,P|136:61|50:35,1,180,0|8,0:0|0:0,0:0:0:0:
40,131,13140,1,0,0:0:0:0:
32,226,13594,1,8,0:0:0:0:
120,189,14049,1,0,0:0:0:0:
112,284,14503,1,8,0:0:0:0:
192,335,14958,6,0,L|316:356,2,120,6|8|0,0:0|0:0|0:0,0:0:0:0:
249,257,16322,1,8,0:0:0:0:
310,183,16776,2,0,L|430:199,2,120,6|8|0,0:0|0:0|0:0,0:0:0:0:
215,166,18140,1,8,0:0:0:0:
122,190,18594,6,0,P|162:85|275:88,1,240
372,82,19958,1,8,0:0:0:0:
432,157,20413,2,0,P|441:216|438:275,1,120,4|8,0:0|0:0,0:0:0:0:
342,261,21322,2,0,P|321:316|286:365,1,120,0|8,0:0|0:0,0:0:0:0:
256,192,22231,12,0,24731,0:0:0:0:
256,192,25185,12,4,27685,0:0:0:0:
216,153,29503,5,4,0:0:0:0:
304,192,29958,2,0,L|384:98,2,120
224,246,31322,2,0,P|231:305|225:365,1,120
130,352,32231,2,0,P|123:291|131:228,1,120
164,143,33140,6,0,L|29:126,1,120
93,44,34049,1,0,0:0:0:0:
183,48,34503,2,0,L|230:8,2,60
261,104,35413,1,0,0:0:0:0:
335,43,35867,1,0,0:0:0:0:
427,67,36322,1,0,0:0:0:0:
449,160,36776,6,0,P|355:198|430:266,1,240
390,353,38140,1,0,0:0:0:0:
295,335,38594,2,0,L|242:218,2,120
200,354,39958,1,0,0:0:0:0:
104,340,40413,6,0,L|153:230,2,120
42,266,41776,1,0,0:0:0:0:
61,171,42231,2,0,P|33:118|30:58,1,120
126,58,43140,2,0,L|208:35,2,60
184,136,44049,6,0,P|301:149|422:132,2,240,6|0|0,0:0|0:0|0:0,0:0:0:0:
159,228,46322,1,0,0:0:0:0:
248,260,46776,2,0,P|307:263|367:255,1,120
457,288,47685,6,0,P|455:228|446:168,1,120
416,77,48594,1,0,0:0:0:0:
325,47,49049,1,0,0:0:0:0:
344,140,49503,2,0,L|221:125,1,120
141,172,50413,1,0,0:0:0:0:
146,76,50867,1,0,0:0:0:0:
64,128,51322,6,0,P|83:237|194:244,1,240
257,171,52685,1,0,0:0:0:0:
278,264,53140,2,0,P|245:312|191:338,2,120
371,238,54503,1,0,0:0:0:0:
400,329,54958,2,0,P|458:327|501:287,2,120
371,238,56322,5,0,0:0:0:0:
424,158,56776,2,0,P|416:99|396:43,1,120
320,102,57685,2,0,P|280:59|232:22,1,120
208,144,58594,6,0,B|174:53|117:110|84:22,2,180,0|0|8,0:0|0:0|0:0,0:0:0:0:
208,240,60413,6,0,B|117:273|174:330|86:363,2,180,0|0|8,0:0|0:0|0:0,0:0:0:0:
304,240,62231,6,0,B|337:330|394:273|427:361,2,180,0|0|8,0:0|0:0|0:0,0:0:0:0:
304,144,64049,6,0,B|394:110|337:53|425:20,2,180,0|0|8,0:0|0:0|0:0,0:0:0:0:
208,133,65867,5,0,0:0:0:0:
246,219,66322,1,8,0:0:0:0:
305,143,66776,2,0,P|316:80|352:40,1,120,0|8,0:0|0:0,0:0:0:0:
401,122,67685,5,0,0:0:0:0:
396,217,68140,1,8,0:0:0:0:
460,289,68594,2,0,P|408:315|351:302,1,120,0|8,0:0|0:0,0:0:0:0:
268,251,69503,6,0,L|263:161,2,90,8|8|8,0:0|0:3|0:3,0:0:0:0:
230,281,70413,2,0,L|235:371,2,90,8|8|8,0:0|0:3|0:3,0:0:0:0:
184,266,71322,6,0,L|169:26,1,240,14|0,0:0|0:0,0:0:0:0:
169,26,73140,6,0,P|229:108|298:25,1,240,6|0,0:0|0:0,0:0:0:0:
390,54,74503,1,8,0:0:0:0:
436,139,74958,2,0,L|458:258,1,120,0|8,0:0|0:0,0:0:0:0:
362,265,75867,2,0,L|314:378,1,120,0|8,0:0|0:0,0:0:0:0:
246,302,76776,6,0,L|130:339,1,120,0|8,0:0|0:0,0:0:0:0:
84,347,77458,2,0,P|34:277|74:202,1,180,0|8,0:0|0:0,0:0:0:0:
56,108,78594,5,0,0:0:0:0:
150,88,79049,1,8,0:0:0:0:
164,184,79503,2,0,L|219:215,2,60,0|0|8,0:0|0:0|0:0,0:0:0:0:
237,120,80413,6,0,P|294:54|381:51,1,180,4|0,0:0|0:0,0:0:0:0:
428,49,81322,2,0,P|429:108|449:165,1,120,0|8,0:0|0:0,0:0:0:0:
356,191,82231,2,0,P|395:268|359:348,1,180,4|0,0:0|0:0,0:0:0:0:
312,340,83140,2,0,B|255:322|255:322|196:344,1,120,0|8,0:0|0:0,0:0:0:0:
106,317,84049,6,0,P|60:352|4:338,1,120,0|8,0:0|0:0,0:0:0:0:
11,243,84958,2,0,P|56:207|112:221,1,120,0|8,0:0|0:0,0:0:0:0:
135,127,85867,2,0,L|126:64,2,60,0|0|8,0:0|0:0|0:0,0:0:0:0:
231,128,86776,2,0,L|239:189,2,60,0|0|8,0:0|0:0|0:0,0:0:0:0:
222,32,87685,6,0,P|292:115|376:47,1,240,6|0,0:0|0:0,0:0:0:0:
472,42,89049,1,8,0:0:0:0:
466,137,89503,2,0,B|461:229|461:229|430:264|430:264|423:366,1,240
335,325,90867,1,8,0:0:0:0:
241,350,91322,6,0,L|234:230,1,120,0|8,0:0|0:0,0:0:0:0:
143,294,92231,2,0,L|136:173,1,120,0|8,0:0|0:0,0:0:0:0:
216,121,93140,2,0,P|275:125|333:113,1,120,0|8,0:0|0:0,0:0:0:0:
402,45,94049,2,0,L|349:2,2,60,0|0|8,0:0|0:0|0:0,0:0:0:0:
431,136,94958,6,0,L|449:261,2,120,2|8|0,0:0|0:0|0:0,0:0:0:0:
342,174,96322,1,8,0:0:0:0:
282,249,96776,2,0,L|294:374,2,120,2|8|0,0:0|0:0|0:0,0:0:0:0:
198,201,98140,5,8,0:0:0:0:
138,125,98594,2,0,P|189:95|248:94,1,120,0|8,0:0|0:0,0:0:0:0:
344,103,99503,2,0,P|403:96|455:67,1,120,0|8,0:0|0:0,0:0:0:0:
479,160,100413,5,6,0:0:0:0:
457,253,100867,1,8,0:0:0:0:
386,317,101322,1,0,2:0:0:0:
291,331,101776,1,0,2:0:0:0:
197,308,102231,5,6,0:0:0:0:
256,192,102344,12,0,104731,0:0:0:0:
256,192,105185,12,0,108367,0:0:0:0:
