osu file format v14

[General]
AudioFilename: music.mp3
AudioLeadIn: 1500
PreviewTime: 66505
Countdown: 0
SampleSet: Soft
StackLeniency: 0.7
Mode: 0
LetterboxInBreaks: 0
WidescreenStoryboard: 1

[Editor]
DistanceSpacing: 1.05
BeatDivisor: 16
GridSize: 4
TimelineZoom: 3.799998

[Metadata]
Title:Connect -TV MIX-
TitleUnicode:コネクト -TV MIX-
Artist:ClariS
ArtistUnicode:ClariS
Creator:ecdonald
Version:Easy
Source:魔法少女まどか☆マギカ
Tags:Mahou Shoujo Madoka Magika Puella Magi
BeatmapID:764556
BeatmapSetID:344519

[Difficulty]
HPDrainRate:1
CircleSize:2
OverallDifficulty:2
ApproachRate:3
SliderMultiplier:0.85
SliderTickRate:1

[Events]
//Background and Video events
Video,624,"video.avi"
0,0,"qb.jpg",0,0
//Break Periods
2,11848,21865
//Storyboard Layer 0 (Background)
//Storyboard Layer 1 (Fail)
//Storyboard Layer 2 (Pass)
//Storyboard Layer 3 (Foreground)
//Storyboard Sound Samples

[TimingPoints]
646,338.983050847458,4,2,1,35,1,0
1323,-100,4,2,1,5,0,0
1352,-100,4,2,1,35,0,0
1363,342.857142857143,4,2,1,35,1,0
11648,-100,4,2,1,5,0,0
23305,-100,4,2,1,45,0,0
27420,-100,4,1,1,25,0,0
28105,-100,4,2,1,45,0,0
38391,-100,4,1,1,25,0,0
39077,-100,4,2,1,45,0,0
43877,-100,4,2,1,25,0,0
44563,-100,4,1,3,25,0,0
45248,-100,4,2,3,60,0,0
67191,-100,4,1,3,75,0,1
67277,-100,4,1,3,65,0,1
80048,-100,4,2,3,85,0,0
80734,-100,4,1,3,65,0,1
87763,-100,4,2,3,95,0,1
89134,-100,4,2,1,55,0,0

[Colours]
Combo1 : 255,36,36
Combo2 : 251,136,202
Combo3 : 135,97,224
Combo4 : 255,255,0
Combo5 : 0,255,255

[HitObjects]
104,276,646,6,0,P|80:194|105:109,1,180,0|2,0:0|1:2,0:0:0:0:
256,43,2048,1,2,0:0:0:0:
411,114,2734,2,0,P|432:195|408:276,1,170,2|2,1:2|0:0,0:0:0:0:
256,352,4105,2,0,L|85:278,1,170,2|2,1:2|0:2,0:0:0:0:
48,122,5477,2,0,L|219:196,1,170,2|2,1:2|1:2,0:0:0:0:
360,255,6848,5,2,1:2:0:0:
440,105,7534,1,2,0:0:0:0:
280,44,8220,2,0,P|193:32|99:56,1,170,2|2,1:2|0:0,0:0:0:0:
256,192,9591,12,0,11648,0:0:0:0:
116,108,23305,6,0,P|257:27|399:107,2,340,4|2|0,2:2|0:0|1:0,0:0:0:0:
256,204,26734,1,2,2:0:0:0:
412,268,27420,2,0,P|428:186|399:107,1,170,0|2,0:2|0:0,0:0:0:0:
256,16,28791,5,0,1:2:0:0:
100,80,29477,1,2,0:0:0:0:
176,232,30163,1,0,1:2:0:0:
332,164,30848,1,2,0:0:0:0:
472,64,31534,6,0,P|492:144|472:244,1,170,2|2,1:2|0:0,0:0:0:0:
335,318,32905,2,0,P|255:346|172:313,2,170,2|2|4,1:2|1:2|0:0,0:0:0:0:
448,192,34963,5,2,2:0:0:0:
320,80,35648,2,0,P|240:48|152:60,1,170,0|2,1:0|0:0,0:0:0:0:
24,164,37020,2,0,P|4:236|36:328,1,170,0|2,1:0|0:0,0:0:0:0:
204,336,38391,2,0,P|293:341|364:297,1,170,2|2,1:2|2:2,0:0:0:0:
487,187,39763,6,0,P|496:104|431:42,1,170,0|2,1:0|0:0,0:0:0:0:
270,31,41134,1,0,1:0:0:0:
116,103,41820,1,2,0:2:0:0:
256,196,42505,6,0,P|284:264|248:364,1,170,0|2,1:0|0:0,0:0:0:0:
104,280,43877,1,6,1:2:0:0:
44,120,44563,1,2,1:2:0:0:
200,48,45248,6,0,P|276:28|372:44,1,170,6|0,1:2|1:2,1:2:0:0:
448,192,46620,2,0,P|372:212|276:196,1,170,2|0,1:2|1:2,1:2:0:0:
124,140,47991,6,0,P|120:224|76:316,1,170,2|0,1:2|1:2,1:2:0:0:
256,324,49363,2,0,P|344:336|416:306,1,170,2|0,1:2|1:2,1:2:0:0:
367,143,50734,6,0,P|255:89|142:138,2,255,0|0|0,1:2|1:2|1:2,1:2:0:0:
370,313,53477,2,0,P|256:361|145:308,2,255,0|0|0,1:2|1:2|1:2,1:2:0:0:
446,160,56220,6,0,P|411:81|334:52,1,170,4|0,1:2|1:2,1:2:0:0:
174,51,57591,2,0,P|98:83|66:160,1,170,0|0,1:2|1:2,1:2:0:0:
26,325,58963,6,0,P|104:289|184:325,1,170,0|0,1:2|1:2,1:2:0:0:
333,319,60334,2,0,P|411:289|486:325,1,170,0|0,1:2|1:2,1:2:0:0:
403,176,61705,6,0,P|256:102|111:177,2,340,4|4|4,1:1|1:1|1:1,1:1:0:0:
256,192,64620,12,2,65820,0:1:0:0:
173,74,67191,6,0,P|256:90|339:76,1,170,4|0,1:0|1:0,1:0:0:0:
415,28,68220,1,8,0:0:0:0:
449,111,68563,2,0,P|469:192|448:274,1,170
380,332,69591,1,8,0:0:0:0:
319,266,69934,6,0,P|256:219|192:270,1,170
132,332,70963,1,8,0:0:0:0:
64,274,71305,2,0,P|43:192|63:111,1,170
97,27,72334,1,8,0:0:0:0:
173,74,72677,6,0,P|256:90|339:76,1,170
412,24,73705,1,8,0:0:0:0:
489,71,74048,2,0,P|502:132|471:240,1,170
419,304,75077,1,8,0:0:0:0:
331,325,75420,6,0,L|238:323,1,85,4|0,0:0|0:0,0:0:0:0:
192,251,76105,2,0,L|99:249,1,85
76,164,76791,6,0,L|78:71,1,85
165,98,77477,2,0,L|167:5,1,85
256,20,78163,6,0,P|330:58|416:39,1,170,4|0,0:0|0:1,0:0:0:0:
492,2,79191,1,8,0:0:0:0:
498,91,79534,2,0,L|477:224,1,127.5,4|4,0:0|0:0,0:0:0:0:
504,302,80391,1,4,0:0:0:0:
426,349,80734,6,0,P|349:314|209:331,1,212.5,4|0,0:1|0:0,0:0:0:0:
141,358,81934,1,8,0:0:0:0:
67,307,82277,2,0,P|47:267|52:141,2,170
215,207,84334,6,0,P|298:223|382:187,1,175.3125
318,27,85705,2,0,P|235:11|151:47,1,170
51,185,87077,2,0,P|36:270|81:341,1,170,4|4,0:0|0:0,0:0:0:0:
220,231,88448,5,2,0:0:0:0:
395,198,89134,1,2,0:0:0:0:
