osu file format v14

[General]
AudioFilename: audio.mp3
AudioLeadIn: 0
PreviewTime: 66014
Countdown: 0
SampleSet: Soft
StackLeniency: 0
Mode: 0
LetterboxInBreaks: 0
WidescreenStoryboard: 0

[Editor]
DistanceSpacing: 1
BeatDivisor: 4
GridSize: 8
TimelineZoom: 1.5

[Metadata]
Title:Connect -Orchestra ver.- (Short Ver.)
TitleUnicode:コネクト -Orchestra ver.- (Short Ver.)
Artist:ClariS
ArtistUnicode:ClariS
Creator:Azunyan-
Version:Inotte
Source:劇場版 魔法少女まどか☆マギカ 永遠の物語
Tags:Puella Magi Mahou Shoujo Madoka Magica the Movie Gekijouban Part 2: Eternal Eien no Monogatari tv size short length alternative version opening ending Japanese pop j-pop jpop anime Mayu Sakuma Xexyz
BeatmapID:2821140
BeatmapSetID:1363677

[Difficulty]
HPDrainRate:5
CircleSize:4
OverallDifficulty:8.5
ApproachRate:9.3
SliderMultiplier:1.8
SliderTickRate:1

[Events]
//Background and Video events
0,0,"kyouko and mami.jpg",0,0
//Break Periods
//Storyboard Layer 0 (Background)
//Storyboard Layer 1 (Fail)
//Storyboard Layer 2 (Pass)
//Storyboard Layer 3 (Foreground)
//Storyboard Layer 4 (Overlay)
//Storyboard Sound Samples

[TimingPoints]
-71,342.857142857143,4,2,1,40,1,0
1300,-266.666666666667,4,2,1,40,0,0
11757,-200,4,2,1,40,0,0
11929,342.857142857143,4,2,1,40,1,0
16043,-166.666666666667,4,2,1,40,0,0
16300,-100,4,2,1,5,0,0
16386,-125,4,2,1,40,0,0
16643,-100,4,2,1,5,0,0
16729,-100,4,2,1,40,0,0
16986,-100,4,2,1,5,0,0
17071,-100,4,2,1,40,0,0
19386,-100,4,2,1,5,0,0
19471,-100,4,2,1,40,0,0
20071,-100,4,2,1,5,0,0
20157,-142.857142857143,4,2,1,40,0,0
21529,-100,4,2,1,40,0,0
22129,-100,4,2,1,5,0,0
22214,-100,4,2,1,40,0,0
22814,-100,4,2,1,5,0,0
22900,-100,4,2,1,40,0,0
31129,-166.666666666667,4,2,1,40,0,0
44843,-100,4,2,1,40,0,0
55814,-83.3333333333333,4,2,1,40,0,0
64043,-83.3333333333333,4,2,1,60,0,0
65071,-83.3333333333333,4,2,1,60,0,0
66786,-55.5555555555547,4,2,1,70,0,1
67300,-66.6666666666667,4,2,1,70,0,1
68929,-66.6666666666667,4,2,1,5,0,1
69014,-66.6666666666667,4,2,1,70,0,1
69271,-66.6666666666667,4,2,1,5,0,1
69357,-66.6666666666667,4,2,1,70,0,1
74414,-66.6666666666667,4,2,1,5,0,1
74500,-66.6666666666667,4,2,1,70,0,1
74757,-66.6666666666667,4,2,1,5,0,1
74843,-66.6666666666667,4,2,1,70,0,1
77757,-58.8235294117647,4,2,1,70,0,1
78271,-66.6666666666667,4,2,1,70,0,1
79643,-33.3333333333333,4,2,1,70,0,1
79729,-33.3333333333333,4,2,1,5,0,1
79986,-25,4,2,1,70,0,1
80071,-25,4,2,1,5,0,1
80329,-42.7350427350427,4,2,1,70,0,1
81357,-66.6666666666667,4,2,1,70,0,1
81871,-41.6666666666667,4,2,1,70,0,1
82729,-66.6666666666667,4,2,1,70,0,1
88729,-66.6666666666667,4,2,1,70,0,0
90443,-66.6666666666667,4,2,2,5,0,0

[Colours]
Combo1 : 250,180,240
Combo2 : 120,200,230
Combo3 : 255,230,130
Combo4 : 160,230,150

[HitObjects]
272,270,614,5,2,0:0:0:0:
272,270,786,1,0,0:0:0:0:
272,270,957,1,2,0:0:0:0:
272,270,1129,1,0,0:0:0:0:
472,244,1300,6,1,B|507:293|466:367|384:357|355:300|371:256|371:256|392:200|334:140|258:170|245:231|271:269,1,472.500000000001,2|0,0:0|0:0,0:0:0:0:
272,270,4043,6,1,B|308:318|391:302|407:221|361:176|316:178|316:178|256:180|216:106|268:44|330:49|359:88,1,472.500000000001,2|0,0:0|0:0,0:0:0:0:
360,88,6786,6,1,B|394:138|351:212|270:200|242:142|259:100|259:100|280:44|223:-17|147:11|132:72|159:111,1,472.500000000001,2|0,0:0|0:0,0:0:0:0:
159,111,9529,5,4,0:0:0:0:
256,192,9614,12,0,11414,0:0:0:0:
138,370,11757,5,8,0:1:0:0:
142,374,11843,1,8,0:1:0:0:
146,378,11929,2,0,B|-19:163|122:15|122:15|252:96|231:240,1,630,4|0,0:0|0:0,0:0:0:0:
195,303,13300,6,0,B|96:174|181:86|181:86|258:134|246:220,2,360,4|2|4,0:0|0:0|0:0,0:0:0:0:
195,303,15014,1,2,0:0:0:0:
308,347,15357,1,2,0:0:0:0:
449,264,15700,1,2,0:0:0:0:
297,76,16043,6,0,P|310:114|326:151,1,80.9999975280763,2|0,0:0|0:0,0:0:0:0:
454,160,16386,2,0,P|402:144|348:137,1,108,2|0,0:0|0:0,0:0:0:0:
257,262,16729,2,0,P|305:217|368:131,1,135,2|0,0:0|0:0,0:0:0:0:
326,151,17071,1,8,0:1:0:0:
293,141,17156,1,8,0:1:0:0:
261,131,17242,1,8,0:1:0:0:
228,122,17328,1,8,0:1:0:0:
196,112,17414,6,0,L|14:160,1,180,4|0,0:0|0:0,0:0:0:0:
22,157,18100,1,2,0:0:0:0:
128,37,18443,1,2,0:0:0:0:
321,357,18786,2,0,B|242:301|242:301|23:358,1,315,2|0,0:0|0:0,0:0:0:0:
30,248,19471,2,0,B|109:304|109:304|328:247,1,315,2|0,0:0|0:0,0:0:0:0:
425,50,20157,6,0,B|368:67|336:114|336:114|307:223|408:388,1,377.999988464356,4|2,0:0|0:0,0:0:0:0:
447,68,21529,6,0,B|305:-18|290:135|138:43,1,315,8|0,0:1|0:0,0:0:0:0:
0,165,22214,2,0,B|142:79|167:203|310:145,1,315,8|0,0:1|0:0,0:0:0:0:
228,0,22900,5,4,0:0:0:0:
0,181,25643,5,2,0:0:0:0:
370,31,28386,5,2,0:0:0:0:
482,101,31129,6,0,P|428:100|324:226,1,215.999993408203,2|0,0:0|0:0,0:0:0:0:
30,101,32500,2,0,P|84:100|188:226,1,215.999993408203,0|0,0:0|3:0,0:0:0:0:
181,238,33300,1,0,3:0:0:0:
190,272,33414,1,0,3:0:0:0:
221,304,33529,1,0,3:0:0:0:
292,323,33643,1,0,3:0:0:0:
364,286,33757,1,0,3:0:0:0:
381,199,33871,5,4,3:2:0:0:
371,172,36614,5,2,0:0:0:0:
116,103,39357,5,2,0:0:0:0:
439,68,40729,5,2,0:0:0:0:
256,184,41243,1,8,0:1:0:0:
260,188,41329,1,8,0:1:0:0:
264,192,41414,1,8,0:1:0:0:
73,316,42100,1,2,0:0:0:0:
104,52,43471,6,0,P|89:107|155:200,1,161.999995056153,2|0,0:0|0:0,0:0:0:0:
311,149,44157,2,0,P|270:108|157:119,1,161.999995056153,2|0,0:0|0:0,0:0:0:0:
55,270,44843,6,0,L|87:386,1,90,12|0,0:1|0:0,0:0:0:0:
139,192,45186,2,0,L|171:308,1,90,8|0,0:1|0:0,0:0:0:0:
352,170,45529,2,0,L|384:54,1,90,8|0,0:1|0:0,0:0:0:0:
444,249,45871,2,0,L|476:133,1,90,8|0,0:1|0:0,0:0:0:0:
345,333,46214,6,0,L|363:392,2,45,8|0|0,0:1|0:0|0:0,0:0:0:0:
329,217,46557,2,0,L|344:165,2,45,8|0|0,0:1|0:0|0:0,0:0:0:0:
225,275,46900,2,0,L|243:334,2,45,8|0|0,0:1|0:0|0:0,0:0:0:0:
184,155,47243,1,10,0:1:0:0:
34,233,47414,1,8,0:1:0:0:
38,237,47500,1,8,0:1:0:0:
42,241,47586,6,0,P|114:209|246:177,1,180,4|8,0:0|0:1,0:0:0:0:
392,82,48100,2,0,P|320:50|191:19,1,180,2|0,0:0|0:0,0:0:0:0:
104,126,48614,2,0,P|199:149|218:135,1,90,10|0,0:1|0:0,0:0:0:0:
206,49,48957,6,0,L|144:24,2,45,8|0|0,0:1|0:0|0:0,0:0:0:0:
254,198,49300,2,0,L|316:173,2,45,8|0|0,0:1|0:0|0:0,0:0:0:0:
386,108,49643,2,0,L|324:83,2,45,8|0|0,0:1|0:0|0:0,0:0:0:0:
386,262,49986,1,10,0:1:0:0:
262,312,50157,1,8,0:1:0:0:
266,316,50243,1,8,0:1:0:0:
270,320,50329,6,0,B|301:287|336:276|336:276|406:285|458:330,1,180,4|8,0:0|0:1,0:0:0:0:
251,326,50843,2,0,B|219:358|184:369|184:369|114:361|62:315,1,180,2|0,0:0|0:0,0:0:0:0:
41,237,51357,1,10,0:1:0:0:
87,97,51529,1,8,0:1:0:0:
91,101,51614,1,8,0:1:0:0:
95,105,51700,6,0,L|76:176,2,45,8|0|0,0:1|0:0|0:0,0:0:0:0:
242,38,52043,2,0,L|190:-13,2,45,8|0|0,0:1|0:0|0:0,0:0:0:0:
226,198,52386,2,0,L|296:178,2,45,8|0|0,0:1|0:0|0:0,0:0:0:0:
327,92,52729,1,8,0:1:0:0:
433,179,52900,1,8,0:1:0:0:
437,183,52986,1,8,0:1:0:0:
441,187,53071,6,0,P|456:122|441:65,1,90,4|0,0:0|0:0,0:0:0:0:
355,290,53414,2,0,P|354:343|371:394,1,90,8|0,0:1|0:0,0:0:0:0:
269,185,53757,1,8,0:1:0:0:
273,189,53843,1,0,0:0:0:0:
277,193,53929,1,0,0:0:0:0:
153,239,54100,1,8,0:1:0:0:
156,243,54186,1,0,0:0:0:0:
160,247,54272,1,0,0:0:0:0:
42,322,54443,6,0,P|33:222|9:108,1,180,10|8,0:1|0:1,0:0:0:0:
186,27,54957,1,2,0:0:0:0:
31,34,55129,1,10,0:1:0:0:
210,185,55300,1,2,0:0:0:0:
325,12,55471,1,8,0:1:0:0:
329,16,55557,1,0,0:0:0:0:
333,20,55643,1,0,0:0:0:0:
133,176,55814,6,0,P|244:150|394:127,1,215.999993408203,12|8,0:1|0:1,0:0:0:0:
477,156,56329,1,2,0:0:0:0:
487,362,56500,2,0,P|432:311|421:257,1,107.999996704102,10|0,0:1|0:0,0:0:0:0:
318,104,56843,2,0,P|323:178|294:225,1,107.999996704102,10|0,0:1|0:0,0:0:0:0:
187,384,57186,6,0,P|259:373|322:373,1,107.999996704102,8|0,0:1|0:0,0:0:0:0:
147,230,57529,2,0,P|75:219|12:219,1,107.999996704102,8|0,0:1|0:0,0:0:0:0:
220,63,57871,2,0,L|301:50,2,53.9999983520508,8|0|0,0:1|0:0|0:0,0:0:0:0:
147,213,58214,1,10,0:1:0:0:
5,24,58386,1,8,0:1:0:0:
9,28,58471,1,8,0:1:0:0:
13,32,58557,6,0,P|37:118|50:259,1,215.999993408203,12|0,0:1|0:0,0:0:0:0:
162,372,59071,1,8,0:1:0:0:
166,376,59156,1,8,0:1:0:0:
170,380,59243,2,0,P|194:294|207:153,1,215.999993408203,8|8,0:1|0:1,0:0:0:0:
264,64,59757,1,0,0:0:0:0:
437,214,59929,5,10,0:1:0:0:
243,155,60100,1,2,0:0:0:0:
512,110,60271,1,10,0:1:0:0:
324,177,60443,1,2,0:0:0:0:
391,15,60614,2,0,L|414:88,2,53.9999983520508,10|0|2,0:1|0:0|0:0,0:0:0:0:
453,163,60957,2,0,L|430:236,2,53.9999983520508,10|0|2,0:1|0:0|0:0,0:0:0:0:
268,351,61300,6,0,P|396:324|502:316,1,215.999993408203,4|0,0:0|0:0,0:0:0:0:
276,329,61814,2,0,P|212:346|155:365,1,107.999996704102,2|0,0:0|0:0,0:0:0:0:
324,177,62157,2,0,P|260:194|203:213,1,107.999996704102,2|0,0:0|0:0,0:0:0:0:
91,291,62500,1,2,0:0:0:0:
41,90,62671,6,0,P|126:102|108:-8,1,215.999993408203,6|0,0:0|0:0,0:0:0:0:
29,118,63186,2,0,L|70:237,1,107.999996704102,2|0,0:0|0:0,0:0:0:0:
203,378,63529,2,0,L|222:272,1,107.999996704102,2|0,0:0|0:0,0:0:0:0:
312,97,63871,1,2,0:0:0:0:
433,384,64043,5,8,0:1:0:0:
476,351,64129,1,8,0:1:0:0:
496,302,64214,1,8,0:1:0:0:
487,250,64300,1,8,0:1:0:0:
452,210,64386,1,8,0:1:0:0:
401,194,64471,1,8,0:1:0:0:
350,208,64557,1,8,0:1:0:0:
312,246,64643,1,8,0:1:0:0:
275,285,64729,1,8,0:1:0:0:
224,299,64814,1,8,0:1:0:0:
173,283,64900,1,8,0:1:0:0:
136,237,64986,1,8,0:1:0:0:
131,177,65071,1,8,0:1:0:0:
167,123,65157,1,8,0:1:0:0:
234,104,65243,1,8,0:1:0:0:
302,135,65329,1,8,0:1:0:0:
331,209,65414,5,4,0:0:0:0:
224,198,66100,5,2,0:0:0:0:
228,202,66271,1,0,0:0:0:0:
232,206,66443,1,2,0:0:0:0:
50,30,66614,1,8,0:1:0:0:
54,34,66700,1,8,0:1:0:0:
58,38,66786,22,1,B|90:78|90:78|59:184|59:184|27:290|27:290|59:330,1,324.000000000005,4|8,0:0|0:0,0:0:0:0:
298,166,67300,2,0,P|241:132|210:130,1,67.5000025749208,2|0,0:0|0:0,0:0:0:0:
171,223,67471,2,0,P|113:255|95:281,1,67.5000025749208,2|0,0:0|0:0,0:0:0:0:
343,384,67643,2,0,P|416:349|464:172,1,270.000010299683,2|0,0:0|0:0,0:0:0:0:
331,0,68157,5,4,0:0:0:0:
242,248,68329,2,0,L|401:201,1,135.000005149842,2|0,0:0|0:0,0:0:0:0:
158,25,68671,2,0,P|89:86|141:191,1,202.500007724762,2|0,0:0|0:0,0:0:0:0:
121,180,69014,2,0,P|191:114|158:25,1,202.500007724762,2|0,0:0|0:0,0:0:0:0:
157,24,69357,1,2,0:0:0:0:
16,183,69529,6,0,P|88:344|227:236,1,405.000015449525,4|0,0:0|0:0,0:0:0:0:
348,74,70214,1,2,0:0:0:0:
226,236,70386,1,2,0:0:0:0:
428,260,70557,1,8,0:1:0:0:
439,253,70643,1,8,0:1:0:0:
450,246,70729,1,8,0:1:0:0:
245,58,70900,5,8,0:1:0:0:
511,95,71071,1,8,0:1:0:0:
474,362,71243,1,8,0:1:0:0:
207,324,71414,1,8,0:1:0:0:
190,339,71757,1,8,0:1:0:0:
179,343,71843,1,8,0:1:0:0:
169,341,71929,1,8,0:0:0:0:
83,14,72100,1,8,0:1:0:0:
97,48,72186,1,8,0:1:0:0:
106,81,72271,6,0,P|121:201|120:406,1,270.000010299683,4|8,0:0|0:0,0:0:0:0:
4,294,72786,2,0,P|16:207|28:206,1,67.5000025749208,2|0,0:0|0:0,0:0:0:0:
74,141,72957,2,0,P|159:122|164:133,1,67.5000025749208,2|0,0:0|0:0,0:0:0:0:
284,271,73129,2,0,L|104:242,1,135.000005149842,2|8,0:0|0:0,0:0:0:0:
282,86,73471,6,0,P|354:134|350:146,1,67.5000025749208,2|0,0:0|0:0,0:0:0:0:
411,225,73643,2,0,P|389:310|377:310,1,67.5000025749208,2|0,0:0|0:0,0:0:0:0:
211,354,73814,2,0,P|176:278|179:213,1,135.000005149842,2|8,0:0|0:0,0:0:0:0:
394,0,74157,2,0,P|463:61|411:166,1,202.500007724762,2|0,0:0|0:0,0:0:0:0:
431,155,74500,2,0,P|361:89|394:0,1,202.500007724762,2|0,0:0|0:0,0:0:0:0:
394,0,74843,1,2,0:0:0:0:
308,189,75015,5,8,0:1:0:0:
276,181,75100,1,8,0:1:0:0:
245,174,75186,1,8,0:1:0:0:
214,167,75272,1,8,0:1:0:0:
184,160,75357,1,8,0:1:0:0:
153,153,75443,1,8,0:1:0:0:
122,148,75529,1,8,0:1:0:0:
92,140,75615,1,8,0:1:0:0:
61,134,75700,1,8,0:1:0:0:
30,126,75786,1,8,0:1:0:0:
0,120,75871,6,0,L|72:93,1,67.5000025749208,2|0,0:0|0:0,0:0:0:0:
137,313,76043,2,0,L|73:336,1,67.5000025749208,10|0,0:0|0:0,0:0:0:0:
348,65,76214,6,0,B|390:99|409:143|409:143|406:239|325:344,1,270.000010299683,4|0,0:0|0:0,0:0:0:0:
190,369,76729,5,10,0:0:0:0:
103,208,76900,1,10,0:1:0:0:
313,0,77071,5,10,0:0:0:0:
260,267,77243,1,10,0:1:0:0:
0,234,77414,5,10,0:0:0:0:
417,112,77586,5,8,0:1:0:0:
421,116,77643,1,8,0:1:0:0:
425,120,77700,1,8,0:1:0:0:
429,124,77757,6,0,B|258:44|288:213|79:81,1,306.000005836487,4|8,0:0|0:0,0:0:0:0:
14,0,78271,6,0,P|49:52|63:88,1,67.5000025749208,2|0,0:0|0:0,0:0:0:0:
129,143,78443,2,0,P|133:205|127:243,1,67.5000025749208,2|0,0:0|0:0,0:0:0:0:
40,384,78614,2,0,L|-14:214,1,135.000005149842,2|8,0:0|0:0,0:0:0:0:
152,38,78957,1,2,0:0:0:0:
349,378,79129,5,8,0:1:0:0:
307,348,79214,1,8,0:1:0:0:
269,300,79300,1,8,0:1:0:0:
245,244,79386,1,8,0:1:0:0:
240,171,79471,1,8,0:1:0:0:
272,98,79557,1,8,0:1:0:0:
337,39,79643,6,0,L|482:63,1,135.000005149842,4|0,0:0|0:0,0:0:0:0:
152,38,79986,6,0,L|330:13,1,180,12|0,0:0|0:0,0:0:0:0:
91,384,80329,6,0,B|-74:169|67:21|67:21|197:102|176:244,1,631.800002410126,4|8,0:0|0:0,0:0:0:0:
66,367,81014,1,2,0:0:0:0:
333,169,81186,1,2,0:0:0:0:
465,360,81357,2,0,L|312:317,1,135.000005149842,2|8,0:0|0:0,0:0:0:0:
147,274,81700,1,0,0:0:0:0:
319,19,81871,6,0,P|338:71|343:166,1,107.999996704102,2|0,0:0|0:0,0:0:0:0:
434,228,82043,2,0,P|410:278|347:348,1,107.999996704102,2|0,0:0|0:0,0:0:0:0:
69,274,82214,2,0,P|121:255|216:250,1,107.999996704102,2|0,0:0|0:0,0:0:0:0:
250,105,82386,2,0,P|300:128|370:191,1,107.999996704102,2|0,0:0|0:0,0:0:0:0:
316,384,82557,1,0,0:0:0:0:
215,372,82729,2,0,P|174:285|178:218,1,135.000005149842,2|8,0:0|0:0,0:0:0:0:
165,27,83071,1,0,0:0:0:0:
33,383,83243,6,0,P|27:248|10:114,2,270.000010299683,4|8|0,0:0|0:0|0:0,0:0:0:0:
153,191,84100,1,0,0:0:0:0:
322,369,84271,2,0,P|235:345|167:331,1,135.000005149842,8|0,0:0|0:0,0:0:0:0:
114,72,84614,6,0,B|148:30|192:11|192:11|288:14|393:95,1,270.000010299683,4|8,0:0|0:0,0:0:0:0:
512,256,85129,2,0,P|431:218|358:200,1,135.000005149842
66,322,85471,2,0,P|147:284|220:266,1,135.000005149842,0|8,0:0|0:0,0:0:0:0:
448,349,85814,1,0,0:0:0:0:
463,356,85900,1,0,0:0:0:0:
477,366,85986,6,0,L|502:207,1,135.000005149842,4|0,0:0|0:0,0:0:0:0:
190,10,86329,2,0,L|219:141,1,135.000005149842,8|0,0:0|0:0,0:0:0:0:
309,250,86671,1,10,0:0:0:0:
72,125,86843,1,8,0:1:0:0:
336,86,87014,1,10,0:0:0:0:
144,273,87186,1,8,0:1:0:0:
10,47,87357,5,8,0:1:0:0:
49,32,87442,1,8,0:1:0:0:
91,36,87528,1,8,0:1:0:0:
127,56,87614,1,8,0:1:0:0:
152,90,87699,1,8,0:1:0:0:
160,131,87785,1,8,0:1:0:0:
151,172,87871,1,8,0:1:0:0:
125,205,87957,1,8,0:1:0:0:
89,225,88043,5,8,0:1:0:0:
131,173,88128,1,8,0:1:0:0:
194,152,88214,1,8,0:1:0:0:
258,169,88300,1,8,0:1:0:0:
308,221,88385,1,8,0:0:0:0:
364,266,88472,1,8,0:0:0:0:
438,253,88558,1,8,0:0:0:0:
487,195,88644,1,8,0:0:0:0:
485,119,88729,1,12,0:0:0:0:
256,192,88814,12,0,90443,0:0:0:0:
