osu file format v14

[General]
AudioFilename: audio.mp3
AudioLeadIn: 0
PreviewTime: 66407
Countdown: 0
SampleSet: Soft
StackLeniency: 0.4
Mode: 0
LetterboxInBreaks: 0
WidescreenStoryboard: 1

[Editor]
DistanceSpacing: 1.73
BeatDivisor: 4
GridSize: 32
TimelineZoom: 1.8

[Metadata]
Title:Connect (TV Size)
TitleUnicode:コネクト (TV Size)
Artist:ClariS
ArtistUnicode:ClariS
Creator:never FC on osu
Version:Insane
Source:魔法少女まどか☆マギカ
Tags:Mahou shoujo Madoka*Magica OP opening japanese anime J-pop pop Jpop クラリス Clara クララ Aris アリス bossandy Not_DT_Farmer Not DT Farmer GIDZ
BeatmapID:2762964
BeatmapSetID:1299019

[Difficulty]
HPDrainRate:6
CircleSize:4
OverallDifficulty:7.5
ApproachRate:8.8
SliderMultiplier:1.6
SliderTickRate:1

[Events]
//Background and Video events
0,0,"Connect.jpg",0,0
Video,342,"connect video.mp4"
//Break Periods
//Storyboard Layer 0 (Background)
//Storyboard Layer 1 (Fail)
//Storyboard Layer 2 (Pass)
//Storyboard Layer 3 (Foreground)
//Storyboard Layer 4 (Overlay)
//Storyboard Sound Samples

[TimingPoints]
-21,342.857142857143,4,2,87,40,1,0
1350,342.857142857143,4,2,87,40,1,0
1350,-166.666666666667,4,2,87,40,0,0
11636,-200,4,2,87,5,0,0
11979,-142.857142857143,4,2,87,70,0,0
12321,-100,4,2,87,70,0,1
21064,-100,4,2,87,30,0,1
21236,-100,4,2,87,40,0,1
21407,-100,4,2,87,50,0,1
21579,-100,4,2,87,60,0,1
21750,-100,4,2,87,70,0,1
21921,-200,4,2,87,70,0,1
23292,-142.857142857143,4,2,87,50,0,0
45236,-125,4,2,87,60,0,0
61693,-111.111111111111,4,2,87,65,0,0
64779,-99.9999999999999,4,2,87,65,0,0
65121,-100,4,2,87,55,0,0
65293,-100,4,2,87,45,0,0
65464,-100,4,2,87,35,0,0
65636,-100,4,2,87,30,0,0
65807,-125,4,2,100,70,0,0
66407,-125,4,2,87,5,0,0
66493,-125,4,2,87,70,0,0
67093,-125,4,2,87,5,0,0
67178,-90.9090909090909,4,2,87,70,0,1
80121,-90.9090909090909,4,2,87,5,0,1
80379,-90.9090909090909,4,2,87,70,0,1
80464,-90.9090909090909,4,2,87,5,0,1
80721,-90.9090909090909,4,2,87,70,0,1
83036,-90.9090909090909,4,2,87,5,0,1
83121,-90.9090909090909,4,2,87,70,0,1
87750,-90.9090909090909,4,2,87,50,0,0

[Colours]
Combo1 : 235,35,75
Combo2 : 255,136,196
Combo3 : 147,90,165
Combo4 : 143,184,238
Combo5 : 244,234,108

[HitObjects]
28,40,1350,6,0,P|61:72|67:119,1,95.9999970703126,2|0,0:2|0:0,0:0:0:0:
141,155,1864,2,0,P|145:132|154:110,1,47.9999985351563,2|2,0:2|0:2,0:0:0:0:
223,156,2207,2,0,L|319:156,1,95.9999970703126,2|2,0:2|0:2,0:0:0:0:
344,235,2721,1,2,0:2:0:0:
368,314,2893,1,2,0:2:0:0:
368,314,3236,2,0,P|411:332|459:326,2,95.9999970703126,2|2|2,0:2|0:2|0:2,0:0:0:0:
311,374,4093,6,0,L|215:364,1,95.9999970703126,2|0,0:2|0:0,0:0:0:0:
159,303,4607,2,0,L|111:307,2,47.9999985351563,2|2|2,0:2|0:2|0:2,0:0:0:0:
183,224,5293,1,2,0:2:0:0:
183,224,5464,2,0,L|231:228,1,47.9999985351563,2|2,0:2|0:2,0:0:0:0:
285,166,5807,2,0,L|333:162,1,47.9999985351563,2|2,0:2|0:2,0:0:0:0:
230,104,6321,2,0,L|182:100,2,47.9999985351563,2|2|2,0:2|0:2|0:2,0:0:0:0:
256,24,6836,6,0,P|302:14|348:26,1,95.9999970703126,2|0,0:2|0:0,0:0:0:0:
391,97,7350,2,0,P|413:103|437:103,1,47.9999985351563,2|2,0:2|0:2,0:0:0:0:
351,169,7693,2,0,P|339:215|349:261,1,95.9999970703126,2|2,0:2|0:2,0:0:0:0:
304,331,8207,1,2,0:2:0:0:
221,328,8379,1,2,0:2:0:0:
221,328,8721,2,0,L|123:342,2,95.9999970703126,2|2|2,0:2|0:2|0:2,0:0:0:0:
256,192,9579,12,0,11636,0:0:0:0:
77,36,11979,6,0,L|68:82,1,27.9999991455078,2|2,0:2|0:2,0:0:0:0:
141,84,12150,2,0,L|132:130,1,27.9999991455078,2|2,0:2|0:2,0:0:0:0:
62,142,12321,2,0,L|34:299,1,160,6|10,1:2|0:2,0:0:0:0:
184,244,12836,1,0,0:0:0:0:
95,350,13008,1,2,1:2:0:0:
123,194,13179,1,2,1:2:0:0:
170,322,13350,1,10,0:2:0:0:
198,166,13521,6,0,P|256:216|245:292,1,160,6|2,1:2|1:2,0:0:0:0:
136,111,14036,1,10,0:2:0:0:
109,272,14207,1,2,0:2:0:0:
215,85,14379,2,0,L|289:55,1,80,2|2,1:2|1:2,0:0:0:0:
184,244,14721,1,10,0:2:0:0:
152,29,14893,1,2,0:2:0:0:
355,103,15064,6,0,P|360:142|348:180,1,80,6|0,1:2|0:0,0:0:0:0:
215,85,15407,2,0,P|200:121|201:161,1,80,8|0,0:2|0:0,0:0:0:0:
365,22,15750,1,2,1:2:0:0:
280,135,15921,1,2,1:2:0:0:
232,3,16093,1,10,0:2:0:0:
355,103,16264,6,0,L|484:196,1,160,6|0,1:2|1:2,0:0:0:0:
338,261,16779,1,8,0:2:0:0:
280,135,16950,1,0,1:2:0:0:
262,292,17121,1,8,0:2:0:0:
355,103,17293,1,0,1:2:0:0:
486,239,17464,6,0,L|482:279,1,40,10|10,0:2|0:2,0:0:0:0:
404,277,17636,2,0,L|400:317,1,40,10|10,0:2|0:2,0:0:0:0:
328,344,17807,2,0,L|168:328,1,160,6|10,1:2|0:2,0:0:0:0:
9,312,18321,1,0,0:0:0:0:
102,182,18493,1,2,1:2:0:0:
88,320,18664,1,2,1:2:0:0:
69,109,18836,1,10,0:2:0:0:
135,254,19007,6,0,P|180:192|153:120,1,160,6|2,1:2|1:2,0:0:0:0:
51,244,19521,1,10,0:2:0:0:
120,43,19693,1,2,1:2:0:0:
259,203,19864,2,0,L|339:211,1,80,10|2,0:2|1:2,0:0:0:0:
226,130,20207,1,10,0:2:0:0:
291,275,20379,1,2,0:2:0:0:
385,145,20550,5,6,1:2:0:0:
385,145,20893,1,0,1:2:0:0:
338,210,21065,1,8,0:2:0:0:
305,137,21236,1,8,0:2:0:0:
418,219,21407,1,8,0:2:0:0:
352,71,21579,1,8,0:2:0:0:
258,203,21750,1,8,0:2:0:0:
432,78,21921,6,0,P|464:130|453:189,1,120,4|2,1:2|0:2,0:0:0:0:
418,219,22521,1,2,0:2:0:0:
418,219,22607,1,10,0:2:0:0:
385,145,22779,1,0,1:2:0:0:
371,285,22950,1,0,1:2:0:0:
258,203,23121,1,2,1:2:0:0:
258,203,23207,1,2,1:2:0:0:
258,203,23293,1,2,1:2:0:0:
257,203,23636,6,0,P|209:229|153:226,1,111.999996582031,2|2,0:2|0:2,0:0:0:0:
100,162,24150,2,0,L|105:98,1,55.9999982910157,2|2,1:2|0:2,0:0:0:0:
187,121,24493,2,0,L|178:9,1,111.999996582031,2|0,1:2|0:0,0:0:0:0:
258,34,25007,1,2,0:2:0:0:
338,58,25179,2,0,L|342:113,1,55.9999982910157,2|0,0:2|0:0,0:0:0:0:
418,82,25521,2,0,L|422:137,1,55.9999982910157,2|2,1:2|0:2,0:0:0:0:
502,161,25864,1,2,1:2:0:0:
504,245,26036,6,0,L|500:300,1,55.9999982910157,2|0,0:2|0:0,0:0:0:0:
444,364,26379,2,0,L|332:355,1,111.999996582031,2|2,0:2|0:2,0:0:0:0:
310,273,26893,2,0,L|254:278,1,55.9999982910157,2|2,1:2|0:2,0:0:0:0:
212,350,27236,1,2,1:2:0:0:
170,279,27407,2,0,B|172:248|187:227|187:227|172:212|171:173,1,111.999996582031,2|0,0:2|0:0,0:0:0:0:
255,178,27921,2,0,B|253:146|237:126|237:126|253:110|254:74,1,111.999996582031,2|2,0:2|1:2,0:0:0:0:
170,78,28436,1,0,1:2:0:0:
125,8,28607,1,2,1:2:0:0:
41,11,28779,5,2,0:2:0:0:
40,11,29121,2,0,P|7:54|5:109,1,111.999996582031,2|2,0:2|0:2,0:0:0:0:
86,84,29636,2,0,P|89:111|84:139,1,55.9999982910157,2|2,1:2|0:2,0:0:0:0:
15,193,29979,1,2,1:2:0:0:
15,193,30150,2,0,P|12:220|17:248,1,55.9999982910157,2|2,0:2|0:2,0:0:0:0:
1,330,30493,1,2,0:2:0:0:
80,303,30664,2,0,L|203:291,1,111.999996582031,2|2,0:2|1:2,0:0:0:0:
276,286,31179,1,0,0:0:0:0:
228,215,31350,1,2,1:2:0:0:
239,364,31521,6,0,P|295:369|343:341,1,111.999996582031,2|2,0:2|0:2,0:0:0:0:
357,258,32036,1,0,0:0:0:0:
437,228,32207,2,0,B|458:161|458:161|444:122,1,111.999996582031,2|2,0:2|0:2,0:0:0:0:
424,40,32721,1,0,1:2:0:0:
424,40,32807,1,0,0:0:0:0:
424,40,32893,2,0,B|393:49|380:69|380:69|365:48|332:40,1,111.999996582031,2|2,0:2|0:2,0:0:0:0:
317,124,33407,1,0,0:0:0:0:
303,209,33579,2,0,L|225:236,1,55.9999982910157,2|0,0:2|1:2,0:0:0:0:
92,284,33921,1,2,1:2:0:0:
185,172,34093,1,0,1:2:0:0:
157,338,34264,1,2,0:2:0:0:
156,338,34607,6,0,P|109:366|55:360,1,111.999996582031,2|2,0:2|0:2,0:0:0:0:
91,284,35121,2,0,P|118:261|144:255,1,55.9999982910157,2|2,1:2|0:2,0:0:0:0:
94,184,35464,1,2,1:2:0:0:
94,184,35636,2,0,P|67:174|47:155,1,55.9999982910157,2|0,0:2|0:0,0:0:0:0:
113,103,35979,1,2,0:2:0:0:
113,103,36151,2,0,L|111:47,1,55.9999982910157,2|0,0:2|0:0,0:0:0:0:
193,60,36493,2,0,L|219:10,1,55.9999982910157,2|2,1:2|0:2,0:0:0:0:
283,63,36836,1,2,1:2:0:0:
347,115,37007,6,0,L|403:112,1,55.9999982910157,2|0,0:2|0:0,0:0:0:0:
435,190,37350,2,0,L|323:194,1,111.999996582031,2|2,0:2|0:2,0:0:0:0:
355,271,37864,2,0,L|412:269,1,55.9999982910157,2|2,1:2|0:2,0:0:0:0:
495,272,38207,1,2,1:2:0:0:
472,352,38379,2,0,P|421:371|366:362,1,111.999996582031,2|2,0:2|0:2,0:0:0:0:
290,322,38893,2,0,P|239:303|184:312,1,111.999996582031,2|2,0:2|1:2,0:0:0:0:
41,307,39407,1,2,0:2:0:0:
111,351,39579,1,2,1:2:0:0:
186,230,39750,5,2,0:2:0:0:
186,230,40093,2,0,P|209:177|196:124,1,111.999996582031,2|2,0:2|0:2,0:0:0:0:
125,170,40607,2,0,L|61:208,1,55.9999982910157,2|0,1:2|0:0,0:0:0:0:
34,125,40950,2,0,L|82:96,1,55.9999982910157,2|2,1:2|0:2,0:0:0:0:
155,54,41293,1,2,0:2:0:0:
197,126,41464,1,2,0:2:0:0:
280,125,41636,1,2,0:2:0:0:
280,125,41807,2,0,P|304:112|331:105,1,55.9999982910157,2|0,0:2|1:2,0:0:0:0:
365,27,42150,2,0,P|389:40|416:47,1,55.9999982910157,2|0,0:2|1:2,0:0:0:0:
484,97,42493,6,0,L|492:234,1,111.999996582031,2|2,0:2|0:2,0:0:0:0:
406,130,43007,2,0,L|412:241,1,111.999996582031,2|0,0:2|1:2,0:0:0:0:
480,293,43521,1,2,0:2:0:0:
332,273,43693,1,0,1:2:0:0:
332,273,43779,1,0,0:0:0:0:
332,273,43864,2,0,P|280:255|226:264,1,111.999996582031,2|2,0:2|0:2,0:0:0:0:
172,197,44379,1,2,0:2:0:0:
172,197,44465,1,2,0:2:0:0:
171,197,44550,2,0,P|122:220|68:208,1,111.999996582031,2|10,0:2|0:2,0:0:0:0:
113,136,45064,1,2,1:2:0:0:
225,263,45236,6,0,P|244:239|256:203,1,64,6|0,1:2|0:0,0:0:0:0:
350,195,45579,2,0,P|330:169|319:139,1,64,0|2,1:2|0:2,0:0:0:0:
255,71,45921,2,0,P|244:101|225:127,1,64,0|0,1:2|0:0,0:0:0:0:
161,56,46264,1,2,1:2:0:0:
255,207,46436,1,2,0:2:0:0:
338,50,46607,2,0,P|324:22|302:0,1,64,0|0,1:2|0:0,0:0:0:0:
441,60,46950,2,0,P|419:83|405:112,1,64,0|2,1:2|0:2,0:0:0:0:
496,141,47293,1,2,1:2:0:0:
447,326,47636,1,2,1:2:0:0:
262,277,47979,6,0,L|135:295,1,128,2|0,1:2|1:2,0:0:0:0:
10,212,48493,2,0,L|74:221,1,64,2|0,0:2|1:2,0:0:0:0:
169,120,48836,1,2,0:2:0:0:
169,120,49007,2,0,L|105:129,1,64,2|0,1:2|0:0,0:0:0:0:
200,211,49350,2,0,P|228:195|249:172,1,64,0|0,1:2|0:0,0:0:0:0:
329,224,49693,2,0,P|356:239|378:263,1,64,0|2,1:2|0:2,0:0:0:0:
465,223,50036,2,0,L|478:95,1,128,0|2,1:2|1:2,0:0:0:0:
489,0,50550,1,2,0:2:0:0:
401,36,50721,6,0,P|341:56|279:46,1,128,2|0,1:2|1:2,0:0:0:0:
237,132,51236,2,0,P|207:122|176:127,1,64,2|0,0:2|1:2,0:0:0:0:
118,49,51579,1,2,0:2:0:0:
22,60,51750,2,0,P|51:115|47:178,1,128,2|0,1:2|1:2,0:0:0:0:
6,265,52264,2,0,L|69:271,1,64,2|0,0:2|1:2,0:0:0:0:
139,206,52607,1,2,0:2:0:0:
139,206,52779,2,0,L|202:199,1,64,2|0,1:2|0:0,0:0:0:0:
272,265,53121,1,2,1:2:0:0:
272,265,53293,1,2,0:2:0:0:
342,330,53464,6,0,P|400:309|460:327,2,128,0|0|0,1:2|1:2|1:2,0:0:0:0:
342,330,54493,1,2,1:2:0:0:
272,265,54664,1,2,0:2:0:0:
364,237,54836,2,0,L|372:168,1,64,0|0,1:2|0:0,0:0:0:0:
466,160,55179,2,0,L|458:91,1,64,0|2,1:2|0:2,0:0:0:0:
364,83,55521,2,0,L|372:14,1,64,0|0,1:2|0:0,0:0:0:0:
275,121,55864,1,2,1:2:0:0:
198,64,56036,1,2,0:2:0:0:
130,132,56207,6,0,P|156:150|186:159,1,64,6|0,1:2|0:0,0:0:0:0:
249,28,56550,2,0,P|220:41|197:63,1,64,0|2,1:2|0:2,0:0:0:0:
280,183,56893,2,0,P|282:151|274:120,1,64,0|0,1:2|0:0,0:0:0:0:
175,255,57236,1,2,1:2:0:0:
374,207,57408,1,2,0:2:0:0:
186,159,57579,2,0,P|154:161|124:173,1,64,0|0,1:2|0:0,0:0:0:0:
225,337,57921,2,0,P|257:335|287:323,1,64,0|2,1:2|0:2,0:0:0:0:
274,120,58264,1,2,1:2:0:0:
128,339,58607,1,2,1:2:0:0:
124,172,58950,6,0,P|154:160|186:159,1,64,2|0,1:2|0:0,0:0:0:0:
175,255,59293,1,0,1:2:0:0:
28,175,59464,2,0,P|32:143|46:114,1,64,2|0,0:2|1:2,0:0:0:0:
124,172,59807,1,2,0:2:0:0:
78,257,59979,1,2,1:2:0:0:
134,74,60150,5,2,0:2:0:0:
134,74,60236,1,2,0:2:0:0:
134,74,60321,2,0,L|210:87,1,64,0|0,1:2|0:0,0:0:0:0:
353,27,60664,1,0,1:2:0:0:
385,117,60836,1,2,0:2:0:0:
385,117,60921,1,2,0:2:0:0:
384,117,61007,2,0,P|379:148|382:179,1,64,2|0,1:2|0:0,0:0:0:0:
447,45,61350,2,0,P|478:41|509:47,1,64,2|2,1:2|0:2,0:0:0:0:
473,153,61693,6,0,L|476:223,1,71.9999978027344,6|0,1:2|0:0,0:0:0:0:
386,283,62036,1,2,1:2:0:0:
313,120,62207,2,0,L|383:116,1,71.9999978027344,2|0,0:2|1:2,0:0:0:0:
278,277,62550,2,0,L|207:273,1,71.9999978027344,2|0,0:2|1:2,0:0:0:0:
133,248,62893,1,2,0:2:0:0:
115,119,63064,6,0,P|141:143|156:175,1,71.9999978027344,6|0,1:2|0:0,0:0:0:0:
51,208,63407,1,2,1:2:0:0:
70,20,63578,2,0,P|104:9|139:11,1,71.9999978027344,2|0,0:2|1:2,0:0:0:0:
226,166,63921,2,0,P|192:177|157:175,1,71.9999978027344,2|0,0:2|1:2,0:0:0:0:
242,50,64264,1,2,0:2:0:0:
307,186,64436,6,0,P|338:202|374:205,1,71.9999978027344,6|0,1:2|0:0,0:0:0:0:
242,50,64779,1,0,1:2:0:0:
250,245,64950,1,8,0:2:0:0:
335,45,65121,1,0,1:2:0:0:
307,186,65293,1,0,1:2:0:0:
362,124,65464,1,0,1:2:0:0:
388,202,65636,1,0,1:2:0:0:
426,10,65807,6,0,B|466:54|456:109|456:109|479:134|479:134|448:172|500:242,1,256,6|2,0:2|0:2,0:0:0:0:
498,239,67179,6,0,P|415:209|350:263,1,176.000005371094,6|8,1:2|0:2,0:0:0:0:
183,303,67693,1,2,0:2:0:0:
229,133,67864,1,2,1:2:0:0:
268,280,68036,2,0,P|294:324|357:346,1,88.000002685547,2|8,1:2|0:2,0:0:0:0:
314,110,68379,1,2,0:2:0:0:
352,258,68550,5,2,1:2:0:0:
206,219,68721,2,0,P|169:241|125:242,1,88.000002685547,2|8,0:2|0:2,0:0:0:0:
168,74,69064,2,0,P|205:95|228:132,1,88.000002685547,2|0,1:2|0:0,0:0:0:0:
60,180,69407,2,0,P|59:137|81:99,1,88.000002685547,2|8,1:2|0:2,0:0:0:0:
103,12,69750,1,2,0:2:0:0:
228,132,69921,6,0,L|398:88,1,176.000005371094,4|8,1:2|0:2,0:0:0:0:
336,25,70436,1,2,0:2:0:0:
289,193,70607,1,2,1:2:0:0:
168,74,70779,2,0,P|213:49|248:48,1,88.000002685547,2|8,1:2|0:2,0:0:0:0:
374,172,71121,1,2,0:2:0:0:
228,132,71293,5,2,1:2:0:0:
267,277,71464,1,2,0:2:0:0:
311,109,71636,1,10,0:2:0:0:
183,299,71807,2,0,P|203:337|239:361,1,88.000002685547,2|0,1:2|0:0,0:0:0:0:
352,258,72150,1,2,1:2:0:0:
204,214,72321,1,10,0:2:0:0:
327,342,72493,1,2,0:2:0:0:
183,299,72664,6,0,L|13:344,1,176.000005371094,6|8,1:2|0:2,0:0:0:0:
141,151,73179,1,2,0:2:0:0:
267,277,73350,1,2,1:2:0:0:
310,105,73521,2,0,L|225:127,1,88.000002685547,2|8,1:2|0:2,0:0:0:0:
183,299,73864,1,2,0:2:0:0:
224,127,74036,5,2,1:2:0:0:
351,255,74207,2,0,P|351:298|330:336,1,88.000002685547,2|8,0:2|0:2,0:0:0:0:
203,214,74550,2,0,P|240:190|284:189,1,88.000002685547,2|0,1:2|0:0,0:0:0:0:
243,356,74893,2,0,P|205:334|182:298,1,88.000002685547,2|8,1:2|0:2,0:0:0:0:
266,275,75236,1,2,0:2:0:0:
409,319,75407,6,0,L|501:295,1,88.000002685547,6|0,1:2|0:0,0:0:0:0:
395,93,75750,1,8,0:2:0:0:
291,195,75921,1,0,1:2:0:0:
336,34,76093,1,8,0:2:0:0:
373,174,76264,1,2,1:2:0:0:
417,12,76436,1,10,0:2:0:0:
314,115,76607,6,0,P|243:128|214:226,1,176.000005371094,6|0,1:2|1:2,0:0:0:0:
336,34,77121,1,10,0:2:0:0:
336,34,77207,1,2,0:2:0:0:
336,34,77293,2,0,L|286:24,1,44.0000013427735,2|2,1:2|0:2,0:0:0:0:
207,0,77464,1,10,0:2:0:0:
291,195,77636,1,2,1:2:0:0:
395,93,77807,1,10,0:2:0:0:
416,97,77892,1,0,1:2:0:0:
438,101,77978,1,2,1:2:0:0:
233,137,78150,6,0,L|62:182,1,176.000005371094,6|8,1:2|0:2,0:0:0:0:
99,327,78664,1,2,0:2:0:0:
84,97,78836,1,2,1:2:0:0:
39,266,79007,2,0,L|124:243,1,88.000002685547,2|8,1:2|0:2,0:0:0:0:
291,197,79350,1,2,0:2:0:0:
174,76,79521,5,2,1:2:0:0:
269,279,79693,1,2,1:2:0:0:
290,273,79778,1,0,1:2:0:0:
311,267,79864,1,8,0:2:0:0:
313,115,80036,6,0,L|366:131,1,44.0000013427735,2|0,1:2|0:0,0:0:0:0:
463,51,80379,6,0,L|420:38,1,44.0000013427735,2|0,1:2|0:0,0:0:0:0:
477,157,80721,6,0,P|512:235|454:313,1,176.000005371094,6|0,1:2|0:0,0:0:0:0:
378,152,81236,1,8,0:2:0:0:
379,307,81407,1,2,0:2:0:0:
423,229,81579,1,2,1:2:0:0:
290,308,81750,2,0,L|202:307,1,88.000002685547,2|10,1:2|0:2,0:0:0:0:
60,199,82093,1,2,0:2:0:0:
223,129,82264,5,2,1:2:0:0:
131,253,82436,1,2,0:2:0:0:
70,109,82607,1,10,0:2:0:0:
214,218,82779,2,0,P|276:200|310:145,1,132.00000402832,6|0,1:2|0:0,0:0:0:0:
395,161,83121,2,0,L|481:177,1,88.000002685547,2|8,1:2|0:2,0:0:0:0:
366,79,83464,1,2,0:2:0:0:
424,243,83636,6,0,L|257:301,1,176.000005371094,6|8,1:2|0:2,0:0:0:0:
310,145,84150,1,0,0:0:0:0:
481,177,84321,2,0,L|395:161,1,88.000002685547,2|0,1:2|1:2,0:0:0:0:
193,79,84664,2,0,L|279:62,1,88.000002685547,10|0,0:2|0:0,0:0:0:0:
253,213,85007,6,0,L|166:229,1,88.000002685547,2|0,1:2|0:0,0:0:0:0:
310,145,85350,1,10,0:2:0:0:
340,271,85521,2,0,L|257:301,1,88.000002685547,2|0,1:2|0:0,0:0:0:0:
395,161,85864,1,2,1:2:0:0:
453,325,86036,1,8,0:2:0:0:
310,145,86207,5,2,0:2:0:0:
310,145,86293,1,2,0:2:0:0:
310,145,86379,2,0,P|304:102|282:65,1,88.000002685547,2|0,1:2|0:0,0:0:0:0:
221,128,86721,1,8,0:2:0:0:
340,228,86893,1,0,1:2:0:0:
340,228,86979,1,0,0:0:0:0:
340,228,87064,1,8,0:2:0:0:
194,42,87236,1,0,1:2:0:0:
169,55,87321,1,0,1:2:0:0:
149,76,87407,1,10,0:2:0:0:
136,103,87493,1,0,1:2:0:0:
133,132,87578,1,0,1:2:0:0:
139,160,87664,1,0,1:2:0:0:
153,186,87750,5,6,1:2:0:0:
85,348,88436,1,2,0:2:0:0:
259,327,89121,1,2,0:2:0:0:
