osu file format v14

[General]
AudioFilename: audio.mp3
AudioLeadIn: 0
PreviewTime: 66407
Countdown: 0
SampleSet: Soft
StackLeniency: 0.7
Mode: 0
LetterboxInBreaks: 0
WidescreenStoryboard: 0

[Editor]
Bookmarks: 34273,56216,72673
DistanceSpacing: 1.3
BeatDivisor: 4
GridSize: 4
TimelineZoom: 1.8

[Metadata]
Title:Connect (TV Size)
TitleUnicode:コネクト (TV Size)
Artist:ClariS
ArtistUnicode:ClariS
Creator:never FC on osu
Version:Boss' Hard
Source:魔法少女まどか☆マギカ
Tags:Mahou shoujo Madoka*Magica OP opening japanese anime J-pop pop Jpop クラリス Clara クララ Aris アリス bossandy Not_DT_Farmer Not DT Farmer GIDZ
BeatmapID:2694308
BeatmapSetID:1299019

[Difficulty]
HPDrainRate:4.8
CircleSize:3.7
OverallDifficulty:5.6
ApproachRate:7.2
SliderMultiplier:1.4
SliderTickRate:1

[Events]
//Background and Video events
0,0,"Connect.jpg",0,0
Video,342,"connect video.mp4"
//Break Periods
//Storyboard Layer 0 (Background)
//Storyboard Layer 1 (Fail)
//Storyboard Layer 2 (Pass)
//Storyboard Layer 3 (Foreground)
//Storyboard Layer 4 (Overlay)
//Storyboard Sound Samples

[TimingPoints]
-21,342.857142857143,4,2,87,40,1,0
-21,-125,4,2,87,40,0,0
1350,342.857142857143,4,2,87,40,1,0
1350,-125,4,2,87,40,0,0
11636,-125,4,2,87,5,0,0
11979,-125,4,2,87,70,0,0
12321,-125,4,2,87,70,0,1
21064,-125,4,2,87,30,0,1
21236,-125,4,2,87,40,0,1
21407,-125,4,2,87,50,0,1
21579,-125,4,2,87,60,0,1
21750,-125,4,2,87,70,0,1
23292,-142.857142857143,4,2,87,50,0,0
45236,-111.111111111111,4,2,87,60,0,0
61693,-111.111111111111,4,2,87,65,0,0
65121,-100,4,2,87,55,0,0
65293,-100,4,2,87,45,0,0
65464,-100,4,2,87,35,0,0
65636,-100,4,2,87,30,0,0
65807,-200,4,2,100,70,0,0
66407,-200,4,2,87,5,0,0
66493,-200,4,2,87,70,0,0
67093,-200,4,2,87,5,0,0
67178,-90.9090909090909,4,2,87,70,0,1
80121,-100,4,2,87,5,0,1
80379,-100,4,2,87,70,0,1
80464,-100,4,2,87,5,0,1
80721,-90.9090909090909,4,2,87,70,0,1
83036,-100,4,2,87,5,0,1
83121,-90.9090909090909,4,2,87,70,0,1
87750,-90.9090909090909,4,2,87,50,0,0

[Colours]
Combo1 : 235,35,75
Combo2 : 255,136,196
Combo3 : 147,90,165
Combo4 : 143,184,238
Combo5 : 244,234,108

[HitObjects]
264,376,664,6,0,P|267:348|280:323,1,56,2|2,0:2|0:2,0:0:0:0:
223,269,1007,2,0,P|245:252|271:243,1,56,2|2,0:2|0:2,0:0:0:0:
344,276,1350,6,0,P|391:298|495:245,1,168,2|2,0:2|0:2,0:0:0:0:
504,176,2036,1,2,0:2:0:0:
504,176,2207,1,2,0:2:0:0:
392,68,2550,2,0,L|396:4,2,56,2|2|2,0:2|0:2|0:2,0:0:0:0:
252,144,3236,2,0,L|258:255,2,112,2|2|2,0:2|0:2|0:2,0:0:0:0:
248,64,4093,6,0,B|188:60|188:60|156:76|156:76|84:68,1,168,2|2,0:2|0:2,0:0:0:0:
28,16,4779,1,2,0:2:0:0:
28,16,4950,1,2,0:2:0:0:
96,156,5293,2,0,L|88:220,1,56,2|2,0:2|0:2,0:0:0:0:
148,264,5636,1,2,0:2:0:0:
204,320,5807,2,0,L|197:375,1,56,2|2,0:2|0:2,0:0:0:0:
244,224,6321,2,0,L|237:169,1,56,2|2,0:2|0:2,0:0:0:0:
293,113,6664,1,2,0:2:0:0:
348,168,6836,6,0,B|400:216|400:216|440:252|496:232,1,168,2|2,0:2|0:2,0:0:0:0:
460,160,7521,1,2,0:2:0:0:
460,160,7693,1,2,0:2:0:0:
409,308,8036,2,0,P|436:316|464:316,2,56,2|2|2,0:2|0:2|0:2,0:0:0:0:
356,160,8721,1,2,0:2:0:0:
220,80,9064,1,2,0:2:0:0:
68,112,9407,1,2,0:2:0:0:
256,192,9579,12,0,11636,0:0:0:0:
152,40,11979,6,0,L|108:44,3,28,2|2|2|2,0:2|0:2|0:2|0:2,0:0:0:0:
84,48,12321,6,0,L|76:180,1,112,6|10,1:2|0:2,0:0:0:0:
212,260,13007,1,2,1:2:0:0:
296,244,13179,2,0,P|324:244|364:260,1,56,2|10,1:2|0:2,0:0:0:0:
416,200,13521,2,0,P|432:146|432:90,1,112,6|2,1:2|1:2,0:0:0:0:
376,28,14036,2,0,P|348:44|316:48,1,56,10|2,0:2|0:2,0:0:0:0:
308,132,14379,2,0,P|277:120|254:98,1,56,2|2,1:2|1:2,0:0:0:0:
184,146,14721,2,0,P|173:115|174:83,1,56,10|2,0:2|0:2,0:0:0:0:
228,28,15064,5,6,1:2:0:0:
248,196,15407,1,8,0:2:0:0:
264,364,15750,2,0,L|340:348,1,56,2|2,1:2|1:2,0:0:0:0:
368,284,16093,1,10,0:2:0:0:
284,276,16264,2,0,B|216:291|216:291|199:278|169:274,1,112,6|0,1:2|1:2,0:0:0:0:
159,358,16779,2,0,P|129:345|106:318,1,56,8|0,0:2|1:2,0:0:0:0:
32,352,17121,2,0,P|28:319|40:286,1,56,8|0,0:2|1:2,0:0:0:0:
100,245,17464,2,0,L|94:210,3,28,10|10|10|10,0:2|0:2|0:2|0:2,0:0:0:0:
88,176,17807,6,0,P|141:178|201:150,1,112,6|10,1:2|0:2,0:0:0:0:
305,28,18493,1,2,1:2:0:0:
369,81,18664,2,0,P|395:90|426:92,1,56,2|10,1:2|0:2,0:0:0:0:
504,68,19007,2,0,B|500:112|500:112|507:138|507:138|504:192,1,112,6|2,1:2|1:2,0:0:0:0:
496,264,19521,1,10,0:2:0:0:
428,212,19693,1,2,1:2:0:0:
368,272,19864,2,0,P|336:268|312:260,1,56,10|2,0:2|1:2,0:0:0:0:
236,224,20207,2,0,P|204:228|180:236,1,56,10|2,0:2|0:2,0:0:0:0:
128,304,20550,6,0,B|84:260|103:201|103:201|72:188|57:164,1,168,6|8,1:2|0:2,0:0:0:0:
76,84,21236,1,8,0:2:0:0:
76,84,21407,1,8,0:2:0:0:
152,44,21579,1,8,0:2:0:0:
208,104,21750,1,8,0:2:0:0:
292,92,21921,2,0,P|360:88|440:144,1,168,4|2,1:2|0:2,0:0:0:0:
412,224,22607,2,0,P|411:251|416:279,1,56,10|0,0:2|1:2,0:0:0:0:
452,356,22950,1,0,1:2:0:0:
324,280,23293,5,2,1:2:0:0:
184,352,23636,2,0,B|136:372|136:372|84:356,1,97.9999970092774,2|2,0:2|0:2,0:0:0:0:
20,324,24150,2,0,L|28:272,1,48.9999985046387,2|2,1:2|0:2,0:0:0:0:
40,196,24493,1,2,1:2:0:0:
100,244,24664,2,0,P|148:248|208:224,1,97.9999970092774,2|2,0:2|0:2,0:0:0:0:
252,180,25179,2,0,P|300:176|360:200,2,97.9999970092774,2|2|2,0:2|1:2|1:2,0:0:0:0:
194,232,26036,5,2,0:2:0:0:
280,364,26379,1,2,0:2:0:0:
392,256,26721,1,2,0:2:0:0:
452,204,26893,2,0,L|448:152,1,48.9999985046387,2|2,1:2|0:2,0:0:0:0:
444,76,27236,1,2,1:2:0:0:
368,68,27407,2,0,B|308:64|308:64|272:84,1,97.9999970092774,2|0,0:2|0:0,0:0:0:0:
208,120,27921,2,0,B|148:124|148:124|112:104,1,97.9999970092774,2|2,0:2|1:2,0:0:0:0:
48,64,28436,1,0,1:2:0:0:
48,64,28607,1,2,1:2:0:0:
4,128,28779,6,0,L|8:248,1,97.9999970092774,2|2,0:2|0:2,0:0:0:0:
104,348,29464,1,2,0:2:0:0:
184,344,29636,2,0,L|244:340,1,48.9999985046387,2|2,1:2|0:2,0:0:0:0:
248,264,29979,2,0,L|265:168,1,97.9999970092774,2|2,1:2|0:2,0:0:0:0:
232,96,30493,1,2,0:2:0:0:
180,152,30664,2,0,P|140:156|84:134,2,97.9999970092774,2|2|2,0:2|1:2|1:2,0:0:0:0:
232,96,31521,6,0,B|248:60|284:48|284:48|368:56,1,146.999995513916,2|0,0:2|0:0,0:0:0:0:
436,64,32207,1,2,0:2:0:0:
392,128,32379,1,0,1:2:0:0:
412,204,32550,2,0,L|404:252,1,48.9999985046387,2|0,0:2|1:2,0:0:0:0:
388,328,32893,2,0,B|292:312|292:312|232:340,1,146.999995513916,2|0,0:2|0:0,0:0:0:0:
168,324,33579,2,0,L|112:316,1,48.9999985046387,2|0,0:2|1:2,0:0:0:0:
44,304,33921,1,2,1:2:0:0:
92,244,34093,1,0,1:2:0:0:
68,168,34264,5,2,0:2:0:0:
208,96,34607,2,0,P|228:144|224:196,1,97.9999970092774,2|2,0:2|0:2,0:0:0:0:
176,252,35121,2,0,L|180:304,1,48.9999985046387,2|2,1:2|0:2,0:0:0:0:
120,352,35464,1,2,1:2:0:0:
48,312,35636,2,0,L|55:214,1,97.9999970092774,2|2,0:2|0:2,0:0:0:0:
16,148,36150,2,0,L|23:50,2,97.9999970092774,2|2|2,0:2|1:2|1:2,0:0:0:0:
55,214,37007,5,2,0:2:0:0:
152,88,37350,1,2,0:2:0:0:
244,214,37693,1,2,0:2:0:0:
312,176,37864,2,0,L|308:124,1,48.9999985046387,2|2,1:2|0:2,0:0:0:0:
372,80,38207,1,2,1:2:0:0:
444,112,38379,2,0,L|451:209,1,97.9999970092774,2|2,0:2|0:2,0:0:0:0:
388,256,38893,2,0,L|380:316,1,48.9999985046387,2|0,0:2|0:0,0:0:0:0:
308,332,39236,2,0,B|268:296|268:296|200:276,1,97.9999970092774,2|2,1:2|1:2,0:0:0:0:
148,268,39750,6,0,P|133:221|144:170,1,97.9999970092774,2|2,0:2|0:2,0:0:0:0:
268,80,40436,1,2,0:2:0:0:
232,12,40607,2,0,L|176:16,1,48.9999985046387,2|0,1:2|0:0,0:0:0:0:
104,20,40950,2,0,B|60:24|60:24|32:28|8:56,1,97.9999970092774,2|2,1:2|0:2,0:0:0:0:
72,100,41464,1,2,0:2:0:0:
12,152,41636,1,2,0:2:0:0:
71,203,41807,2,0,P|76:252|56:304,1,97.9999970092774,2|2,0:2|0:2,0:0:0:0:
192,380,42493,6,0,B|292:352,1,97.9999970092774,2|2,0:2|0:2,0:0:0:0:
304,276,43007,2,0,L|316:204,1,48.9999985046387,2|2,0:2|0:2,0:0:0:0:
364,168,43350,1,0,1:2:0:0:
424,116,43521,2,0,L|432:67,1,48.9999985046387,2|0,0:2|1:2,0:0:0:0:
512,60,43864,6,0,L|495:156,1,97.9999970092774,2|2,0:2|0:2,0:0:0:0:
464,312,44550,2,0,L|408:304,1,48.9999985046387,2|0,0:2|1:2,0:0:0:0:
348,344,44893,1,10,0:2:0:0:
288,292,45064,1,2,1:2:0:0:
200,344,45236,6,0,P|148:344|84:288,2,125.999996154785,6|0|0,1:2|1:2|1:2,0:0:0:0:
300,212,46264,2,0,L|292:140,1,62.9999980773926,2|2,1:2|0:2,0:0:0:0:
372,164,46607,2,0,B|420:172|420:172|476:180|500:136,1,125.999996154785,0|0,1:2|1:2,0:0:0:0:
384,24,47293,2,0,P|348:20|312:28,1,62.9999980773926,2|0,1:2|0:0,0:0:0:0:
256,76,47636,2,0,P|220:80|184:72,1,62.9999980773926,2|0,1:2|0:0,0:0:0:0:
120,40,47979,6,0,P|152:86|166:155,1,125.999996154785,2|0,1:2|1:2,0:0:0:0:
112,212,48493,1,2,0:2:0:0:
32,212,48664,2,0,P|37:242|55:268,1,62.9999980773926,0|2,1:2|0:2,0:0:0:0:
132,296,49007,2,0,B|176:280|176:280|207:302|256:304,1,125.999996154785,2|0,1:2|1:2,0:0:0:0:
380,204,49693,2,0,P|408:200|448:204,1,62.9999980773926,0|2,1:2|0:2,0:0:0:0:
504,256,50036,2,0,P|484:200|488:128,1,125.999996154785,0|2,1:2|1:2,0:0:0:0:
512,60,50550,1,2,0:2:0:0:
440,24,50721,6,0,P|368:24|316:56,1,125.999996154785,2|0,1:2|1:2,0:0:0:0:
272,116,51236,2,0,P|200:116|148:84,1,125.999996154785,2|2,0:2|0:2,0:0:0:0:
92,36,51750,1,2,1:2:0:0:
17,181,52093,1,0,1:2:0:0:
80,232,52264,2,0,L|64:373,1,125.999996154785,2|2,0:2|0:2,0:0:0:0:
148,340,52779,2,0,P|181:333|228:336,1,62.9999980773926,2|0,1:2|0:0,0:0:0:0:
288,364,53121,1,2,1:2:0:0:
364,332,53293,1,2,0:2:0:0:
436,368,53464,6,0,P|492:340|512:264,2,125.999996154785,0|0|0,1:2|1:2|1:2,0:0:0:0:
368,220,54492,1,2,1:2:0:0:
388,140,54664,1,2,0:2:0:0:
352,64,54836,2,0,P|292:48|216:76,1,125.999996154785,0|0,1:2|1:2,0:0:0:0:
200,140,55350,1,2,0:2:0:0:
248,208,55521,2,0,L|256:288,1,62.9999980773926,0|0,1:2|0:0,0:0:0:0:
220,344,55864,1,2,1:2:0:0:
140,360,56036,1,2,0:2:0:0:
72,316,56207,6,0,L|84:190,1,125.999996154785,6|0,1:2|1:2,0:0:0:0:
32,36,56893,2,0,P|100:20|160:44,1,125.999996154785,0|2,1:2|1:2,0:0:0:0:
208,96,57407,2,0,P|276:112|336:88,1,125.999996154785,2|0,0:2|0:0,0:0:0:0:
384,32,57921,1,0,1:2:0:0:
336,188,58264,1,2,1:2:0:0:
492,136,58607,1,2,1:2:0:0:
444,292,58950,6,0,B|404:320|404:320|360:324|320:304,1,125.999996154785,2|0,1:2|1:2,0:0:0:0:
264,256,59464,2,0,P|200:252|144:284,1,125.999996154785,2|2,0:2|0:2,0:0:0:0:
88,336,59979,1,2,1:2:0:0:
88,336,60150,2,0,L|100:184,1,125.999996154785,2|0,0:2|0:0,0:0:0:0:
56,140,60664,1,0,1:2:0:0:
172,24,61007,1,2,1:2:0:0:
180,188,61350,1,2,1:2:0:0:
296,72,61693,6,0,P|356:96|436:80,1,125.999996154785,6|2,1:2|1:2,0:0:0:0:
448,164,62207,2,0,P|397:203|371:281,2,125.999996154785,2|2|2,0:2|0:2|0:2,0:0:0:0:
415,89,63064,2,0,P|353:95|296:71,1,125.999996154785,6|2,1:2|1:2,0:0:0:0:
244,136,63579,2,0,P|280:186|288:248,2,125.999996154785,2|2|2,0:2|0:2|0:2,0:0:0:0:
164,116,64436,5,6,1:2:0:0:
256,192,64521,12,6,65807,0:2:0:0:
40,328,66493,6,0,L|36:291,1,35,2|2,0:2|0:2,0:0:0:0:
65,214,66836,2,0,L|61:177,1,35,2|2,0:2|0:2,0:0:0:0:
16,100,67179,6,0,P|84:141|176:108,1,154.000004699707,6|8,1:2|0:2,0:0:0:0:
100,52,67693,1,2,0:2:0:0:
184,12,67864,2,0,P|224:12|268:32,1,77.0000023498536,2|2,1:2|1:2,0:0:0:0:
332,84,68207,1,8,0:2:0:0:
420,52,68379,1,2,0:2:0:0:
488,116,68550,2,0,L|480:204,1,77.0000023498536,2|2,1:2|0:2,0:0:0:0:
400,236,68893,1,8,0:2:0:0:
428,324,69064,2,0,P|392:328|340:308,1,77.0000023498536,2|0,1:2|0:0,0:0:0:0:
288,252,69407,2,0,P|252:248|200:268,1,77.0000023498536,2|8,1:2|0:2,0:0:0:0:
136,312,69750,1,2,0:2:0:0:
56,360,69921,6,0,B|46:322|56:284|56:284|65:246|56:208,1,154.000004699707,4|8,1:2|0:2,0:0:0:0:
32,116,70436,1,2,0:2:0:0:
86,41,70607,1,2,1:2:0:0:
180,32,70779,2,0,B|228:24|268:44|268:44|296:32|332:40,1,154.000004699707,2|2,1:2|0:2,0:0:0:0:
308,128,71293,1,2,1:2:0:0:
284,216,71464,2,0,L|196:200,1,77.0000023498536,2|10,0:2|0:2,0:0:0:0:
192,292,71807,2,0,B|265:304|265:304|288:352|340:364,1,154.000004699707,2|2,1:2|1:2,0:0:0:0:
412,368,72321,1,10,0:2:0:0:
476,300,72493,1,2,0:2:0:0:
428,220,72664,6,0,B|408:168|408:168|432:68,1,154.000004699707,6|8,1:2|0:2,0:0:0:0:
356,16,73179,1,2,0:2:0:0:
300,92,73350,2,0,P|260:96|212:80,1,77.0000023498536,2|2,1:2|1:2,0:0:0:0:
168,12,73693,1,8,0:2:0:0:
76,0,73864,1,2,0:2:0:0:
8,64,74036,2,0,P|4:112|16:148,1,77.0000023498536,2|2,1:2|0:2,0:0:0:0:
64,216,74379,1,8,0:2:0:0:
148,252,74550,2,0,B|221:229,1,77.0000023498536,2|0,1:2|0:0,0:0:0:0:
312,200,74893,2,0,L|318:123,1,77.0000023498536,2|8,1:2|0:2,0:0:0:0:
404,84,75236,1,2,0:2:0:0:
488,48,75407,6,0,L|474:201,2,154.000004699707,6|8|8,1:2|0:2|0:2,0:0:0:0:
404,84,76264,1,2,1:2:0:0:
328,32,76436,1,10,0:2:0:0:
244,148,76607,6,0,B|206:158|168:148|168:148|130:139|92:148,1,154.000004699707,6|0,1:2|1:2,0:0:0:0:
24,212,77121,1,10,0:2:0:0:
24,304,77293,1,2,1:2:0:0:
92,368,77464,2,0,L|172:368,1,77.0000023498536,10|2,0:2|1:2,0:0:0:0:
236,304,77807,1,10,0:2:0:0:
236,304,77893,1,0,1:2:0:0:
236,304,77979,1,2,1:2:0:0:
304,240,78150,6,0,B|364:240|364:240|396:224|396:224|456:224,1,154.000004699707,6|8,1:2|0:2,0:0:0:0:
496,140,78664,1,2,0:2:0:0:
440,64,78836,2,0,L|363:64,1,77.0000023498536,2|2,1:2|1:2,0:0:0:0:
308,140,79178,1,8,0:2:0:0:
256,64,79350,1,2,0:2:0:0:
204,140,79521,1,2,1:2:0:0:
148,216,79693,2,0,L|148:260,2,38.5000011749268,2|0|8,1:2|1:2|0:2,0:0:0:0:
96,140,80036,5,2,1:2:0:0:
188,0,80379,1,2,1:2:0:0:
308,140,80721,6,0,P|377:171|446:140,1,154.000004699707,6|0,1:2|0:0,0:0:0:0:
376,76,81236,1,8,0:2:0:0:
304,20,81407,2,0,P|264:20|228:36,1,77.0000023498536,2|2,0:2|1:2,0:0:0:0:
188,116,81750,2,0,B|136:136|96:120|96:120|40:96,1,154.000004699707,2|2,1:2|0:2,0:0:0:0:
0,180,82264,2,0,L|96:224,1,77.0000023498536,2|2,1:2|0:2,0:0:0:0:
156,244,82607,1,10,0:2:0:0:
120,332,82779,2,0,B|160:344|196:328|196:328|232:344|272:332,1,154.000004699707,6|2,1:2|1:2,0:0:0:0:
240,244,83293,1,8,0:2:0:0:
200,160,83464,1,2,0:2:0:0:
240,76,83636,6,0,P|304:108|396:92,1,154.000004699707,6|8,1:2|0:2,0:0:0:0:
456,40,84150,1,0,0:0:0:0:
480,128,84321,2,0,L|460:204,1,77.0000023498536,2|0,1:2|1:2,0:0:0:0:
400,272,84664,2,0,L|380:348,1,77.0000023498536,10|0,0:2|0:0,0:0:0:0:
292,372,85007,2,0,P|248:368|208:348,1,77.0000023498536,2|0,1:2|0:0,0:0:0:0:
184,268,85350,1,10,0:2:0:0:
148,180,85521,2,0,P|76:208|0:214,1,154.000004699707,2|2,1:2|1:2,0:0:0:0:
20,124,86036,2,0,P|58:121|93:106,1,77.0000023498536,8|2,0:2|0:2,0:0:0:0:
164,44,86379,6,0,P|235:15|311:9,1,154.000004699707,2|8,1:2|0:2,0:0:0:0:
404,28,86893,1,0,1:2:0:0:
476,84,87064,2,0,L|472:132,3,38.5000011749268,8|0|0|0,0:2|1:2|1:2|1:2,0:0:0:0:
452,164,87407,2,0,L|455:202,3,38.5000011749268,10|0|0|0,0:2|1:2|1:2|1:2,0:0:0:0:
480,244,87750,5,6,1:2:0:0:
256,80,88436,1,2,0:2:0:0:
32,244,89121,1,2,0:2:0:0:
