osu file format v14

[General]
AudioFilename: audio.mp3
AudioLeadIn: 0
PreviewTime: 66330
Countdown: 0
SampleSet: Normal
StackLeniency: 0.7
Mode: 1
LetterboxInBreaks: 0
WidescreenStoryboard: 1

[Editor]
Bookmarks: -12,23302,45245,67188,89130
DistanceSpacing: 1
BeatDivisor: 4
GridSize: 32
TimelineZoom: 2.5

[Metadata]
Title:Connect (TV Size)
TitleUnicode:コネクト (TV Size)
Artist:ClariS
ArtistUnicode:ClariS
Creator:davidminh0111
Version:Collab Muzukashii
Source:魔法少女まどか☆マギカ
Tags:op op1 opening mix mahou shoujo puella magi madoka magica クララ アリス clara alice 湯浅篤 atsushi yuasa 渡辺翔 watanabe sho japanese anime pop jpop j-pop yuki_momoiro722 Yasuho realy0_ reealy_ Nytrioum Roger ][ -GH- ][ asa kazato asa_kazato
BeatmapID:3046626
BeatmapSetID:1485572

[Difficulty]
HPDrainRate:5.5
CircleSize:2
OverallDifficulty:4.5
ApproachRate:10
SliderMultiplier:1.4
SliderTickRate:1

[Events]
//Background and Video events
0,0,"bg_muzukashii.jpg",0,50
//Break Periods
//Storyboard Layer 0 (Background)
//Storyboard Layer 1 (Fail)
//Storyboard Layer 2 (Pass)
//Storyboard Layer 3 (Foreground)
//Storyboard Layer 4 (Overlay)
//Storyboard Sound Samples

[TimingPoints]
-12,342.857142857143,4,1,0,60,1,0
330,-125,4,1,0,60,0,0
11988,-119.047619047619,4,1,0,70,0,0
12073,-113.636363636364,4,1,0,70,0,0
12159,-108.695652173913,4,1,0,70,0,0
12245,-104.166666666667,4,1,0,70,0,0
12330,-100,4,1,0,80,0,0
67188,-100,4,1,0,80,0,1
89130,-100,4,1,0,80,0,0

[HitObjects]
256,192,673,5,8,0:0:0:0:
256,192,845,1,0,0:0:0:0:
256,192,1016,1,0,0:0:0:0:
256,192,1188,1,0,0:0:0:0:
256,192,1359,1,8,0:0:0:0:
256,192,1873,1,8,0:0:0:0:
256,192,2045,1,0,0:0:0:0:
256,192,2216,1,8,0:0:0:0:
256,192,2559,1,0,0:0:0:0:
256,192,2730,1,8,0:0:0:0:
256,192,2902,1,0,0:0:0:0:
256,192,3245,1,8,0:0:0:0:
256,192,3588,1,0,0:0:0:0:
256,192,3930,1,8,0:0:0:0:
256,192,4616,1,8,0:0:0:0:
256,192,4788,1,0,0:0:0:0:
256,192,4959,1,8,0:0:0:0:
256,192,5302,1,0,0:0:0:0:
256,192,5473,1,8,0:0:0:0:
256,192,5645,1,8,0:0:0:0:
256,192,5816,1,8,0:0:0:0:
256,192,5988,1,0,0:0:0:0:
256,192,6330,1,0,0:0:0:0:
256,192,6502,1,0,0:0:0:0:
256,192,6673,1,8,0:0:0:0:
256,192,6845,1,0,0:0:0:0:
256,192,7359,1,0,0:0:0:0:
256,192,7530,1,8,0:0:0:0:
256,192,7702,1,8,0:0:0:0:
256,192,8045,1,0,0:0:0:0:
256,192,8216,1,0,0:0:0:0:
256,192,8388,1,8,0:0:0:0:
256,192,8730,1,8,0:0:0:0:
256,192,9073,1,0,0:0:0:0:
256,192,9416,1,8,0:0:0:0:
256,192,10445,1,0,0:0:0:0:
256,192,10616,1,0,0:0:0:0:
256,192,10788,1,8,0:0:0:0:
256,192,11988,1,0,0:0:0:0:
256,192,12073,1,0,0:0:0:0:
256,192,12159,1,0,0:0:0:0:
256,192,12330,1,12,0:0:0:0:
256,192,12673,1,0,0:0:0:0:
256,192,13188,1,0,0:0:0:0:
256,192,13359,1,0,0:0:0:0:
256,192,13530,1,12,0:0:0:0:
256,192,13873,1,8,0:0:0:0:
256,192,14045,1,0,0:0:0:0:
256,192,14216,1,8,0:0:0:0:
256,192,14559,1,0,0:0:0:0:
256,192,14730,1,8,0:0:0:0:
256,192,15073,1,12,0:0:0:0:
256,192,15245,1,8,0:0:0:0:
256,192,15416,1,0,0:0:0:0:
256,192,15759,1,0,0:0:0:0:
256,192,15930,1,8,0:0:0:0:
256,192,16102,1,0,0:0:0:0:
256,192,16273,1,12,0:0:0:0:
256,192,16616,1,8,0:0:0:0:
256,192,16788,1,8,0:0:0:0:
256,192,17130,1,0,0:0:0:0:
256,192,17302,1,8,0:0:0:0:
256,192,17473,1,0,0:0:0:0:
256,192,17645,1,8,0:0:0:0:
256,192,17730,1,8,0:0:0:0:
256,192,17816,1,8,0:0:0:0:
256,192,18159,1,0,0:0:0:0:
256,192,18673,1,0,0:0:0:0:
256,192,18845,1,8,0:0:0:0:
256,192,19016,1,12,0:0:0:0:
256,192,19359,1,0,0:0:0:0:
256,192,19530,1,8,0:0:0:0:
256,192,19702,1,0,0:0:0:0:
256,192,19873,1,8,0:0:0:0:
256,192,20045,1,8,0:0:0:0:
256,192,20216,1,0,0:0:0:0:
256,192,20559,1,12,0:0:0:0:
256,192,21073,1,0,0:0:0:0:
256,192,21245,1,0,0:0:0:0:
256,192,21416,1,0,0:0:0:0:
256,192,21588,1,8,0:0:0:0:
256,192,21759,1,8,0:0:0:0:
256,192,21930,1,12,0:0:0:0:
256,192,22616,1,8,0:0:0:0:
256,192,23302,5,4,0:0:0:0:
256,192,23988,1,0,0:0:0:0:
256,192,24159,1,8,0:0:0:0:
256,192,24502,1,8,0:0:0:0:
256,192,24673,1,0,0:0:0:0:
256,192,25016,1,0,0:0:0:0:
256,192,25188,1,8,0:0:0:0:
256,192,25530,1,8,0:0:0:0:
256,192,25702,1,0,0:0:0:0:
256,192,25873,1,8,0:0:0:0:
256,192,26045,1,0,0:0:0:0:
256,192,26388,1,8,0:0:0:0:
256,192,26730,1,0,0:0:0:0:
256,192,26902,1,0,0:0:0:0:
256,192,27245,1,8,0:0:0:0:
256,192,27416,1,0,0:0:0:0:
256,192,27930,1,8,0:0:0:0:
256,192,28273,1,0,0:0:0:0:
256,192,28616,1,8,0:0:0:0:
256,192,28788,1,0,0:0:0:0:
256,192,29130,1,0,0:0:0:0:
256,192,29473,1,0,0:0:0:0:
256,192,29645,1,8,0:0:0:0:
256,192,29988,1,8,0:0:0:0:
256,192,30159,1,0,0:0:0:0:
256,192,30330,1,0,0:0:0:0:
256,192,30502,1,8,0:0:0:0:
256,192,30673,1,8,0:0:0:0:
256,192,31016,1,0,0:0:0:0:
256,192,31359,1,8,0:0:0:0:
256,192,31530,1,0,0:0:0:0:
256,192,32216,1,8,0:0:0:0:
256,192,32387,1,0,0:0:0:0:
256,192,32558,1,8,0:0:0:0:
256,192,32902,1,0,0:0:0:0:
256,192,33245,1,0,0:0:0:0:
256,192,33588,1,0,0:0:0:0:
256,192,33930,1,0,0:0:0:0:
256,192,34102,1,0,0:0:0:0:
256,192,34273,5,0,0:0:0:0:
256,192,34959,1,0,0:0:0:0:
256,192,35130,1,8,0:0:0:0:
256,192,35473,1,8,0:0:0:0:
256,192,35644,1,0,0:0:0:0:
256,192,35987,1,0,0:0:0:0:
256,192,36159,1,8,0:0:0:0:
256,192,36501,1,8,0:0:0:0:
256,192,36844,1,8,0:0:0:0:
256,192,37016,1,0,0:0:0:0:
256,192,37359,1,8,0:0:0:0:
256,192,37701,1,0,0:0:0:0:
256,192,37873,1,0,0:0:0:0:
256,192,38216,1,8,0:0:0:0:
256,192,38387,1,0,0:0:0:0:
256,192,38901,1,8,0:0:0:0:
256,192,39244,1,0,0:0:0:0:
256,192,39587,1,8,0:0:0:0:
256,192,39759,1,0,0:0:0:0:
256,192,40101,1,0,0:0:0:0:
256,192,40444,1,0,0:0:0:0:
256,192,40616,1,8,0:0:0:0:
256,192,40959,1,8,0:0:0:0:
256,192,41130,1,0,0:0:0:0:
256,192,41473,1,8,0:0:0:0:
256,192,41816,1,0,0:0:0:0:
256,192,41988,1,0,0:0:0:0:
256,192,42159,1,8,0:0:0:0:
256,192,42501,1,0,0:0:0:0:
256,192,43016,1,8,0:0:0:0:
256,192,43359,1,0,0:0:0:0:
256,192,43530,1,8,0:0:0:0:
256,192,43873,1,0,0:0:0:0:
256,192,44559,1,0,0:0:0:0:
256,192,44730,1,8,0:0:0:0:
256,192,44901,1,0,0:0:0:0:
256,192,45245,1,12,0:0:0:0:
256,192,46273,1,8,0:0:0:0:
256,192,46445,1,0,0:0:0:0:
256,192,47302,1,8,0:0:0:0:
256,192,47645,1,0,0:0:0:0:
256,192,47816,1,8,0:0:0:0:
256,192,47988,1,8,0:0:0:0:
256,192,48502,1,8,0:0:0:0:
256,192,48845,1,0,0:0:0:0:
256,192,49016,1,8,0:0:0:0:
256,192,50388,1,0,0:0:0:0:
256,192,50559,1,8,0:0:0:0:
256,192,50730,1,0,0:0:0:0:
256,192,51245,1,0,0:0:0:0:
256,192,51588,1,0,0:0:0:0:
256,192,51759,1,8,0:0:0:0:
256,192,52273,1,0,0:0:0:0:
256,192,52788,1,8,0:0:0:0:
256,192,53130,1,8,0:0:0:0:
256,192,53302,1,0,0:0:0:0:
256,192,53473,1,8,0:0:0:0:
256,192,53816,1,0,0:0:0:0:
256,192,54159,1,0,0:0:0:0:
256,192,54502,1,8,0:0:0:0:
256,192,54673,1,8,0:0:0:0:
256,192,55873,1,0,0:0:0:0:
256,192,56045,1,8,0:0:0:0:
256,192,56216,1,8,0:0:0:0:
256,192,57245,1,8,0:0:0:0:
256,192,57416,1,0,0:0:0:0:
256,192,58273,1,0,0:0:0:0:
256,192,58445,1,0,0:0:0:0:
256,192,58616,1,8,0:0:0:0:
256,192,58788,1,8,0:0:0:0:
256,192,58959,1,0,0:0:0:0:
256,192,59473,1,8,0:0:0:0:
256,192,59988,1,0,0:0:0:0:
256,192,60159,1,8,0:0:0:0:
256,192,61016,1,0,0:0:0:0:
256,192,61188,1,0,0:0:0:0:
256,192,61359,1,8,0:0:0:0:
256,192,61702,1,12,0:0:0:0:
256,192,62045,1,8,0:0:0:0:
256,192,62216,1,0,0:0:0:0:
256,192,62388,1,8,0:0:0:0:
256,192,62559,1,0,0:0:0:0:
256,192,62902,1,0,0:0:0:0:
256,192,63073,1,12,0:0:0:0:
256,192,63416,1,8,0:0:0:0:
256,192,63588,1,0,0:0:0:0:
256,192,63930,1,8,0:0:0:0:
256,192,64273,1,0,0:0:0:0:
256,192,64445,1,12,0:0:0:0:
256,192,64788,1,8,0:0:0:0:
256,192,64873,1,8,0:0:0:0:
256,192,64959,1,8,0:0:0:0:
256,192,65130,1,0,0:0:0:0:
256,192,65302,1,8,0:0:0:0:
256,192,65473,1,8,0:0:0:0:
256,192,65645,1,0,0:0:0:0:
256,192,65816,1,12,0:0:0:0:
256,192,66502,1,8,0:0:0:0:
256,192,66673,1,0,0:0:0:0:
256,192,66845,1,8,0:0:0:0:
256,192,67188,5,4,0:0:0:0:
256,192,67530,5,8,0:0:0:0:
256,192,67702,1,0,0:0:0:0:
256,192,67788,1,0,0:0:0:0:
256,192,67873,1,0,0:0:0:0:
256,192,68045,1,8,0:0:0:0:
256,192,68388,1,8,0:0:0:0:
256,192,68559,1,0,0:0:0:0:
256,192,68902,1,0,0:0:0:0:
256,192,69073,1,8,0:0:0:0:
256,192,69416,5,0,0:0:0:0:
256,192,69588,1,8,0:0:0:0:
256,192,69759,1,8,0:0:0:0:
256,192,69930,1,0,0:0:0:0:
256,192,70445,1,8,0:0:0:0:
256,192,70530,1,8,0:0:0:0:
256,192,70616,1,8,0:0:0:0:
256,192,70788,1,8,0:0:0:0:
256,192,70959,1,0,0:0:0:0:
256,192,71302,1,8,0:0:0:0:
256,192,71473,1,0,0:0:0:0:
256,192,71645,1,0,0:0:0:0:
256,192,71816,1,8,0:0:0:0:
256,192,72159,1,8,0:0:0:0:
256,192,72245,1,8,0:0:0:0:
256,192,72330,1,8,0:0:0:0:
256,192,72502,1,0,0:0:0:0:
256,192,72673,1,8,0:0:0:0:
256,192,73016,1,8,0:0:0:0:
256,192,73188,1,0,0:0:0:0:
256,192,73359,1,0,0:0:0:0:
256,192,73530,1,8,0:0:0:0:
256,192,73873,1,8,0:0:0:0:
256,192,74045,1,0,0:0:0:0:
256,192,74388,1,0,0:0:0:0:
256,192,74559,1,8,0:0:0:0:
256,192,74902,1,8,0:0:0:0:
256,192,75073,1,0,0:0:0:0:
256,192,75245,1,8,0:0:0:0:
256,192,75416,1,0,0:0:0:0:
256,192,75759,1,8,0:0:0:0:
256,192,76102,1,0,0:0:0:0:
256,192,76273,1,0,0:0:0:0:
256,192,76445,1,8,0:0:0:0:
256,192,76616,1,8,0:0:0:0:
256,192,77130,1,8,0:0:0:0:
256,192,77302,1,0,0:0:0:0:
256,192,77388,1,0,0:0:0:0:
256,192,77473,1,0,0:0:0:0:
256,192,77645,1,0,0:0:0:0:
256,192,77816,1,8,0:0:0:0:
256,192,78159,5,4,0:0:0:0:
256,192,78501,1,8,0:0:0:0:
256,192,78673,1,0,0:0:0:0:
256,192,78759,1,0,0:0:0:0:
256,192,78844,1,0,0:0:0:0:
256,192,79016,1,8,0:0:0:0:
256,192,79359,1,8,0:0:0:0:
256,192,79530,1,0,0:0:0:0:
256,192,79873,1,0,0:0:0:0:
256,192,80045,1,12,0:0:0:0:
256,192,80388,1,4,0:0:0:0:
256,192,80730,1,4,0:0:0:0:
256,192,81245,1,0,0:0:0:0:
256,192,81416,1,8,0:0:0:0:
256,192,81501,1,8,0:0:0:0:
256,192,81587,1,8,0:0:0:0:
256,192,81759,1,0,0:0:0:0:
256,192,81930,1,8,0:0:0:0:
256,192,82273,1,8,0:0:0:0:
256,192,82444,1,0,0:0:0:0:
256,192,82616,1,0,0:0:0:0:
256,192,82787,1,8,0:0:0:0:
256,192,83130,1,0,0:0:0:0:
256,192,83216,1,0,0:0:0:0:
256,192,83301,1,0,0:0:0:0:
256,192,83473,1,8,0:0:0:0:
256,192,83644,1,0,0:0:0:0:
256,192,84330,1,0,0:0:0:0:
256,192,84502,1,0,0:0:0:0:
256,192,84673,1,8,0:0:0:0:
256,192,85016,1,0,0:0:0:0:
256,192,85359,1,8,0:0:0:0:
256,192,85530,1,8,0:0:0:0:
256,192,85873,1,0,0:0:0:0:
256,192,86045,1,8,0:0:0:0:
256,192,86216,1,8,0:0:0:0:
256,192,86388,1,0,0:0:0:0:
256,192,86902,1,8,0:0:0:0:
256,192,86988,1,8,0:0:0:0:
256,192,87073,1,8,0:0:0:0:
256,192,87245,1,0,0:0:0:0:
256,192,87416,1,8,0:0:0:0:
256,192,87759,1,4,0:0:0:0:
256,192,87930,12,0,89816,0:0:0:0:
