osu file format v14

[General]
AudioFilename: audio.mp3
AudioLeadIn: 0
PreviewTime: 66471
Countdown: 0
SampleSet: None
StackLeniency: 0.7
Mode: 0
LetterboxInBreaks: 0
WidescreenStoryboard: 0

[Editor]
Bookmarks: 12300,23271,34243,45214,56186,67157,78129
DistanceSpacing: 1.2
BeatDivisor: 4
GridSize: 8
TimelineZoom: 1.6

[Metadata]
Title:Connect (TV Size)
TitleUnicode:コネクト (TV Size)
Artist:ClariS
ArtistUnicode:ClariS
Creator:achyoo
Version:gayge
Source:魔法少女まどか☆マギカ
Tags:ayucchi 錦木 千束 Nishikigi Chisato 井ノ上 たきな Inoue Takina chisataki アリス☆クララ Anime op Japanese jpop j-pop pop Puella Magi Madoka Magica
BeatmapID:4537997
BeatmapSetID:2153647

[Difficulty]
HPDrainRate:5
CircleSize:4
OverallDifficulty:8
ApproachRate:9
SliderMultiplier:1.5
SliderTickRate:2

[Events]
//Background and Video events
0,0,"madoka.jpg",0,0
//Break Periods
//Storyboard Layer 0 (Background)
//Storyboard Layer 1 (Fail)
//Storyboard Layer 2 (Pass)
//Storyboard Layer 3 (Foreground)
//Storyboard Layer 4 (Overlay)
//Storyboard Sound Samples

[TimingPoints]
-42,342.857142857143,4,2,1,55,1,0
1329,342.857142857143,4,2,1,55,1,0
1329,-133.333333333333,4,2,1,55,0,0
12300,-100,4,2,1,55,0,0
23271,-133.333333333333,4,2,1,55,0,0
45214,-111.111111111111,4,2,1,55,0,0
67157,-100,4,2,1,75,0,1
87729,-166.666666666667,4,2,1,55,0,0

[Colours]
Combo1 : 136,169,255
Combo2 : 245,109,109
Combo3 : 143,143,143
Combo4 : 249,234,128

[HitObjects]
95,198,1329,6,0,P|128:205|160:237,1,56.2500021457673
204,140,1671,2,0,P|211:107|243:75,1,56.2500021457673
310,108,2014,1,0,0:0:0:0:
389,36,2186,2,0,B|376:54|376:54|411:96|387:150,1,112.500004291535
447,196,2700,5,0,0:0:0:0:
331,193,2871,2,0,P|308:218|305:255,1,56.2500021457673
378,301,3214,2,0,L|447:280,1,56.2500021457673
303,239,3557,2,0,L|234:218,1,56.2500021457673
190,330,3900,6,0,B|149:302|103:328|103:328|76:305,1,112.500004291535
87,314,4414,1,0,0:0:0:0:
50,237,4586,2,0,P|24:253|12:280,2,56.2500021457673
131,213,5100,1,0,0:0:0:0:
180,151,5271,1,0,0:0:0:0:
111,106,5443,6,0,L|41:93,1,56.2500021457673
83,22,5786,1,0,0:0:0:0:
83,22,5957,2,0,L|153:35,1,56.2500021457673
257,98,6300,6,0,P|271:64|304:47,2,56.2500021457673
308,225,6814,2,0,B|329:271|296:311|296:311|321:343,1,112.500004291535
236,259,7329,1,0,0:0:0:0:
308,326,7500,2,0,P|341:333|365:354,2,56.2500021457673
308,225,8014,1,0,0:0:0:0:
426,206,8186,5,0,0:0:0:0:
426,206,8357,2,0,P|459:214|483:246,1,56.2500021457673
444,359,8700,2,0,L|462:296,1,56.2500021457673
370,109,9043,2,0,L|352:172,1,56.2500021457673
426,206,9386,1,0,0:0:0:0:
465,86,9557,6,0,P|428:119|367:106,2,112.500004291535
331,33,10414,1,0,0:0:0:0:
426,206,10586,1,0,0:0:0:0:
250,202,10757,5,0,0:0:0:0:
256,192,10843,12,0,11614,0:0:0:0:
250,202,11957,5,0,0:0:0:0:
232,223,12043,1,0,0:0:0:0:
207,236,12128,1,0,0:0:0:0:
179,236,12214,1,0,0:0:0:0:
154,225,12300,6,0,P|102:220|59:257,1,112.5
38,243,12643,2,0,L|47:161,1,75
8,101,12986,1,0,0:0:0:0:
118,46,13157,1,0,0:0:0:0:
30,6,13329,1,0,0:0:0:0:
122,149,13500,6,0,B|163:133|163:133|214:176|277:138,1,150
209,6,14014,2,0,P|203:44|230:84,1,75
334,186,14357,2,0,P|375:149|368:49,1,150
308,0,14871,1,0,0:0:0:0:
265,149,15043,5,0,0:0:0:0:
265,149,15386,2,0,P|292:232|234:289,1,150
155,240,15900,1,0,0:0:0:0:
78,320,16071,1,0,0:0:0:0:
229,357,16243,6,0,B|293:370|327:325|327:325|383:344,1,150
388,227,16757,2,0,P|338:213|297:216,1,75
365,338,17100,1,0,0:0:0:0:
487,283,17271,1,0,0:0:0:0:
438,162,17444,1,0,0:0:0:0:
421,140,17529,1,0,0:0:0:0:
412,114,17615,1,0,0:0:0:0:
417,85,17701,1,0,0:0:0:0:
431,63,17786,6,0,L|354:78,1,75
262,171,18129,2,0,P|197:135|118:132,1,150
13,79,18643,1,0,0:0:0:0:
107,2,18814,1,0,0:0:0:0:
224,56,18986,6,0,B|199:89|199:89|228:145|186:193,1,150
115,329,19500,1,0,0:0:0:0:
199,282,19671,1,0,0:0:0:0:
68,198,19843,5,0,0:0:0:0:
115,329,20014,1,0,0:0:0:0:
247,351,20186,2,0,P|277:321|284:285,1,75
68,198,20529,6,0,P|145:177|190:135,1,112.5
168,143,20871,1,0,0:0:0:0:
216,32,21043,1,0,0:0:0:0:
334,43,21215,1,0,0:0:0:0:
359,161,21386,1,0,0:0:0:0:
255,220,21558,5,0,0:0:0:0:
216,32,21729,1,0,0:0:0:0:
359,161,21900,1,0,0:0:0:0:
256,192,21986,12,0,22586,0:0:0:0:
359,161,22757,5,0,0:0:0:0:
359,161,22929,1,0,0:0:0:0:
359,161,23271,6,0,P|341:196|339:226,1,56.2500021457673
403,260,23614,2,0,P|368:288|289:267,1,112.500004291535
229,275,24129,2,0,P|184:285|156:307,1,56.2500021457673
126,364,24471,1,0,0:0:0:0:
126,364,24643,6,0,P|129:309|72:257,1,112.500004291535
13,275,25157,2,0,L|29:212,1,56.2500021457673
162,145,25500,2,0,L|146:208,1,56.2500021457673
26,220,25843,1,0,0:0:0:0:
6,145,26014,6,0,P|44:141|76:163,1,56.2500021457673
162,145,26357,2,0,P|166:107|144:75,1,56.2500021457673
113,18,26700,1,0,0:0:0:0:
204,2,26871,2,0,P|233:10|262:37,1,56.2500021457673
244,132,27214,1,0,0:0:0:0:
309,205,27386,6,0,B|344:188|344:188|377:215|422:213,1,112.500004291535
448,127,27900,2,0,P|415:126|379:111,1,56.2500021457673
318,83,28243,1,0,0:0:0:0:
318,83,28414,1,0,0:0:0:0:
244,132,28586,1,0,0:0:0:0:
309,205,28757,6,0,P|316:260|279:302,1,112.500004291535
281,300,29271,1,0,0:0:0:0:
345,363,29443,1,0,0:0:0:0:
429,344,29614,2,0,L|437:276,1,56.2500021457673
309,205,29957,6,0,B|257:208|231:242|231:242|201:240,1,112.500004291535
102,289,30471,1,0,0:0:0:0:
128,365,30643,2,0,P|155:353|179:319,1,56.2500021457673
80,212,30986,2,0,P|53:224|29:258,1,56.2500021457673
102,289,31329,1,0,0:0:0:0:
137,156,31500,6,0,L|211:165,1,56.2500021457673
318,99,31843,2,0,L|244:90,1,56.2500021457673
272,233,32186,2,0,L|281:159,1,56.2500021457673
185,22,32529,2,0,L|176:96,1,56.2500021457673
278,177,32871,6,0,P|323:146|402:162,2,112.500004291535
220,245,33729,1,0,0:0:0:0:
134,224,33900,1,0,0:0:0:0:
113,139,34071,1,0,0:0:0:0:
181,86,34243,5,0,0:0:0:0:
181,86,34586,2,0,P|126:54|75:64,1,112.500004291535
31,126,35100,2,0,P|31:171|48:200,1,56.2500021457673
0,274,35443,1,0,0:0:0:0:
64,347,35614,6,0,P|91:333|139:333,1,56.2500021457673
182,287,35957,1,0,0:0:0:0:
255,322,36129,2,0,L|241:384,1,56.2500021457673
235,229,36471,2,0,L|249:167,1,56.2500021457673
345,194,36814,1,0,0:0:0:0:
359,290,36986,6,0,P|429:292|458:252,2,112.500004291535
345,194,37843,1,0,0:0:0:0:
344,98,38014,1,0,0:0:0:0:
428,144,38186,1,0,0:0:0:0:
254,164,38357,6,0,B|240:124|265:90|265:90|247:48,1,112.500004291535
353,42,38871,2,0,L|343:101,1,56.2500021457673
428,144,39214,1,0,0:0:0:0:
428,144,39386,1,0,0:0:0:0:
492,73,39557,1,0,0:0:0:0:
343,97,39729,6,0,P|331:131|334:161,1,56.2500021457673
476,259,40071,2,0,P|488:225|485:195,1,56.2500021457673
373,229,40414,1,0,0:0:0:0:
373,229,40586,2,0,P|346:237|303:254,1,56.2500021457673
362,337,40929,2,0,P|389:329|432:312,1,56.2500021457673
268,320,41271,2,0,L|258:375,2,56.2500021457673
200,253,41786,2,0,P|171:263|146:290,1,56.2500021457673
149,366,42129,1,0,0:0:0:0:
149,366,42300,1,0,0:0:0:0:
58,311,42471,6,0,P|23:263|24:208,1,112.500004291535
117,180,42986,2,0,P|152:228|151:283,1,112.500004291535
149,366,43500,1,0,0:0:0:0:
231,323,43671,1,0,0:0:0:0:
325,372,43843,6,0,L|344:304,1,56.2500021457673
279,184,44186,2,0,L|260:252,1,56.2500021457673
102,257,44529,6,0,P|124:274|152:279,1,56.2500021457673
150,192,44871,1,0,0:0:0:0:
71,156,45043,1,0,0:0:0:0:
119,45,45214,6,0,L|51:84,1,67.4999979400635
256,16,45557,2,0,L|175:-4,1,67.4999979400635
373,67,45900,2,0,L|328:-2,1,67.4999979400635
446,117,46243,1,0,0:0:0:0:
446,117,46414,1,0,0:0:0:0:
492,45,46586,6,0,P|428:31|369:72,1,134.999995880127
361,154,47100,1,0,0:0:0:0:
427,214,47271,2,0,P|394:239|340:233,1,67.4999979400635
227,224,47614,1,0,0:0:0:0:
227,224,47957,6,0,P|214:262|224:297,2,67.4999979400635
286,98,48471,2,0,B|248:102|248:102|208:62|150:76,1,134.999995880127
30,66,48986,2,0,L|46:138,1,67.4999979400635
15,240,49329,6,0,P|41:265|83:274,1,67.4999979400635
179,154,49671,2,0,P|144:164|115:195,1,67.4999979400635
171,339,50014,2,0,P|179:303|166:263,1,67.4999979400635
70,273,50357,1,0,0:0:0:0:
70,273,50529,1,0,0:0:0:0:
162,193,50700,6,0,P|203:198|260:282,1,134.999995880127
321,363,51214,2,0,P|387:344|427:285,1,134.999995880127
494,183,51729,2,0,B|457:173|457:173|426:216|364:207,1,134.999995880127
266,97,52243,2,0,B|303:87|303:87|334:130|396:121,1,134.999995880127
512,56,52757,6,0,P|485:25|443:16,1,67.4999979400635
369,42,53100,1,0,0:0:0:0:
292,0,53271,1,0,0:0:0:0:
266,97,53443,6,0,L|280:178,1,67.4999979400635
116,190,53786,2,0,L|179:137,1,67.4999979400635
272,274,54129,2,0,L|194:245,1,67.4999979400635
116,190,54471,1,0,0:0:0:0:
29,238,54643,1,0,0:0:0:0:
29,238,54814,6,0,P|11:301|55:364,1,134.999995880127
252,333,55500,2,0,P|270:270|226:207,1,134.999995880127
237,214,56014,1,0,0:0:0:0:
141,281,56186,6,0,L|161:370,1,67.4999979400635
252,333,56529,2,0,L|336:367,1,67.4999979400635
358,270,56871,2,0,L|434:220,1,67.4999979400635
475,293,57214,1,0,0:0:0:0:
475,293,57386,1,0,0:0:0:0:
512,169,57557,6,0,P|482:154|448:152,1,67.4999979400635
383,203,57900,2,0,P|366:169|375:124,1,67.4999979400635
319,75,58243,2,0,P|352:59|393:61,1,67.4999979400635
251,192,58586,1,0,0:0:0:0:
251,192,58929,6,0,B|250:150|250:150|213:120|224:62,1,134.999995880127
84,72,59443,1,0,0:0:0:0:
126,155,59614,2,0,L|200:139,1,67.4999979400635
223,65,59957,1,0,0:0:0:0:
151,12,60129,1,0,0:0:0:0:
84,72,60300,5,0,0:0:0:0:
191,140,60471,1,0,0:0:0:0:
116,238,60643,1,0,0:0:0:0:
116,238,60986,6,0,P|61:234|16:273,1,101.249996910095
6,273,61329,2,0,L|21:344,1,67.4999979400635
186,343,61671,6,0,B|181:308|181:308|227:269|202:198,1,134.999995880127
275,85,62186,2,0,P|295:118|284:165,1,67.4999979400635
151,163,62529,2,0,P|183:143|223:142,1,67.4999979400635
341,219,62871,1,0,0:0:0:0:
341,219,63043,6,0,P|405:174|411:102,1,134.999995880127
327,17,63557,2,0,L|401:27,1,67.4999979400635
482,130,63900,2,0,L|408:120,1,67.4999979400635
332,131,64243,1,0,0:0:0:0:
208,40,64414,5,0,0:0:0:0:
208,40,64757,5,0,0:0:0:0:
92,72,64929,1,0,0:0:0:0:
126,186,65100,1,0,0:0:0:0:
240,153,65271,1,0,0:0:0:0:
214,46,65443,5,0,0:0:0:0:
203,227,65614,1,0,0:0:0:0:
43,213,65786,1,0,0:0:0:0:
256,192,65871,12,0,66471,0:0:0:0:
43,213,67157,6,0,P|88:185|146:200,1,112.5
165,188,67500,2,0,P|155:136|150:90,1,75
240,87,67843,1,0,0:0:0:0:
127,11,68014,2,0,P|96:34|87:77,1,75
152,114,68357,1,0,0:0:0:0:
228,0,68529,5,0,0:0:0:0:
367,10,68700,2,0,P|376:63|345:101,1,75
254,172,69043,2,0,B|240:216|266:249|266:249|253:322,1,150
331,197,69557,2,0,L|416:227,1,75
512,128,69900,2,0,B|516:94|516:94|476:153|411:140,1,150
373,75,70414,1,0,0:0:0:0:
254,172,70586,1,0,0:0:0:0:
300,17,70757,2,0,L|286:99,1,75
287,90,71100,1,0,0:0:0:0:
254,172,71271,5,0,0:0:0:0:
68,155,71443,1,0,0:0:0:0:
168,69,71614,1,0,0:0:0:0:
152,254,71786,6,0,B|200:229|200:229|236:268|305:243,1,150
254,172,72300,1,0,0:0:0:0:
168,69,72471,1,0,0:0:0:0:
68,155,72643,6,0,P|115:207|88:300,1,150
0,334,73157,1,0,0:0:0:0:
108,384,73329,1,0,0:0:0:0:
207,325,73500,2,0,P|248:335|278:369,1,75
337,311,73843,1,0,0:0:0:0:
476,279,74014,5,0,0:0:0:0:
408,179,74186,2,0,L|393:265,1,75
488,368,74529,1,0,0:0:0:0:
314,234,74871,2,0,L|326:160,1,75
326,160,75214,1,0,0:0:0:0:
411,54,75386,6,0,B|394:72|394:72|364:38|302:51,1,112.5
279,61,75729,2,0,P|240:51|220:4,1,75
49,13,76071,2,0,P|79:57|77:103,1,75
41,195,76414,1,0,0:0:0:0:
190,246,76586,2,0,P|261:296|245:358,1,150
136,309,77100,2,0,P|110:276|111:230,1,75
167,161,77443,5,0,0:0:0:0:
167,161,77529,1,0,0:0:0:0:
167,161,77614,1,0,0:0:0:0:
167,161,77700,1,0,0:0:0:0:
204,155,77786,1,0,0:0:0:0:
238,169,77871,1,0,0:0:0:0:
264,195,77957,1,0,0:0:0:0:
279,229,78043,1,0,0:0:0:0:
276,266,78129,6,0,P|330:281|399:246,1,112.5
405,282,78471,2,0,P|392:342|389:366,1,75
486,217,78814,1,0,0:0:0:0:
371,146,78986,2,0,P|331:175|327:209,1,75
381,262,79329,1,0,0:0:0:0:
458,132,79500,5,0,0:0:0:0:
381,9,79671,1,0,0:0:0:0:
381,9,79757,1,0,0:0:0:0:
381,9,79843,1,0,0:0:0:0:
228,73,80014,6,0,B|166:83|133:32|133:32|90:55,2,150
228,73,81043,5,0,0:0:0:0:
195,155,81214,2,0,P|202:182|260:226,1,75
279,146,81557,1,0,0:0:0:0:
179,279,81729,2,0,P|153:254|93:252,1,75
115,246,82071,1,0,0:0:0:0:
4,367,82243,5,0,0:0:0:0:
107,330,82414,1,0,0:0:0:0:
4,250,82586,1,0,0:0:0:0:
179,279,82757,6,0,B|219:313|282:286|282:286|236:333,1,150
216,384,83271,1,0,0:0:0:0:
354,298,83443,1,0,0:0:0:0:
401,366,83614,6,0,P|438:311|417:250,1,112.5
438,248,83957,2,0,P|490:256|538:265,1,75
412,142,84300,5,0,0:0:0:0:
412,142,84471,1,0,0:0:0:0:
268,194,84643,2,0,P|244:161|240:116,1,75
306,0,84986,2,0,B|281:49|281:49|328:77|324:134,1,150
472,80,85500,2,0,P|433:57|389:63,1,75
372,200,85843,2,0,P|401:177|412:142,1,75
306,0,86186,1,0,0:0:0:0:
188,67,86357,6,0,P|140:85|79:44,1,112.5
70,71,86700,5,0,0:0:0:0:
0,212,86871,1,0,0:0:0:0:
158,200,87043,1,0,0:0:0:0:
93,149,87214,5,0,0:0:0:0:
80,175,87300,1,0,0:0:0:0:
74,204,87386,1,0,0:0:0:0:
76,233,87471,1,0,0:0:0:0:
88,260,87557,1,0,0:0:0:0:
105,283,87643,1,0,0:0:0:0:
131,298,87729,6,0,B|199:312|237:253|237:253|290:282,2,179.999994506836
