osu file format v14

[General]
AudioFilename: audio.mp3
AudioLeadIn: 0
PreviewTime: 66505
Countdown: 0
SampleSet: Soft
StackLeniency: 0.3
Mode: 0
LetterboxInBreaks: 0
WidescreenStoryboard: 1

[Editor]
DistanceSpacing: 1
BeatDivisor: 4
GridSize: 16
TimelineZoom: 1.3

[Metadata]
Title:Connect (TV Size)
TitleUnicode:コネクト (TV Size)
Artist:ClariS
ArtistUnicode:ClariS
Creator:Stixy
Version:Normal
Source:魔法少女まどか☆マギカ
Tags:Puella Magi Mahou Shoujo Madoka Magica short ver version anime japanese opening
BeatmapID:2136685
BeatmapSetID:1020050

[Difficulty]
HPDrainRate:3
CircleSize:3
OverallDifficulty:4
ApproachRate:5
SliderMultiplier:1.2
SliderTickRate:1

[Events]
//Background and Video events
0,0,"bg.jpg",0,0
//Break Periods
//Storyboard Layer 0 (Background)
//Storyboard Layer 1 (Fail)
//Storyboard Layer 2 (Pass)
//Storyboard Layer 3 (Foreground)
//Storyboard Layer 4 (Overlay)
//Storyboard Sound Samples

[TimingPoints]
1363,342.857142857143,4,2,1,50,1,0
1363,-100,4,2,1,50,0,0
10791,-100,4,2,1,50,0,0
12334,-100,4,2,1,60,0,0
23305,-100,4,2,1,50,0,0
45248,-100,4,2,1,60,0,0
65820,-100,4,2,1,60,0,0
67191,-100,4,2,1,70,0,1
87763,-100,4,2,1,60,0,0
89820,-100,4,2,1,40,0,0

[Colours]
Combo1 : 255,213,83
Combo2 : 255,149,255
Combo3 : 255,91,91
Combo4 : 205,205,205

[HitObjects]
181,10,678,6,0,P|151:7|123:18,2,60,2|2|2,0:0|0:0|0:0,0:0:0:0:
244,17,1192,1,2,0:0:0:0:
244,17,1363,6,0,L|258:150,1,120,2|0,0:0|0:0,0:0:0:0:
206,169,1877,2,0,L|212:228,2,60,2|2|2,0:0|0:0|0:0,0:0:0:0:
312,225,2563,1,2,0:0:0:0:
312,225,2734,2,0,P|351:225|388:210,1,60,2|2,0:0|0:0,0:0:0:0:
477,163,3248,2,0,P|481:104|451:53,2,120,2|2|2,0:0|0:0|0:0,0:0:0:0:
454,219,4105,5,0,0:0:0:0:
436,380,4620,2,0,P|465:384|494:377,2,60,2|2|2,0:0|0:0|0:0,0:0:0:0:
336,312,5305,1,2,0:0:0:0:
336,312,5477,2,0,P|306:305|277:311,1,60,2|2,0:0|0:0,0:0:0:0:
221,334,5820,2,0,P|191:339|162:333,1,60,2|2,0:0|0:0,0:0:0:0:
52,286,6334,2,0,P|38:312|38:342,2,60,2|2|2,0:0|0:0|0:0,0:0:0:0:
106,259,6848,5,2,0:0:0:0:
138,81,7363,2,0,P|109:78|76:85,2,60,2|2|2,0:0|0:0|0:0,0:0:0:0:
247,129,8048,2,0,P|284:134|314:125,1,60,2|2,0:0|0:0,0:0:0:0:
360,103,8391,1,2,0:0:0:0:
459,35,8734,2,0,P|484:72|476:167,1,120,2|2,0:0|0:0,0:0:0:0:
478,263,9420,1,2,0:0:0:0:
478,263,9591,6,0,P|401:305|307:279,1,180
217,215,10448,2,0,P|187:211|157:215,1,60,2|2,0:0|0:0,0:0:0:0:
111,253,10791,2,0,P|150:118|39:30,1,300,2|0,0:0|0:0,0:0:0:0:
271,91,12334,6,0,P|329:102|387:83,1,120,6|10,1:2|0:0,0:0:0:0:
492,29,13020,2,0,L|499:99,1,60,0|0,1:0|1:0,0:0:0:0:
480,146,13363,1,8,0:0:0:0:
480,146,13534,2,0,B|501:199|501:199|464:333,1,180,6|8,1:2|0:0,0:0:0:0:
354,278,14391,2,0,P|298:263|237:289,1,120,2|8,1:2|0:0,0:0:0:0:
140,350,15077,6,0,P|85:371|27:357,1,120,6|8,1:2|0:0,0:0:0:0:
12,238,15763,1,2,1:2:0:0:
12,238,15934,2,0,L|18:168,1,60,2|8,1:2|0:0,0:0:0:0:
31,119,16277,2,0,B|72:73|72:73|190:69,1,180,6|8,1:2|0:0,0:0:0:0:
286,141,17134,1,8,0:0:0:0:
386,93,17477,2,0,P|415:86|445:89,1,60,10|10,0:0|0:0,0:0:0:0:
487,130,17820,6,0,L|481:275,1,120,6|10,1:2|0:0,0:0:0:0:
402,339,18505,2,0,P|367:345|338:338,1,60,0|0,1:0|1:0,0:0:0:0:
294,305,18848,1,8,0:0:0:0:
294,305,19020,2,0,B|246:276|246:276|121:290,1,180,6|8,1:2|0:0,0:0:0:0:
30,367,19877,2,0,P|35:337|31:307,1,60,10|0,0:0|1:0,0:0:0:0:
5,253,20220,2,0,P|1:223|6:193,1,60,8|0,0:0|1:0,0:0:0:0:
48,151,20563,5,6,1:2:0:0:
56,31,20905,2,8,L|126:25,1,60
157,70,21248,2,8,L|216:65,1,60
276,73,21591,2,8,L|279:146,1,60
224,158,21934,1,6,1:2:0:0:
224,158,22620,2,0,L|231:231,1,60,10|8,0:0|0:3,0:0:0:0:
172,236,22963,2,0,L|178:295,1,60,8|8,0:3|0:0,0:0:0:0:
230,331,23305,6,0,P|289:328|335:293,1,120,6|2,1:2|0:2,0:0:0:0:
316,174,23991,2,0,P|312:141|322:111,1,60,2|2,0:2|1:2,0:0:0:0:
387,17,24505,2,0,P|331:35|275:16,1,120,2|0,1:2|0:0,0:0:0:0:
215,11,25020,2,0,L|141:20,1,60,2|2,0:2|0:2,0:0:0:0:
71,90,25534,2,0,L|77:167,1,60,2|0,1:2|0:0,0:0:0:0:
77,210,25877,1,2,1:2:0:0:
77,210,26049,6,0,B|59:256|59:256|79:324,1,120,0|2,0:2|0:0,0:0:0:0:
192,286,26734,1,2,0:2:0:0:
192,286,26905,2,0,P|222:279|251:280,1,60,2|0,1:2|0:0,0:0:0:0:
310,290,27248,1,2,1:2:0:0:
310,290,27420,2,0,L|315:206,1,60,2|0,0:0|0:0,0:0:0:0:
267,122,27934,2,0,P|256:93|256:64,1,60
263,4,28277,2,0,P|204:-5|149:16,1,120,2|2,1:2|1:2,0:0:0:0:
104,57,28791,5,2,1:2:0:0:
157,150,29134,2,0,L|153:216,1,60,2|0,0:2|0:0,0:0:0:0:
103,243,29477,2,0,L|99:308,1,60,2|2,0:2|1:2,0:0:0:0:
219,311,29991,2,0,P|248:307|278:312,1,60,2|0,1:2|0:0,0:0:0:0:
324,350,30334,2,0,P|353:354|383:351,2,60,2|2|2,0:2|0:2|0:2,0:0:0:0:
362,236,31020,2,0,L|368:173,1,60,2|0,1:2|0:0,0:0:0:0:
401,127,31363,1,2,1:2:0:0:
401,127,31534,6,0,P|341:128|299:86,1,120,2|0,0:2|0:0,0:0:0:0:
206,14,32220,2,0,L|194:151,1,120,2|0,0:2|0:0,0:0:0:0:
84,177,32905,2,0,L|95:314,1,120,2|0,0:2|0:0,0:0:0:0:
198,356,33591,2,0,P|255:367|314:350,1,120,2|0,0:2|1:0,0:0:0:0:
407,276,34277,6,0,L|412:200,1,60,6|0,1:2|0:0,0:0:0:0:
453,173,34620,1,2,0:2:0:0:
429,55,34963,1,2,0:2:0:0:
429,55,35134,1,2,1:2:0:0:
322,110,35477,2,0,P|260:133|206:122,1,120,2|0,1:2|0:0,0:0:0:0:
159,87,35991,1,2,0:2:0:0:
159,87,36163,2,0,P|130:82|100:85,1,60,2|0,0:2|0:0,0:0:0:0:
45,106,36505,1,2,1:2:0:0:
54,225,36848,6,0,L|66:359,1,120,2|0,1:2|0:0,0:0:0:0:
123,362,37363,2,0,P|152:365|181:356,1,60,2|0,0:2|0:0,0:0:0:0:
234,329,37705,1,2,0:2:0:0:
234,329,37877,1,2,1:2:0:0:
259,211,38220,1,2,1:2:0:0:
259,211,38391,2,0,L|267:81,1,120,2|0,0:0|0:0,0:0:0:0:
288,35,38905,1,0,0:0:0:0:
363,121,39248,2,0,L|359:180,1,60,2|0,1:2|1:0,0:0:0:0:
372,239,39591,1,2,1:2:0:0:
372,239,39763,6,0,P|342:243|311:237,1,60,2|0,1:2|0:0,0:0:0:0:
269,196,40105,1,2,0:2:0:0:
153,227,40448,1,2,0:2:0:0:
153,227,40620,2,0,L|69:237,1,60,2|0,1:2|0:0,0:0:0:0:
33,226,40963,1,2,1:2:0:0:
62,108,41305,2,0,L|55:41,2,60,2|2|2,0:2|0:2|0:2,0:0:0:0:
112,141,41820,1,2,0:2:0:0:
204,65,42163,2,0,P|232:54|262:55,1,60,2|0,0:2|1:0,0:0:0:0:
312,74,42505,6,0,B|341:102|341:102|342:194,1,120,2|0,0:2|0:0,0:0:0:0:
295,219,43020,2,0,P|352:207|403:235,1,120,2|0,0:2|1:0,0:0:0:0:
446,278,43534,1,2,0:2:0:0:
332,316,43877,2,0,P|283:322|211:275,1,120
157,188,44563,2,0,L|152:128,1,60,0|0,0:0|1:0,0:0:0:0:
205,100,44905,2,0,L|209:40,1,60,2|2,1:2|1:2,0:0:0:0:
268,27,45248,6,0,P|324:10|381:27,1,120,6|0,1:2|1:2,0:0:0:0:
461,117,45934,1,0,1:2:0:0:
451,236,46277,1,2,1:2:0:0:
451,236,46448,2,0,B|418:290|418:290|297:274,1,180,2|0,0:0|1:2,0:0:0:0:
185,247,47305,1,2,1:2:0:0:
68,218,47648,1,2,1:2:0:0:
47,99,47991,6,0,P|101:75|160:84,1,120,2|0,1:2|1:2,0:0:0:0:
209,119,48505,2,0,P|267:127|322:104,1,120,2|0,0:0|0:0,0:0:0:0:
365,61,49020,2,0,B|351:104|351:104|386:192,1,120,2|0,1:2|1:2,0:0:0:0:
429,282,49705,1,0,1:2:0:0:
338,361,50048,1,0,1:2:0:0:
229,308,50391,2,0,P|199:300|170:304,1,60,2|2,1:2|0:0,0:0:0:0:
122,340,50734,6,0,P|143:286|124:230,1,120,2|0,1:2|1:2,0:0:0:0:
65,217,51248,2,0,P|46:161|67:106,1,120,2|0,0:0|0:0,0:0:0:0:
125,124,51763,1,2,1:2:0:0:
285,55,52277,2,0,P|345:39|401:62,1,120,2|0,0:0|0:0,0:0:0:0:
438,103,52791,2,0,L|446:162,1,60,2|0,1:2|0:0,0:0:0:0:
492,201,53134,2,0,L|483:260,1,60,2|2,1:2|0:0,0:0:0:0:
427,284,53477,6,0,B|392:309|392:309|315:295,1,120,0|0,1:0|1:2,0:0:0:0:
270,183,54163,1,0,1:2:0:0:
343,88,54505,1,2,1:2:0:0:
344,87,54677,2,0,P|349:58|347:28,1,60,2|0,0:0|1:2,0:0:0:0:
229,2,55191,1,0,1:0:0:0:
116,54,55534,1,0,1:2:0:0:
74,166,55877,2,0,P|103:171|134:166,1,60,2|2,1:2|0:0,0:0:0:0:
188,190,56220,6,0,L|200:323,1,120,6|0,1:2|1:2,0:0:0:0:
313,344,56905,1,0,1:2:0:0:
424,299,57248,1,2,1:2:0:0:
424,299,57420,2,0,B|450:247|450:247|442:117,1,180,2|0,0:3|1:3,0:3:0:0:
361,37,58277,1,2,1:2:0:0:
243,61,58620,1,2,1:2:0:0:
135,113,58963,6,0,L|148:244,1,120,2|0,1:2|1:2,0:0:0:0:
127,289,59477,2,0,P|185:298|239:274,1,120,2|0,0:0|0:0,0:0:0:0:
249,214,59991,1,2,1:2:0:0:
249,214,60163,2,0,P|336:172|422:204,1,180,2|0,0:0|1:2,0:0:0:0:
494,282,61020,2,0,P|496:310|487:341,1,60,2|0,1:2|0:0,0:0:0:0:
431,362,61363,2,0,L|357:357,1,60,2|0,1:2|0:0,0:0:0:0:
316,332,61705,5,6,1:2:0:0:
221,257,62048,1,2,1:2:0:0:
221,257,62220,2,0,P|163:242|106:264,1,120,2|2,0:0|0:2,0:0:0:0:
5,325,62905,1,2,0:0:0:0:
5,325,63077,2,0,L|-1:243,1,60,6|0,1:2|0:0,0:0:0:0:
36,216,63420,1,2,1:2:0:0:
36,216,63591,2,0,L|43:136,1,60,2|0,0:0|1:0,0:0:0:0:
60,99,63934,1,2,0:0:0:0:
159,31,64277,1,2,0:0:0:0:
159,31,64448,6,0,P|217:21|272:42,1,120,14|0,0:2|1:0,0:0:0:0:
324,73,64963,1,8,0:0:0:0:
324,73,65134,2,0,L|331:146,1,60,0|8,1:0|0:3,0:0:0:0:
377,169,65477,2,0,L|370:228,1,60,8|8,0:3|0:3,0:0:0:0:
390,285,65820,1,4,1:2:0:0:
366,293,67191,6,0,P|423:311|481:296,1,120,6|8,1:2|0:2,0:0:0:0:
493,237,67705,2,0,L|498:177,2,60,2|2|2,0:0|1:2|1:2,0:0:0:0:
397,163,68391,1,2,0:0:0:0:
397,163,68563,2,0,P|367:160|338:169,1,60,2|2,1:2|0:0,0:0:0:0:
248,247,69077,2,0,L|243:306,1,60,2|0,1:2|0:0,0:0:0:0:
196,344,69420,2,0,L|118:350,1,60,2|8,1:2|0:2,0:0:0:0:
81,324,69763,1,0,0:0:0:0:
81,324,69934,6,0,L|69:196,1,120,0|8,1:0|0:0,0:0:0:0:
100,152,70448,2,0,L|161:142,2,60,2|2|2,0:0|1:2|1:2,0:0:0:0:
132,35,71134,1,2,0:0:0:0:
132,35,71305,2,0,L|72:33,2,60,2|2|10,1:2|0:0|0:2,0:0:0:0:
190,52,71820,1,2,1:2:0:0:
303,92,72163,2,0,P|333:96|363:89,1,60,2|10,1:2|0:2,0:0:0:0:
427,82,72505,1,2,0:0:0:0:
427,82,72677,6,0,L|443:217,1,120,2|8,1:2|0:2,0:0:0:0:
451,260,73191,2,0,L|459:322,2,60,2|2|2,0:0|1:2|1:2,0:0:0:0:
364,343,73877,1,2,0:0:0:0:
364,343,74048,2,0,P|334:348|305:343,1,60,2|2,1:2|0:0,0:0:0:0:
212,266,74563,2,0,P|182:260|153:265,1,60,2|0,1:2|0:0,0:0:0:0:
101,295,74905,2,0,L|90:211,1,60,2|8,1:2|0:2,0:0:0:0:
88,175,75248,1,2,0:0:0:0:
88,175,75420,6,0,L|75:55,1,120,4|8,1:2|0:2,0:0:0:0:
194,70,76105,1,8,0:2:0:0:
194,70,76277,2,0,P|223:75|252:70,1,60,2|10,1:2|0:2,0:0:0:0:
310,53,76620,2,0,P|366:36|423:53,1,120,6|0,1:2|1:0,0:0:0:0:
445,107,77134,1,8,0:2:0:0:
444,227,77477,2,0,L|441:286,1,60,10|2,0:2|1:2,0:0:0:0:
385,309,77820,2,0,L|325:312,1,60,10|10,0:2|0:2,0:0:0:0:
276,347,78163,5,6,1:2:0:0:
157,333,78505,1,8,0:2:0:0:
157,333,78677,2,0,L|84:339,2,60,2|2|2,0:0|1:2|1:2,0:0:0:0:
236,242,79363,1,10,0:2:0:0:
236,242,79534,2,0,L|295:236,1,60,0|10,1:2|0:2,0:0:0:0:
414,220,80048,1,2,1:2:0:0:
427,100,80391,1,2,1:2:0:0:
320,44,80734,6,0,P|263:29|204:40,1,120,6|0,1:2|0:0,0:0:0:0:
157,77,81248,1,8,0:2:0:0:
157,77,81420,2,0,L|161:17,2,60,2|2|2,0:0|1:2|1:2,0:0:0:0:
147,196,82105,1,2,0:0:0:0:
147,196,82277,2,0,L|142:255,1,60,2|2,1:2|0:0,0:0:0:0:
144,316,82620,1,10,0:2:0:0:
144,316,82791,2,0,P|172:307|202:310,1,60,2|0,1:2|0:0,0:0:0:0:
253,341,83134,1,2,1:2:0:0:
371,357,83477,1,2,0:0:0:0:
371,357,83648,6,0,B|401:321|401:321|391:242,1,120,4|8,1:2|0:2,0:0:0:0:
348,134,84334,2,0,P|342:105|346:76,1,60,2|0,1:2|1:2,0:0:0:0:
351,16,84677,2,0,P|321:10|292:15,1,60,10|0,0:2|0:0,0:0:0:0:
260,67,85020,2,0,P|230:71|201:66,1,60,2|0,1:2|0:0,0:0:0:0:
149,35,85363,1,10,0:2:0:0:
149,35,85534,1,2,1:2:0:0:
148,155,85877,1,2,1:2:0:0:
161,274,86220,1,2,0:0:0:0:
161,274,86391,6,0,L|167:358,1,60,4|0,1:2|0:0,0:0:0:0:
219,360,86734,2,0,P|250:364|283:356,1,60,8|0,0:2|1:2,0:0:0:0:
327,324,87077,1,8,0:2:0:0:
442,357,87420,1,10,0:3:0:0:
399,244,87763,2,0,P|388:183|407:128,1,120,6|0,1:2|0:0,0:0:0:0:
466,25,88448,2,0,P|414:40|339:10,1,120,2|0,0:0|0:0,0:0:0:0:
233,6,89134,6,0,B|116:-10|143:92|10:65,1,240,2|0,0:0|0:0,0:0:0:0:
