osu file format v14

[General]
AudioFilename: audio.mp3
AudioLeadIn: 0
PreviewTime: 66505
Countdown: 0
SampleSet: Soft
StackLeniency: 0.3
Mode: 0
LetterboxInBreaks: 0
WidescreenStoryboard: 0

[Editor]
DistanceSpacing: 0.8
BeatDivisor: 4
GridSize: 16
TimelineZoom: 1.3

[Metadata]
Title:Connect (TV Size)
TitleUnicode:コネクト (TV Size)
Artist:ClariS
ArtistUnicode:ClariS
Creator:Stixy
Version:Connection
Source:魔法少女まどか☆マギカ
Tags:Puella Magi Mahou Shoujo Madoka Magica short ver version anime japanese opening
BeatmapID:2134422
BeatmapSetID:1020050

[Difficulty]
HPDrainRate:5
CircleSize:4
OverallDifficulty:8
ApproachRate:9
SliderMultiplier:1.9
SliderTickRate:1

[Events]
//Background and Video events
0,0,"bg.jpg",0,0
//Break Periods
//Storyboard Layer 0 (Background)
//Storyboard Layer 1 (Fail)
//Storyboard Layer 2 (Pass)
//Storyboard Layer 3 (Foreground)
//Storyboard Layer 4 (Overlay)
//Storyboard Sound Samples

[TimingPoints]
1363,342.857142857143,4,2,1,50,1,0
1363,-142.857142857143,4,2,1,50,0,0
10791,-200,4,2,1,50,0,0
12334,-90.9090909090909,4,2,1,60,0,0
14991,-90.9090909090909,4,2,1,5,0,0
15077,-90.9090909090909,4,2,1,60,0,0
15334,-90.9090909090909,4,2,1,5,0,0
15420,-90.9090909090909,4,2,1,60,0,0
18077,-90.9090909090909,4,2,1,60,0,0
18163,-90.9090909090909,4,2,1,60,0,0
19277,-90.9090909090909,4,2,1,5,0,0
19363,-90.9090909090909,4,2,1,60,0,0
20820,-90.9090909090909,4,2,1,60,0,0
20905,-90.9090909090909,4,2,1,60,0,0
23305,-125,4,2,1,50,0,0
23562,-125,4,2,1,5,0,0
23648,-125,4,2,1,50,0,0
45248,-99.9999999999999,4,2,1,60,0,0
65820,-142.857142857143,4,2,1,60,0,0
67191,-83.3333333333333,4,2,1,70,0,1
70191,-83.3333333333333,4,2,1,5,0,1
70277,-83.3333333333333,4,2,1,70,0,1
72934,-83.3333333333333,4,2,1,5,0,1
73020,-83.3333333333333,4,2,1,70,0,1
75677,-83.3333333333333,4,2,1,5,0,1
75763,-83.3333333333333,4,2,1,70,0,1
78420,-83.3333333333333,4,2,1,5,0,1
78505,-83.3333333333333,4,2,1,70,0,1
80305,-83.3333333333333,4,2,1,5,0,1
80391,-83.3333333333333,4,2,1,70,0,1
80648,-83.3333333333333,4,2,1,5,0,1
80734,-83.3333333333333,4,2,1,70,0,1
83905,-83.3333333333333,4,2,1,5,0,1
83991,-83.3333333333333,4,2,1,70,0,1
87763,-142.857142857143,4,2,1,60,0,0
88363,-142.857142857143,4,2,1,5,0,0
88448,-142.857142857143,4,2,1,60,0,0
89048,-142.857142857143,4,2,1,5,0,0
89134,-200,4,2,1,60,0,0
89820,-142.857142857143,4,2,1,40,0,0

[Colours]
Combo1 : 255,213,83
Combo2 : 255,149,255
Combo3 : 255,91,91
Combo4 : 205,205,205

[HitObjects]
39,82,678,5,2,0:0:0:0:
39,82,849,1,2,0:0:0:0:
85,157,1020,1,2,0:0:0:0:
85,157,1192,1,2,0:0:0:0:
113,41,1363,6,0,B|162:33|162:33|201:47|201:47|257:41,1,132.999995941162,2|0,0:0|0:0,0:0:0:0:
324,23,1877,1,2,0:0:0:0:
298,103,2048,1,2,0:0:0:0:
387,84,2220,2,0,P|405:57|411:25,1,66.4999979705811,2|0,0:0|0:0,0:0:0:0:
324,23,2563,5,2,0:0:0:0:
356,166,2734,1,2,0:0:0:0:
234,111,2905,2,0,P|265:100|298:103,1,66.4999979705811,2|0,0:0|0:0,0:0:0:0:
191,183,3248,2,0,P|166:162|152:132,1,66.4999979705811,2|0,0:0|0:0,0:0:0:0:
276,184,3591,2,0,P|270:216|252:244,1,66.4999979705811,2|0,0:0|0:0,0:0:0:0:
234,111,3934,1,2,0:0:0:0:
175,271,4105,6,0,P|239:264|294:310,1,132.999995941162
291,384,4620,1,2,0:0:0:0:
216,346,4791,1,2,0:0:0:0:
364,343,4963,2,0,L|434:349,1,66.4999979705811,2|0,0:0|0:0,0:0:0:0:
512,351,5305,1,2,0:0:0:0:
470,213,5477,5,2,0:0:0:0:
408,270,5648,1,2,0:0:0:0:
512,351,5820,1,2,0:0:0:0:
430,348,5991,2,0,L|364:343,1,66.4999979705811,2|0,0:0|0:0,0:0:0:0:
325,271,6334,1,2,0:0:0:0:
280,336,6505,1,2,0:0:0:0:
408,270,6677,1,2,0:0:0:0:
197,332,6848,6,0,L|58:320,1,132.999995941162,2|0,0:0|0:0,0:0:0:0:
85,200,7363,1,2,0:0:0:0:
22,252,7534,1,2,0:0:0:0:
37,134,7705,2,0,P|66:119|99:119,1,66.4999979705811,2|0,0:0|0:0,0:0:0:0:
85,200,8048,5,2,0:0:0:0:
180,104,8220,1,2,0:0:0:0:
235,190,8391,2,0,L|169:186,1,66.4999979705811,2|0,0:0|0:0,0:0:0:0:
264,109,8734,2,0,L|301:53,1,66.4999979705811,2|0,0:0|0:0,0:0:0:0:
320,174,9077,2,0,L|348:233,1,66.4999979705811,2|0,0:0|0:0,0:0:0:0:
235,190,9420,1,2,0:0:0:0:
361,102,9591,6,0,B|411:100|411:100|442:114|442:114|507:113,1,132.999995941162
450,248,10105,2,0,P|431:220|425:188,1,66.4999979705811
490,113,10448,1,2,0:0:0:0:
512,190,10620,1,2,0:0:0:0:
416,323,10791,6,0,B|360:364|360:364|195:322,1,237.5,2|0,0:0|0:0,0:0:0:0:
197,322,11991,1,2,0:0:0:0:
182,291,12076,1,2,0:0:0:0:
178,259,12162,1,2,0:0:0:0:
185,226,12248,1,2,0:0:0:0:
202,192,12334,6,0,L|70:180,1,104.500003189087,6|0,1:2|0:0,0:0:0:0:
273,264,12677,2,0,L|377:254,1,104.500003189087,10|0,0:0|0:0,0:0:0:0:
245,104,13020,1,0,1:0:0:0:
202,192,13191,1,0,1:0:0:0:
346,121,13363,1,8,0:0:0:0:
197,315,13534,6,0,B|140:360|140:360|6:330,1,209.000006378174,6|0,1:2|1:0,0:0:0:0:
88,178,14048,2,0,P|118:219|120:271,1,104.500003189087,8|0,0:0|0:0,0:0:0:0:
0,173,14391,2,0,P|20:125|64:97,1,104.500003189087,2|0,1:2|1:0,0:0:0:0:
238,197,14734,2,0,B|195:173|195:173|41:180,1,156.750004783631,8|0,0:0|0:0,0:0:0:0:
62,97,15077,6,0,L|218:89,1,156.750004783631,6|0,1:2|0:0,0:0:0:0:
292,121,15420,2,0,P|266:76|270:25,1,104.500003189087,8|0,0:0|0:0,0:0:0:0:
386,132,15763,1,2,1:2:0:0:
238,196,15934,1,2,1:2:0:0:
350,54,16105,1,8,0:0:0:0:
311,319,16277,6,0,B|277:264|277:264|292:114,1,209.000006378174,6|0,1:2|1:0,0:0:0:0:
471,231,16791,2,0,L|366:239,1,104.500003189087,8|0,0:0|1:0,0:0:0:0:
206,310,17134,2,0,L|310:318,1,104.500003189087,8|0,0:0|1:0,0:0:0:0:
215,61,17477,1,10,0:0:0:0:
196,92,17562,1,10,0:0:0:0:
191,128,17648,1,10,0:0:0:0:
200,163,17734,1,10,0:0:0:0:
222,192,17820,6,0,P|151:160|77:181,1,156.750004783631,6|0,1:2|0:0,0:0:0:0:
47,258,18163,2,0,L|56:370,1,104.500003189087,10|0,0:0|0:0,0:0:0:0:
205,310,18505,1,0,1:0:0:0:
143,384,18677,1,0,1:0:0:0:
47,258,18848,1,8,0:0:0:0:
286,374,19020,6,0,P|305:299|271:230,1,156.750004783631,6|0,1:2|0:0,0:0:0:0:
205,310,19363,1,0,1:0:0:0:
340,148,19534,2,0,L|238:129,1,104.500003189087,8|0,0:0|0:0,0:0:0:0:
205,310,19877,2,0,L|272:230,1,104.500003189087,10|0,0:0|1:0,0:0:0:0:
132,111,20220,2,0,L|166:209,1,104.500003189087,8|0,0:0|1:0,0:0:0:0:
380,250,20563,6,0,P|438:196|443:113,1,156.750004783631,6|0,1:2|0:0,0:0:0:0:
417,32,20905,1,8,0:0:0:0:
357,111,21077,1,8,0:0:0:0:
445,122,21248,1,8,0:0:0:0:
331,23,21420,1,8,0:0:0:0:
510,43,21591,1,8,0:0:0:0:
387,197,21763,1,8,0:0:0:0:
130,53,21934,6,0,B|192:20|192:20|340:23,1,209.000006378174,6|0,1:2|0:0,0:0:0:0:
218,157,22448,2,0,L|210:87,2,52.2500015945435,8|8|10,0:0|0:0|0:0,0:0:0:0:
297,195,22791,1,8,0:3:0:0:
226,244,22963,1,8,0:3:0:0:
149,205,23134,2,0,L|96:209,1,52.2500015945435,8|8,0:0|0:0,0:0:0:0:
7,110,23305,6,0,B|31:148|31:148|20:216,1,114,6|0,1:2|0:0,0:0:0:0:
21,239,23648,2,0,P|40:273|77:290,1,76,2|0,0:2|0:0,0:0:0:0:
147,292,23991,1,2,0:2:0:0:
147,292,24163,2,0,P|121:320|111:356,1,76,2|0,1:2|0:0,0:0:0:0:
196,361,24505,6,0,L|356:374,1,152,2|0,1:2|0:0,0:0:0:0:
437,370,25020,1,2,0:2:0:0:
437,370,25191,2,0,P|426:333|402:305,1,76,2|0,0:2|0:0,0:0:0:0:
336,271,25534,2,0,P|372:261|398:233,1,76,2|0,1:2|0:0,0:0:0:0:
432,162,25877,6,0,B|382:146|382:146|279:179,1,152,2|0,1:2|0:0,0:0:0:0:
432,162,26391,2,0,L|494:118,1,76,2|0,0:2|0:0,0:0:0:0:
451,53,26734,1,2,0:2:0:0:
451,53,26905,2,0,L|382:20,1,76,2|0,1:2|0:0,0:0:0:0:
303,25,27248,1,2,1:2:0:0:
250,182,27420,6,0,P|320:159|346:90,1,152,2|0,0:0|0:0,0:0:0:0:
303,25,27934,2,0,L|227:18,1,76
148,2,28277,2,0,P|148:40|167:73,1,76,2|0,1:2|1:0,0:0:0:0:
245,93,28620,1,2,1:2:0:0:
182,150,28791,6,0,L|106:145,1,76,2|0,1:2|0:0,0:0:0:0:
35,105,29134,2,0,P|23:140|31:177,1,76,2|0,0:2|0:0,0:0:0:0:
96,229,29477,1,2,0:2:0:0:
96,229,29648,2,0,L|89:316,1,76,2|0,1:2|0:0,0:0:0:0:
11,317,29991,6,0,P|24:358|126:374,1,152,2|2,1:2|0:0,0:0:0:0:
172,315,30505,1,2,0:2:0:0:
172,315,30677,2,0,P|208:305|244:314,1,76,2|0,0:2|0:0,0:0:0:0:
291,380,31020,2,0,P|297:339|320:313,1,76,2|0,1:2|0:0,0:0:0:0:
401,290,31363,1,2,1:2:0:0:
313,229,31534,6,0,B|287:187|287:187|318:84,1,152,2|0,0:2|0:0,0:0:0:0:
317,89,32220,2,0,P|247:114|179:84,1,152,2|0,0:2|0:0,0:0:0:0:
109,20,32734,1,2,1:2:0:0:
109,20,32820,1,2,0:2:0:0:
109,20,32905,6,0,B|86:68|86:68|108:182,1,152,2|0,0:2|0:0,0:0:0:0:
236,235,33420,1,2,0:2:0:0:
236,235,33505,1,2,0:2:0:0:
236,235,33591,2,8,L|161:242,1,76,2|0,0:2|1:0,0:0:0:0:
104,164,33934,2,0,L|178:156,1,76,0|0,1:2|1:0,0:0:0:0:
68,256,34277,6,0,L|76:335,1,76,6|0,1:2|0:0,0:0:0:0:
144,379,34620,2,0,P|180:388|217:381,1,76,2|0,0:2|0:0,0:0:0:0:
295,384,34963,1,2,0:2:0:0:
295,384,35134,2,0,P|269:356|261:319,1,76,2|0,1:2|0:0,0:0:0:0:
496,308,35477,6,0,B|457:331|457:331|344:323,1,152,2|0,1:2|0:0,0:0:0:0:
389,244,35991,1,2,0:2:0:0:
389,244,36163,2,0,L|467:236,1,76,2|0,0:2|0:0,0:0:0:0:
512,167,36505,2,0,P|508:132|475:92,1,76,2|0,1:2|0:0,0:0:0:0:
383,41,36848,6,0,P|319:11|231:29,1,152,2|0,1:2|0:0,0:0:0:0:
298,102,37363,2,0,P|264:120|239:148,1,76,2|0,0:2|0:0,0:0:0:0:
311,191,37705,1,2,0:2:0:0:
311,191,37877,2,0,P|300:227|302:265,1,76,2|0,1:2|0:0,0:0:0:0:
223,224,38220,1,2,1:2:0:0:
223,224,38305,1,2,0:2:0:0:
223,224,38391,6,0,B|172:214|172:214|129:231|129:231|76:221,1,152,2|0,0:0|0:0,0:0:0:0:
22,156,38905,2,0,L|29:80,1,76
85,12,39248,2,0,P|122:8|158:21,1,76,2|0,1:2|1:0,0:0:0:0:
223,80,39591,1,2,1:2:0:0:
295,129,39763,6,0,P|330:141|368:138,1,76,2|0,1:2|0:0,0:0:0:0:
387,0,40105,2,0,P|358:24|342:58,1,76,2|0,0:2|0:0,0:0:0:0:
461,142,40448,1,2,0:2:0:0:
461,142,40620,2,0,P|454:104|432:74,1,76,2|0,1:2|0:0,0:0:0:0:
340,222,40963,6,0,B|379:245|379:245|517:228,1,152,2|2,1:2|0:0,0:0:0:0:
502,329,41477,1,2,0:2:0:0:
422,341,41648,1,2,0:2:0:0:
344,350,41820,2,0,L|269:357,1,76,2|0,0:2|1:0,0:0:0:0:
366,268,42163,2,0,L|442:260,1,76,2|0,0:2|1:0,0:0:0:0:
288,279,42505,6,0,L|136:293,1,152,2|0,0:2|0:0,0:0:0:0:
59,363,43020,2,0,B|33:310|33:310|56:191,1,152,2|0,0:2|1:0,0:0:0:0:
144,133,43534,2,0,L|128:221,1,76,2|2,0:2|1:2,0:0:0:0:
54,223,43791,1,2,0:0:0:0:
54,223,43877,6,0,L|82:74,1,152,2|0,0:0|0:0,0:0:0:0:
212,11,44391,1,2,0:0:0:0:
212,11,44477,1,2,0:0:0:0:
212,11,44563,2,0,P|249:11|284:26,1,76,2|0,0:0|1:0,0:0:0:0:
173,99,44905,1,2,1:2:0:0:
82,73,45077,1,2,1:2:0:0:
285,27,45248,6,0,B|290:144,1,95,6|0,1:2|0:2,0:0:0:0:
177,193,45591,2,0,B|172:76,1,95,0|0,1:2|0:2,0:0:0:0:
281,208,45934,2,0,P|327:201|375:225,1,95,0|0,1:2|0:0,0:0:0:0:
211,276,46277,1,2,1:2:0:0:
211,276,46448,6,0,P|182:238|178:186,1,95,2|0,0:0|1:2,0:0:0:0:
281,208,46791,1,0,0:0:0:0:
315,294,46963,2,0,P|297:337|253:366,1,95,0|0,1:2|0:0,0:0:0:0:
116,286,47305,2,0,L|210:276,1,95,2|0,1:2|0:0,0:0:0:0:
375,217,47648,2,0,L|280:207,1,95,2|0,1:2|0:0,0:0:0:0:
462,265,47991,6,0,P|473:209|454:168,1,95,2|0,1:2|0:0,0:0:0:0:
381,128,48334,1,0,1:0:0:0:
384,302,48505,2,0,P|429:347|480:348,1,95,2|0,0:0|1:2,0:0:0:0:
462,265,48848,1,0,0:0:0:0:
459,175,49020,2,0,L|457:60,1,95,2|0,1:2|0:0,0:0:0:0:
374,216,49363,5,0,1:0:0:0:
459,175,49534,1,0,0:0:0:0:
336,121,49705,2,0,L|324:11,1,95,0|0,1:2|0:0,0:0:0:0:
281,207,50048,2,0,L|271:301,1,95,0|0,1:2|0:0,0:0:0:0:
374,216,50391,1,2,1:2:0:0:
240,130,50563,1,2,0:0:0:0:
240,130,50648,1,2,0:0:0:0:
240,130,50734,6,0,L|131:140,1,95,2|0,1:2|0:0,0:0:0:0:
89,223,51077,1,0,1:0:0:0:
186,215,51248,2,0,L|295:205,1,95,2|0,0:0|1:0,0:0:0:0:
379,197,51591,1,0,0:0:0:0:
283,289,51763,2,0,L|175:297,1,95,2|0,1:2|0:0,0:0:0:0:
97,303,52105,5,0,1:0:0:0:
13,256,52277,2,0,P|7:209|28:166,1,95,2|0,0:0|1:2,0:0:0:0:
110,142,52620,1,0,0:0:0:0:
175,194,52791,2,0,P|137:221|90:224,1,95,2|0,1:2|0:0,0:0:0:0:
188,109,53134,1,2,1:2:0:0:
259,155,53305,1,2,0:0:0:0:
186,289,53477,6,0,L|175:187,1,95,0|0,1:2|0:0,0:0:0:0:
259,155,53820,2,0,L|269:249,1,95,0|0,1:2|0:0,0:0:0:0:
188,109,54163,2,0,L|177:7,1,95,0|0,1:2|0:0,0:0:0:0:
270,75,54505,1,2,1:2:0:0:
259,155,54677,1,2,0:0:0:0:
339,175,54849,6,0,L|444:177,1,95,0|0,1:0|0:0,0:0:0:0:
487,36,55191,2,0,P|443:51|418:91,1,95,0|0,1:2|0:0,0:0:0:0:
512,215,55534,2,0,L|498:106,1,95,0|0,1:2|0:0,0:0:0:0:
435,254,55877,1,2,1:2:0:0:
434,177,56048,1,2,0:0:0:0:
505,301,56220,6,0,P|461:335|413:333,1,95,6|0,1:2|0:0,0:0:0:0:
353,289,56563,2,0,P|397:255|445:257,1,95,0|0,1:2|0:0,0:0:0:0:
284,247,56905,2,0,L|164:236,1,95,0|0,1:2|0:0,0:0:0:0:
21,294,57248,1,2,1:2:0:0:
21,294,57420,6,0,L|140:283,1,95,2|0,0:0|1:2,0:0:0:0:
189,238,57763,1,0,0:0:0:0:
122,110,57934,2,0,L|113:204,1,95,0|0,1:2|0:0,0:0:0:0:
192,329,58277,2,0,P|201:282|187:234,1,95,2|0,1:2|0:0,0:0:0:0:
42,236,58620,2,0,P|70:273|115:284,1,95,2|0,1:2|0:0,0:0:0:0:
176,42,58963,6,0,P|132:24|85:32,1,95,2|0,1:2|0:0,0:0:0:0:
33,153,59305,1,0,1:0:0:0:
217,122,59477,2,0,P|262:79|269:36,1,95,2|0,0:0|1:0,0:0:0:0:
122,110,59820,1,0,0:0:0:0:
224,212,59991,1,2,1:2:0:0:
384,102,60163,6,0,B|417:152|417:152|397:290,1,190,2|0,0:0|0:0,0:0:0:0:
250,322,60677,2,0,P|278:274|329:260,1,95,0|0,1:2|0:0,0:0:0:0:
420,368,61020,2,0,P|374:370|336:343,1,95,2|0,1:2|0:0,0:0:0:0:
412,186,61363,2,0,L|398:280,1,95,2|0,1:2|0:0,0:0:0:0:
250,322,61705,6,0,L|155:331,1,95,6|0,1:2|0:0,0:0:0:0:
156,163,62048,1,2,1:2:0:0:
156,163,62220,2,0,P|177:204|178:251,1,95,2|0,0:0|1:2,0:0:0:0:
0,231,62563,2,0,L|94:223,1,95,2|0,0:0|1:2,0:0:0:0:
260,203,62905,1,2,0:0:0:0:
71,140,63077,6,0,P|97:102|145:78,1,95,6|0,1:2|0:0,0:0:0:0:
312,99,63420,1,2,1:2:0:0:
312,99,63591,2,0,L|200:108,1,95,2|0,0:0|1:2,0:0:0:0:
355,26,63934,2,0,L|466:35,1,95,2|0,0:0|1:2,0:0:0:0:
270,20,64277,1,2,0:0:0:0:
402,109,64448,6,0,B|424:172|424:172|387:292,1,190,14|0,0:2|1:0,0:0:0:0:
227,260,64963,1,8,0:0:0:0:
340,381,65134,1,0,1:0:0:0:
237,359,65305,1,8,0:3:0:0:
317,214,65477,1,8,0:3:0:0:
387,289,65648,1,8,0:3:0:0:
227,260,65820,6,0,B|91:255|91:255|79:229|98:194,1,199.499993911743,4|0,1:2|0:0,0:0:0:0:
144,105,66505,2,0,P|171:123|189:150,1,66.4999979705811,2|2,0:0|0:0,0:0:0:0:
46,113,66848,2,0,P|47:80|62:50,1,66.4999979705811,2|2,0:0|0:0,0:0:0:0:
265,198,67191,6,0,B|341:179|341:179|406:207|406:207|487:190,1,227.999993041992,6|8,1:2|0:2,0:0:0:0:
262,115,67705,1,2,0:0:0:0:
187,237,67877,1,2,1:2:0:0:
271,312,68048,2,0,L|265:198,1,113.999996520996,2|8,1:2|0:2,0:0:0:0:
259,34,68391,1,2,0:0:0:0:
354,215,68563,5,2,1:2:0:0:
190,151,68734,2,0,L|76:141,1,113.999996520996,2|8,0:0|0:2,0:0:0:0:
354,215,69077,2,0,L|421:123,1,113.999996520996,2|0,1:2|0:0,0:0:0:0:
193,272,69420,2,0,L|240:376,1,113.999996520996,2|8,1:2|0:2,0:0:0:0:
265,198,69763,1,2,0:0:0:0:
76,141,69934,6,0,B|48:188|48:188|96:294,1,170.999994781494,0|0,1:2|0:0,0:0:0:0:
150,379,70277,1,8,0:2:0:0:
314,300,70448,1,2,0:0:0:0:
187,237,70620,1,2,1:2:0:0:
410,302,70791,2,0,L|417:181,1,113.999996520996,2|8,1:2|0:2,0:0:0:0:
422,62,71134,1,2,0:0:0:0:
512,241,71305,5,2,1:2:0:0:
332,249,71477,1,2,0:2:0:0:
512,133,71648,1,10,0:0:0:0:
505,354,71820,2,0,L|512:233,1,113.999996520996,2|0,1:2|0:0,0:0:0:0:
422,62,72163,1,2,1:2:0:0:
512,133,72334,1,10,0:2:0:0:
322,90,72505,1,2,0:0:0:0:
388,318,72677,6,0,B|417:272|417:272|393:158,1,170.999994781494,2|0,1:2|0:0,0:0:0:0:
422,62,73020,1,8,0:2:0:0:
216,105,73191,1,2,0:0:0:0:
354,0,73363,1,2,1:2:0:0:
241,216,73534,2,0,L|215:104,1,113.999996520996,2|8,1:2|0:2,0:0:0:0:
190,0,73877,1,2,0:0:0:0:
393,157,74048,5,2,1:2:0:0:
215,104,74220,2,0,L|84:113,1,113.999996520996,2|8,0:0|0:2,0:0:0:0:
149,312,74563,2,0,P|157:256|134:205,1,113.999996520996,2|0,1:2|0:0,0:0:0:0:
14,69,74905,2,0,P|5:124|28:175,1,113.999996520996,2|8,1:2|0:2,0:0:0:0:
149,312,75248,1,2,0:0:0:0:
215,104,75420,6,0,B|263:137|263:137|401:117,1,170.999994781494,4|0,1:2|0:0,0:0:0:0:
463,102,75763,5,8,0:2:0:0:
336,300,75934,1,0,1:2:0:0:
463,102,76105,5,8,0:2:0:0:
441,318,76277,1,2,1:2:0:0:
375,121,76448,5,10,0:2:0:0:
336,300,76620,2,0,B|266:336|266:336|99:294,1,227.999993041992,6|0,1:2|1:2,0:0:0:0:
157,47,77134,5,8,0:2:0:0:
254,244,77305,1,0,1:2:0:0:
231,0,77477,5,10,0:2:0:0:
165,215,77648,1,2,1:2:0:0:
306,87,77820,1,10,0:2:0:0:
332,85,77905,1,8,0:2:0:0:
358,83,77991,1,10,0:2:0:0:
89,95,78163,6,0,B|53:139|53:139|72:253,1,170.999994781494,6|0,1:2|0:0,0:0:0:0:
92,342,78505,1,8,0:2:0:0:
270,270,78677,1,2,0:0:0:0:
165,215,78848,1,2,1:2:0:0:
261,384,79020,2,0,L|271:254,1,113.999996520996,2|8,1:2|0:2,0:0:0:0:
285,104,79363,5,10,0:2:0:0:
288,77,79448,1,8,0:2:0:0:
291,51,79534,1,0,1:2:0:0:
159,162,79705,5,10,0:2:0:0:
161,186,79791,1,8,0:2:0:0:
165,215,79876,1,8,0:2:0:0:
511,156,80048,6,0,B|478:117|428:101|428:101|404:131|368:134,1,170.999994781494,2|0,1:2|0:0,0:0:0:0:
319,209,80391,2,0,B|337:322|337:322|345:291|371:274,1,170.999994781494,2|0,1:2|0:0,0:0:0:0:
425,348,80734,6,0,B|313:296|324:419|211:367,1,227.999993041992,6|0,1:2|0:0,0:0:0:0:
49,213,81248,1,8,0:2:0:0:
249,277,81420,1,2,0:0:0:0:
118,311,81591,1,2,1:2:0:0:
257,164,81763,2,0,L|249:291,1,113.999996520996,2|8,1:2|0:2,0:0:0:0:
355,229,82105,1,2,0:0:0:0:
360,98,82277,5,2,1:2:0:0:
249,277,82448,1,2,0:0:0:0:
137,89,82620,1,10,0:2:0:0:
355,229,82791,2,0,L|496:238,1,113.999996520996,2|0,1:2|0:0,0:0:0:0:
251,82,83134,2,0,L|110:91,1,113.999996520996,2|8,1:2|0:2,0:0:0:0:
355,229,83477,1,2,0:0:0:0:
184,360,83648,6,0,B|151:310|151:310|162:186,1,170.999994781494,4|0,1:2|0:0,0:0:0:0:
257,163,83991,2,0,L|247:294,1,113.999996520996,8|0,0:2|0:0,0:0:0:0:
67,185,84334,2,0,P|90:134|140:110,1,113.999996520996,2|0,1:2|1:2,0:0:0:0:
350,302,84677,2,0,P|294:307|247:276,1,113.999996520996,10|0,0:2|0:0,0:0:0:0:
310,0,85020,6,0,P|342:45|339:101,1,113.999996520996,2|0,1:2|0:0,0:0:0:0:
160,199,85363,1,10,0:2:0:0:
338,101,85534,2,0,L|475:110,1,113.999996520996,2|0,1:2|0:0,0:0:0:0:
131,72,85877,2,0,L|244:64,1,113.999996520996,2|8,1:2|0:2,0:0:0:0:
256,274,86220,1,2,0:0:0:0:
256,274,86305,1,2,0:0:0:0:
256,274,86391,6,0,L|264:157,1,113.999996520996,4|0,1:2|0:0,0:0:0:0:
338,356,86734,5,8,0:2:0:0:
138,275,86905,1,0,1:2:0:0:
359,262,87077,5,8,0:2:0:0:
127,359,87248,1,8,0:2:0:0:
88,346,87333,1,8,0:2:0:0:
63,322,87419,1,10,0:3:0:0:
51,290,87505,1,10,0:3:0:0:
50,256,87591,1,10,0:3:0:0:
62,224,87677,1,10,0:3:0:0:
85,198,87763,6,0,B|140:163|198:205|198:205|250:244|303:208,1,232.749992897034,6|0,1:2|0:0,0:0:0:0:
382,224,88448,2,0,P|300:153|346:55,1,232.749992897034,2|0,0:0|0:0,0:0:0:0:
433,17,89134,6,0,B|368:9|368:9|309:32|309:32|248:24,1,190,2|0,0:0|0:0,0:0:0:0:
