osu file format v14

[General]
AudioFilename: audio.mp3
AudioLeadIn: 0
PreviewTime: 66386
Countdown: 0
SampleSet: Soft
StackLeniency: 0.7
Mode: 0
LetterboxInBreaks: 0
WidescreenStoryboard: 1

[Editor]
Bookmarks: 8044,14044,61701
DistanceSpacing: 0.8
BeatDivisor: 4
GridSize: 8
TimelineZoom: 2.599999

[Metadata]
Title:Connect (TV Size)
TitleUnicode:コネクト (TV Size)
Artist:ClariS
ArtistUnicode:ClariS
Creator:Anya Melfissa
Version:Wandering in this Collapsed World
Source:魔法少女まどか☆マギカ
Tags:Mayuzumi Fuyuko Kyutei Alexsander Kyrian Kagayaki Erisu -Magic- Kaname madoka 鹿目 まどか Mahou Shoujo Madoka Magica Magika Puella Magi Anime op Japanese jpop j-pop
BeatmapID:2721301
BeatmapSetID:1259636

[Difficulty]
HPDrainRate:6
CircleSize:4.4
OverallDifficulty:8.6
ApproachRate:9.2
SliderMultiplier:1.8
SliderTickRate:1

[Events]
//Background and Video events
Video,100,"Opening.mp4"
0,0,"BG.jpg",0,0
//Break Periods
//Storyboard Layer 0 (Background)
//Storyboard Layer 1 (Fail)
//Storyboard Layer 2 (Pass)
//Storyboard Layer 3 (Foreground)
//Storyboard Layer 4 (Overlay)
//Storyboard Sound Samples

[TimingPoints]
626,342.857142857143,4,2,1,55,1,0
626,-200,4,2,1,55,0,0
1329,342.857142857143,4,2,1,55,1,0
1329,-142.857142857143,4,2,1,55,0,0
9557,-166.666666666667,4,2,1,55,0,0
11614,-166.666666666667,4,2,1,55,0,0
11957,-166.666666666667,4,2,1,55,0,0
12300,-90.9090909090909,4,2,2,62,0,0
12643,-90.9090909090909,4,2,1,62,0,0
20786,-83.3333333333333,4,2,1,5,0,0
20871,-83.3333333333333,4,2,1,62,0,0
21900,-90.9090909090909,4,2,1,62,0,0
22414,-90.9090909090909,4,2,1,58,0,0
23271,-100,4,2,1,55,0,0
23614,-111.111111111111,4,2,1,44,0,0
26271,-111.111111111111,4,2,1,5,0,0
26357,-111.111111111111,4,2,1,44,0,0
29014,-111.111111111111,4,2,1,5,0,0
29100,-111.111111111111,4,2,1,44,0,0
31757,-111.111111111111,4,2,1,5,0,0
31843,-111.111111111111,4,2,1,44,0,0
33129,-111.111111111111,4,2,1,5,0,0
33214,-111.111111111111,4,2,1,44,0,0
33471,-111.111111111111,4,2,1,5,0,0
33557,-111.111111111111,4,2,1,44,0,0
34243,-125,4,2,1,44,0,0
37243,-125,4,2,1,5,0,0
37329,-125,4,2,1,44,0,0
44100,-125,4,2,1,5,0,0
44186,-125,4,2,1,44,0,0
45214,-117.647058823529,4,2,2,52,0,0
45557,-117.647058823529,4,2,1,52,0,0
53700,-117.647058823529,4,2,1,5,0,0
53786,-117.647058823529,4,2,1,52,0,0
56186,-111.111111111111,4,2,1,52,0,0
61671,-96.1538461538461,4,2,1,58,0,0
63300,-96.1538461538461,4,2,1,5,0,0
63386,-96.1538461538461,4,2,1,58,0,0
64671,-96.1538461538461,4,2,1,5,0,0
64757,-96.1538461538461,4,2,1,58,0,0
65785,-227.272727272727,4,2,1,44,0,0
66385,-135.135135135135,4,2,1,5,0,0
66471,-119.047619047619,4,2,1,50,0,0
66557,-119.047619047619,4,2,1,5,0,0
66643,-80.6451612903226,4,2,1,55,0,0
66728,-80.6451612903226,4,2,1,5,0,0
66814,-60.9756097560976,4,2,1,60,0,0
66900,-60.9756097560976,4,2,1,5,0,0
66985,-49.0196078431373,4,2,1,65,0,0
67071,-49.0196078431373,4,2,1,5,0,0
67157,-69.4444444444444,4,2,2,72,0,1
67500,-69.4444444444444,4,2,1,72,0,1
68014,-80.6451612903226,4,2,1,72,0,1
70157,-80.6451612903226,4,2,1,5,0,1
70243,-80.6451612903226,4,2,1,72,0,1
74786,-80.6451612903226,4,2,1,5,0,1
74871,-80.6451612903226,4,2,1,72,0,1
75643,-80.6451612903226,4,2,1,5,0,1
75729,-80.6451612903226,4,2,1,72,0,1
78129,-80.6451612903226,4,2,1,72,0,1
80014,-80.6451612903226,4,2,1,62,0,0
80271,-80.6451612903226,4,2,1,5,0,0
80357,-80.6451612903226,4,2,1,62,0,0
80614,-80.6451612903226,4,2,1,5,0,0
80700,-74.6268656716418,4,2,1,72,0,1
83014,-74.6268656716418,4,2,1,5,0,1
83100,-74.6268656716418,4,2,1,72,0,1
86357,-69.4444444444444,4,2,1,72,0,1
86614,-69.4444444444444,4,2,1,5,0,1
86700,-69.4444444444444,4,2,1,72,0,1
87729,-119.047619047619,4,2,1,60,0,0
88243,-119.047619047619,4,2,1,5,0,0
88414,-119.047619047619,4,2,1,55,0,0
88928,-119.047619047619,4,2,1,5,0,0
89100,-294.117647058824,4,2,1,50,0,0
89186,-294.117647058824,4,2,1,5,0,0
89785,-294.117647058824,4,2,1,5,0,0

[Colours]
Combo1 : 255,155,183
Combo2 : 252,152,227
Combo3 : 200,200,200
Combo4 : 255,208,113

[HitObjects]
117,90,626,6,0,L|111:41,1,45,2|2,0:0|0:0,0:0:0:0:
33,173,968,2,0,L|40:123,1,45,2|2,0:0|0:0,0:0:0:0:
108,229,1329,6,0,B|140:215|164:250|143:268|166:304|219:294,1,125.999996154785,2|0,0:2|0:0,0:0:0:0:
274,349,1843,1,2,0:0:0:0:
367,310,2014,1,2,0:0:0:0:
394,292,2186,2,0,P|406:323|394:353,1,62.9999980773926,2|0,0:0|0:0,0:0:0:0:
452,243,2529,1,2,0:0:0:0:
388,153,2700,1,2,0:2:0:0:
394,122,2871,2,0,L|406:41,1,62.9999980773926,2|0,0:0|0:0,0:0:0:0:
297,2,3214,6,0,B|271:27|271:27|229:13,1,62.9999980773926,2|0,0:0|0:0,0:0:0:0:
125,48,3557,2,0,B|148:23|148:23|192:37,1,62.9999980773926,2|0,0:0|0:0,0:0:0:0:
91,36,3900,1,2,0:0:0:0:
6,139,4071,6,0,B|41:129|68:152|48:176|70:199|116:195,1,125.999996154785,2|0,0:2|0:0,0:0:0:0:
171,244,4586,1,2,0:0:0:0:
276,170,4757,1,2,0:0:0:0:
302,192,4929,2,0,L|296:270,1,62.9999980773926,2|0,0:0|0:0,0:0:0:0:
368,365,5271,5,2,0:0:0:0:
368,365,5443,1,2,0:0:0:0:
274,293,5614,1,2,0:0:0:0:
169,340,5786,1,2,0:0:0:0:
132,261,5957,2,0,L|138:339,1,62.9999980773926,2|0,0:0|0:0,0:0:0:0:
162,236,6300,1,2,0:0:0:0:
226,162,6471,1,2,0:0:0:0:
124,69,6643,1,2,0:0:0:0:
248,6,6814,6,0,B|307:12|307:12|311:10|311:10|383:19,1,125.999996154785,2|0,0:0|0:0,0:0:0:0:
492,89,7329,1,2,0:0:0:0:
400,156,7500,1,2,0:0:0:0:
376,184,7671,2,0,L|384:264,1,62.9999980773926,2|0,0:0|0:0,0:0:0:0:
348,330,8014,1,2,0:0:0:0:
251,252,8186,1,2,0:2:0:0:
231,224,8357,6,0,P|248:179|272:157,1,62.9999980773926,2|0,0:0|0:0,0:0:0:0:
401,163,8700,2,0,P|353:170|323:161,1,62.9999980773926,2|0,0:0|0:0,0:0:0:0:
261,46,9043,2,0,P|290:83|297:115,1,62.9999980773926,2|0,0:0|0:0,0:0:0:0:
231,224,9386,1,2,0:0:0:0:
108,118,9557,6,0,P|133:236|143:335,1,215.999993408203,2|2,0:0|0:0,0:0:0:0:
121,351,10414,1,2,0:0:0:0:
221,273,10586,1,2,0:0:0:0:
297,373,10757,1,2,0:0:0:0:
256,192,10843,12,0,11614,0:0:0:0:
463,298,11957,5,2,0:0:0:0:
480,280,12043,1,2,0:0:0:0:
457,249,12129,1,2,0:0:0:0:
492,198,12214,1,2,0:0:0:0:
457,143,12300,6,0,B|431:98|431:98|458:41,1,99.0000030212403,4|0,2:0|0:0,0:0:0:0:
358,10,12643,2,0,B|265:17|265:17|263:15|263:15|156:24,1,198.000006042481,8|0,0:0|3:1,0:0:0:0:
0,168,13157,1,0,3:1:0:0:
77,16,13329,1,8,0:0:0:0:
153,171,13500,2,0,B|151:227|118:257|90:227|33:270|37:331,1,198.000006042481,6|0,3:2|3:1,0:0:0:0:
199,360,14014,5,8,0:0:0:0:
294,151,14186,1,2,3:2:0:0:
375,363,14357,1,2,3:2:0:0:
197,202,14529,1,0,3:1:0:0:
407,266,14700,1,8,0:0:0:0:
199,360,14871,1,2,3:2:0:0:
377,193,15043,6,0,P|372:244|368:299,1,99.0000030212403,6|0,3:2|0:0,0:0:0:0:
323,121,15386,2,0,B|274:131|232:83|281:53|251:3|178:13,1,198.000006042481,8|0,0:0|3:1,0:0:0:0:
25,101,15900,1,0,3:1:0:0:
158,195,16071,1,8,0:0:0:0:
60,320,16243,2,0,B|154:308|154:308|154:304|154:304|269:289,1,198.000006042481,6|0,3:2|3:1,0:0:0:0:
400,163,16757,5,10,0:0:0:0:
328,355,16929,1,0,3:1:0:0:
400,133,17099,5,10,0:0:0:0:
470,326,17271,1,0,3:1:0:0:
258,200,17443,5,8,0:0:0:0:
239,175,17529,1,8,0:0:0:0:
199,189,17615,1,8,0:0:0:0:
163,146,17700,1,8,0:0:0:0:
118,184,17786,6,0,P|134:240|143:288,1,99.0000030212403,4|0,3:2|0:0,0:0:0:0:
236,358,18129,2,0,B|285:368|327:320|281:291|308:240|381:250,1,198.000006042481,8|0,0:0|3:1,0:0:0:0:
494,178,18643,1,0,3:1:0:0:
361,117,18814,1,8,0:0:0:0:
476,16,18986,6,0,P|355:28|262:30,1,198.000006042481,4|0,3:2|3:1,0:0:0:0:
57,182,19500,1,10,0:0:0:0:
137,8,19671,1,0,3:1:0:0:
231,270,19843,5,10,0:0:0:0:
162,71,20014,1,0,3:1:0:0:
85,252,20186,5,10,0:0:0:0:
272,143,20357,1,0,3:1:0:0:
51,70,20529,6,0,B|25:89|25:89|20:210,1,148.50000453186,14|0,0:0|0:0,0:0:0:0:
20,205,20871,5,0,3:2:0:0:
136,350,21043,1,10,0:0:0:0:
160,170,21214,1,10,0:0:0:0:
23,361,21386,1,8,0:0:0:0:
257,256,21557,1,8,0:0:0:0:
40,134,21729,1,10,0:0:0:0:
136,350,21900,6,0,B|229:355|229:355|234:358|234:358|339:362,1,198.000006042481,6|0,0:0|0:0,0:0:0:0:
420,305,22414,1,8,0:2:0:0:
420,305,22500,1,8,0:0:0:0:
420,305,22586,2,0,B|442:262|442:262|415:220,1,99.0000030212403,8|0,3:2|3:2,0:0:0:0:
363,68,22929,2,0,B|340:110|340:110|367:152,1,99.0000030212403,0|0,3:2|3:0,0:0:0:0:
334,36,23271,1,4,3:2:0:0:
143,111,23614,6,0,B|132:162|165:192|193:170|232:211|219:255,1,161.999995056153,2|2,0:0|0:0,0:0:0:0:
225,267,24129,1,2,3:2:0:0:
128,339,24300,2,0,B|159:309|159:309|203:338,1,80.9999975280763,0|2,0:0|3:2,0:0:0:0:
213,350,24643,6,0,B|294:344|294:344|294:341|294:341|378:337,1,161.999995056153,2|2,0:0|0:0,0:0:0:0:
466,278,25157,2,0,P|482:248|450:207,1,80.9999975280763,2|0,0:0|0:0,0:0:0:0:
398,92,25500,2,0,P|382:122|414:163,1,80.9999975280763,2|2,3:2|0:0,0:0:0:0:
375,61,25843,1,0,3:2:0:0:
259,15,26014,6,0,B|226:40|226:40|132:17,1,121.499996292114,2|0,0:0|0:0,0:0:0:0:
149,21,26357,2,0,B|158:66|122:95|109:84|66:108|71:168,1,161.999995056153,2|2,0:0|0:0,0:0:0:0:
1,251,26871,2,0,B|38:230|38:230|69:264,1,80.9999975280763,2|0,3:2|0:0,0:0:0:0:
119,324,27214,1,2,3:2:0:0:
141,348,27386,6,0,B|214:344|214:344|217:340|217:340|300:335,1,161.999995056153,2|2,3:2|0:0,0:0:0:0:
317,355,27900,2,0,B|378:306|378:306|448:353,1,161.999995056153,2|2,3:2|3:2,0:0:0:0:
512,270,28414,1,0,3:1:0:0:
446,179,28586,1,2,3:2:0:0:
469,149,28757,6,0,B|477:113|454:93|435:108|408:79|417:49,1,121.499996292114,2|0,3:2|0:0,0:0:0:0:
416,50,29100,2,0,B|339:56|339:56|338:53|338:53|251:59,1,161.999995056153,2|2,0:0|0:0,0:0:0:0:
170,139,29614,1,2,3:2:0:0:
246,211,29786,1,0,0:0:0:0:
156,323,29957,6,0,P|110:315|75:312,1,80.9999975280763,2|2,3:2|0:0,0:0:0:0:
181,358,30300,1,2,0:0:0:0:
264,251,30471,1,2,0:0:0:0:
367,362,30643,2,0,B|355:317|389:287|407:304|451:281|427:201,1,161.999995056153,2|2,0:0|3:2,0:0:0:0:
309,101,31157,2,0,P|351:134|353:166,1,80.9999975280763,0|2,0:0|3:2,0:0:0:0:
308,272,31500,6,0,B|246:266|246:266|247:264|247:264|186:259,1,121.499996292114,2|0,0:0|0:0,0:0:0:0:
191,260,31843,2,0,B|203:215|169:185|151:202|107:179|131:99,1,161.999995056153,0|2,0:0|0:0,0:0:0:0:
210,22,32357,1,0,3:1:0:0:
222,46,32529,2,0,P|213:97|209:135,1,80.9999975280763,0|0,0:0|3:1,0:0:0:0:
296,21,32871,2,0,P|352:12|378:86,1,121.499996292114,2|0,0:0|0:0,0:0:0:0:
384,60,33214,6,0,B|375:126|375:126|377:129|377:129|366:199,1,121.499996292114
369,179,33557,1,2,0:0:0:0:
337,252,33729,1,0,3:1:0:0:
464,343,33900,1,0,3:1:0:0:
411,251,34071,1,0,3:1:0:0:
315,371,34243,6,0,B|283:352|283:352|250:369,1,72,2|0,3:2|0:0,0:0:0:0:
145,306,34586,2,0,B|150:266|118:237|97:267|66:225|73:173,1,144,2|2,0:0|0:0,0:0:0:0:
142,95,35100,2,0,P|188:121|183:156,1,72,2|0,3:2|0:0,0:0:0:0:
267,61,35443,1,2,3:2:0:0:
299,48,35614,6,0,B|368:55|368:55|369:52|369:52|463:60,1,144,2|2,0:0|0:0,0:0:0:0:
512,122,36129,2,0,B|521:161|521:161|499:196,1,72,2|0,3:2|0:0,0:0:0:0:
423,311,36471,2,0,B|413:273|413:273|437:238,1,72,2|0,3:2|0:0,0:0:0:0:
396,345,36815,1,2,3:2:0:0:
301,377,36986,6,0,P|266:329|221:344,1,108,2|0,0:0|0:0,0:0:0:0:
225,339,37329,2,0,B|230:299|198:270|177:300|146:258|153:206,1,144,2|2,0:0|0:0,0:0:0:0:
189,126,37843,1,2,3:2:0:0:
219,108,38014,2,0,P|259:124|264:164,1,72,0|2,0:0|3:2,0:0:0:0:
370,226,38357,6,0,B|300:222|300:222|299:224|299:224|225:219,1,144,2|2,0:0|0:0,0:0:0:0:
97,324,38871,2,0,P|134:287|179:367,1,144,2|2,0:0|3:2,0:0:0:0:
256,380,39386,1,0,3:1:0:0:
351,330,39557,1,2,3:2:0:0:
366,307,39729,2,0,L|357:233,1,72,2|0,3:2|0:0,0:0:0:0:
474,151,40071,2,0,L|465:225,1,72,2|0,0:0|0:0,0:0:0:0:
421,98,40414,1,2,0:0:0:0:
399,73,40586,2,0,P|371:47|336:58,1,72,2|0,3:2|0:0,0:0:0:0:
287,130,40929,6,0,P|294:170|299:206,1,72,2|2,3:2|0:0,0:0:0:0:
144,296,41271,1,2,0:0:0:0:
223,202,41443,2,0,P|216:242|211:278,1,72,2|2,0:0|0:0,0:0:0:0:
313,376,41786,2,0,B|288:350|288:350|246:377,1,72,2|0,0:0|3:1,0:0:0:0:
88,302,42129,2,0,B|113:276|113:276|155:303,1,72,2|0,0:0|3:1,0:0:0:0:
5,231,42471,6,0,B|0:191|32:162|53:192|84:150|77:98,1,144,2|2,0:0|0:0,0:0:0:0:
125,28,42986,2,0,B|158:46|169:85|169:85|169:45|192:19,1,144,2|0,0:0|3:1,0:0:0:0:
218,9,43500,2,0,P|252:7|282:40,1,72,2|0,0:0|3:2,0:0:0:0:
378,117,43843,2,0,P|312:110|304:147,1,108,2|0,3:2|0:0,0:0:0:0:
302,137,44186,6,0,B|312:203|312:203|316:207|316:207|326:290,1,144,2|2,0:0|3:2,0:0:0:0:
302,291,44700,1,0,3:2:0:0:
402,367,44871,1,6,3:2:0:0:
500,294,45043,1,0,3:2:0:0:
386,225,45214,6,0,P|409:243|456:232,1,76.5000014591217,6|0,3:2|0:0,0:0:0:0:
394,84,45557,2,0,P|366:95|351:141,1,76.5000014591217,0|0,3:2|0:0,0:0:0:0:
512,162,45900,2,0,P|516:132|483:96,1,76.5000014591217,0|0,3:2|0:0,0:0:0:0:
411,2,46243,1,2,3:2:0:0:
297,56,46414,1,2,0:0:0:0:
268,78,46586,2,0,P|228:72|186:67,1,76.5000014591217,0|0,3:2|0:0,0:0:0:0:
88,207,46929,2,0,P|128:201|170:196,1,76.5000014591217,0|0,3:2|0:0,0:0:0:0:
375,311,47271,6,0,P|354:321|306:301,1,76.5000014591217,2|0,3:2|0:0,0:0:0:0:
325,173,47614,2,0,P|346:163|394:183,1,76.5000014591217,2|0,3:2|0:0,0:0:0:0:
243,347,47957,2,0,B|210:325|210:325|172:346,1,76.5000014591217,2|0,3:2|0:0,0:0:0:0:
58,261,48300,1,0,3:2:0:0:
169,192,48471,2,0,L|162:270,1,76.5000014591217,2|0,0:0|3:2,0:0:0:0:
199,168,48814,1,0,0:0:0:0:
55,97,48986,2,0,L|62:175,1,76.5000014591217,2|0,3:2|0:0,0:0:0:0:
191,27,49329,6,0,P|214:9|261:20,1,76.5000014591217,0|0,3:2|0:0,0:0:0:0:
199,168,49672,2,0,P|171:157|156:111,1,76.5000014591217,0|0,3:2|0:0,0:0:0:0:
317,90,50015,2,0,P|321:120|288:156,1,76.5000014591217,0|0,3:2|0:0,0:0:0:0:
353,25,50357,1,2,3:2:0:0:
481,62,50529,1,2,0:0:0:0:
504,84,50700,6,0,L|499:160,1,76.5000014591217,2|0,3:2|0:0,0:0:0:0:
451,224,51043,1,0,3:2:0:0:
316,152,51214,2,0,L|321:228,1,76.5000014591217,2|0,0:0|3:2,0:0:0:0:
377,289,51557,1,0,0:0:0:0:
281,127,51729,6,0,B|242:136|210:100|236:74|200:36|144:54,1,153.000002918243,2|0,3:2|3:2,0:0:0:0:
31,129,52243,1,2,0:0:0:0:
48,156,52414,2,0,B|83:137|83:137|115:175,1,76.5000014591217,0|0,3:2|0:0,0:0:0:0:
169,250,52757,2,0,P|164:291|161:331,1,76.5000014591217,2|0,3:2|0:0,0:0:0:0:
257,380,53100,1,2,3:2:0:0:
369,323,53271,1,2,0:0:0:0:
397,336,53443,6,0,B|428:337|447:305|422:286|443:257|491:251,1,114.750002188683,0|0,3:2|0:0,0:0:0:0:
467,256,53786,2,0,B|459:180|459:180|463:176|463:176|455:107,1,153.000002918243,0|0,3:2|3:2,0:0:0:0:
494,159,54300,1,0,0:0:0:0:
379,28,54471,2,0,P|330:60|339:98,1,76.5000014591217,2|2,3:2|0:0,0:0:0:0:
236,144,54814,6,0,B|272:131|307:173|281:200|316:231|368:226,1,153.000002918243,0|0,3:2|3:2,0:0:0:0:
421,317,55329,1,0,0:0:0:0:
495,213,55500,2,0,P|487:262|484:303,1,76.5000014591217,0|0,3:2|0:0,0:0:0:0:
357,375,55843,1,2,3:2:0:0:
270,302,56014,1,2,0:0:0:0:
209,370,56186,6,0,P|181:379|140:352,1,80.9999975280763,6|0,3:2|0:0,0:0:0:0:
249,234,56529,2,0,P|271:253|269:302,1,80.9999975280763,0|0,3:2|0:0,0:0:0:0:
112,266,56872,2,0,P|118:236|161:213,1,80.9999975280763,0|0,3:2|0:0,0:0:0:0:
274,109,57214,1,2,3:2:0:0:
395,201,57386,1,2,0:0:0:0:
450,148,57557,2,0,P|441:200|437:245,1,80.9999975280763,0|0,3:2|0:0,0:0:0:0:
330,154,57900,2,0,P|321:102|317:57,1,80.9999975280763,0|0,3:2|0:0,0:0:0:0:
212,14,58243,6,0,B|183:45|183:45|131:22,1,80.9999975280763,2|0,3:2|0:0,0:0:0:0:
8,85,58586,1,2,3:2:0:0:
129,168,58757,1,0,0:0:0:0:
129,168,58843,1,0,0:0:0:0:
129,168,58929,2,0,B|138:216|106:241|82:214|45:247|51:295,1,161.999995056153,2|0,3:2|3:2,0:0:0:0:
142,374,59443,2,0,P|191:361|204:320,1,80.9999975280763,2|0,0:0|3:2,0:0:0:0:
277,221,59786,1,0,0:0:0:0:
363,281,59957,1,2,3:2:0:0:
431,194,60129,5,2,0:0:0:0:
498,265,60300,2,0,P|485:309|479:351,1,80.9999975280763,0|2,3:2|0:0,0:0:0:0:
360,379,60643,1,0,3:2:0:0:
261,306,60814,1,0,0:0:0:0:
261,306,60900,1,0,0:0:0:0:
261,306,60986,2,0,B|226:288|226:288|197:323,1,80.9999975280763,2|0,3:2|0:0,0:0:0:0:
339,221,61329,2,0,B|374:203|374:203|403:238,1,80.9999975280763,2|0,3:2|0:0,0:0:0:0:
262,152,61671,6,0,B|266:94|226:69|201:103|153:69|154:12,1,187.199998857422,6|2,3:2|3:2,0:0:0:0:
3,57,62186,2,0,B|-20:102|-20:102|17:142,1,93.5999994287109,2|0,0:0|3:2,0:0:0:0:
75,267,62529,2,0,B|98:222|98:222|61:182,1,93.5999994287109,2|0,0:0|3:2,0:0:0:0:
99,293,62871,1,2,0:0:0:0:
198,384,63043,6,0,B|238:384|267:365|242:331|269:298|312:304,1,140.399999143066,6|0,3:2|0:0,0:0:0:0:
299,303,63386,2,0,B|339:278|339:278|370:313,1,93.5999994287109,2|2,3:2|0:0,0:0:0:0:
495,234,63729,1,0,3:2:0:0:
390,143,63900,2,0,P|397:191|401:241,1,93.5999994287109,2|0,0:0|3:2,0:0:0:0:
441,88,64243,1,2,0:0:0:0:
311,43,64414,2,0,B|273:43|246:60|269:92|244:123|204:117,1,140.399999143066,6|0,3:2|0:0,0:0:0:0:
206,117,64757,5,0,3:2:0:0:
125,206,64929,1,8,0:0:0:0:
190,313,65100,1,0,3:2:0:0:
305,154,65271,5,0,3:2:0:0:
354,236,65442,1,0,3:2:0:0:
292,304,65614,1,0,3:2:0:0:
415,346,65786,6,0,B|452:326|452:326|426:228,1,138.600004229736,4|0,3:2|0:0,0:0:0:0:
412,149,66471,6,0,P|390:157|367:178,1,37.7999988464356,2|0,0:0|0:0,0:0:0:0:
304,66,66644,6,0,P|290:87|287:121,1,55.799997786255,2|0,0:0|0:0,0:0:0:0:
157,78,66815,6,0,P|171:124|190:151,1,73.8000011260987,2|0,0:0|0:0,0:0:0:0:
48,218,66986,6,0,P|106:235|149:227,1,91.8000005603027,2|0,0:0|0:0,0:0:0:0:
105,321,67157,6,0,B|168:332|228:302|200:236|242:180|314:202,1,259.200006328125,6|8,3:2|0:0,0:0:0:0:
469,358,67671,1,2,0:0:0:0:
337,266,67843,1,2,3:2:0:0:
512,168,68014,2,0,P|501:234|497:286,1,111.59999557251,2|8,3:2|0:0,0:0:0:0:
447,121,68357,5,2,0:0:0:0:
336,22,68529,1,2,3:2:0:0:
219,99,68700,2,0,P|230:156|236:214,1,111.59999557251,2|8,3:2|0:0,0:0:0:0:
73,287,69043,2,0,B|124:261|124:261|169:320,1,111.59999557251,2|0,3:2|0:0,0:0:0:0:
319,191,69386,2,0,B|268:165|268:165|223:224,1,111.59999557251,2|8,3:2|0:0,0:0:0:0:
115,111,69729,1,2,0:0:0:0:
240,9,69900,6,0,B|288:2|317:44|286:66|317:109|368:104,1,167.399993358765,2|0,3:2|0:0,0:0:0:0:
359,105,70243,1,8,0:0:0:0:
459,222,70414,1,2,0:0:0:0:
289,324,70586,1,2,3:2:0:0:
380,208,70757,2,0,P|371:261|365:322,1,111.59999557251,2|8,3:2|0:0,0:0:0:0:
316,171,71100,1,2,0:0:0:0:
185,339,71271,5,2,3:2:0:0:
166,189,71443,1,2,0:0:0:0:
316,171,71614,1,8,0:0:0:0:
334,320,71786,1,2,3:2:0:0:
76,254,72129,5,2,3:2:0:0:
0,127,72300,1,10,0:0:0:0:
106,30,72471,1,2,0:0:0:0:
166,189,72643,6,0,B|226:202|265:145|224:116|265:58|334:64,1,223.19999114502,6|8,3:2|0:0,0:0:0:0:
472,112,73157,1,2,0:0:0:0:
398,227,73329,1,2,3:2:0:0:
507,325,73500,2,0,B|463:290|463:290|413:317,1,111.59999557251,2|8,3:2|0:0,0:0:0:0:
318,181,73843,1,2,0:0:0:0:
338,367,74014,5,2,3:2:0:0:
170,290,74186,2,0,B|213:256|213:256|263:283,1,111.59999557251,2|8,0:0|0:0,0:0:0:0:
176,144,74529,2,0,B|136:134|95:168|121:199|91:231|36:218,1,167.399993358765,2|0,3:2|0:0,0:0:0:0:
42,219,74871,2,0,B|15:166|15:166|46:109,1,111.59999557251,2|8,3:2|0:0,0:0:0:0:
123,28,75214,1,2,0:0:0:0:
144,8,75386,6,0,P|228:0|240:70,1,167.399993358765,6|0,3:2|0:0,0:0:0:0:
241,66,75729,1,8,0:0:0:0:
264,312,75901,1,0,3:2:0:0:
346,77,76071,5,10,0:0:0:0:
122,189,76243,1,2,3:2:0:0:
357,290,76414,1,10,0:0:0:0:
135,84,76586,6,0,P|153:193|166:316,1,223.19999114502,6|0,3:2|3:1,0:0:0:0:
374,384,77100,1,8,0:0:0:0:
393,227,77271,1,0,3:1:0:0:
237,209,77443,1,10,0:0:0:0:
219,365,77614,1,2,3:2:0:0:
319,237,77786,1,10,0:2:0:0:
319,237,77871,1,0,3:1:0:0:
319,237,77957,1,2,3:2:0:0:
445,372,78129,6,0,B|486:348|486:348|451:151,1,223.19999114502,6|8,0:2|0:0,0:0:0:0:
269,77,78643,1,2,0:0:0:0:
379,207,78814,1,2,3:2:0:0:
176,283,78986,2,0,P|190:211|197:160,1,111.59999557251,2|8,3:2|0:0,0:0:0:0:
14,46,79329,1,2,0:0:0:0:
118,210,79500,5,2,3:2:0:0:
176,34,79671,1,2,3:2:0:0:
176,34,79757,1,0,3:1:0:0:
176,34,79843,1,8,0:0:0:0:
7,162,80014,6,0,P|95:149|117:213,1,167.399993358765,6|0,3:2|0:0,0:0:0:0:
241,296,80357,6,0,P|156:279|134:346,1,167.399993358765,6|0,3:2|0:0,0:0:0:0:
240,384,80700,6,0,B|305:398|347:336|302:304|348:245|423:257,1,241.199988590699,6|0,3:2|0:0,0:0:0:0:
494,135,81214,2,0,B|457:86|457:86|397:120,1,120.599994295349,8|2,0:0|0:0,0:0:0:0:
306,227,81557,1,2,3:2:0:0:
185,92,81729,2,0,P|201:145|211:210,1,120.599994295349,2|8,3:2|0:2,0:0:0:0:
85,48,82071,1,2,0:2:0:0:
306,227,82243,5,2,3:2:0:0:
175,45,82414,1,2,0:2:0:0:
108,264,82585,1,10,0:2:0:0:
282,103,82756,2,0,P|259:210|251:299,1,180.899991443024,6|0,3:2|0:0,0:0:0:0:
251,280,83100,1,2,3:2:0:0:
107,178,83271,2,0,B|144:130|144:130|195:164,1,120.599994295349,8|2,0:2|0:2,0:0:0:0:
145,352,83614,6,0,B|151:295|95:237|60:297|-1:237|14:173,1,241.199988590699,6|8,3:2|0:2,0:0:0:0:
181,4,84129,1,0,0:0:0:0:
107,178,84300,1,2,3:2:0:0:
2,28,84471,1,0,3:2:0:0:
194,129,84643,2,0,B|252:120|252:120|252:116|252:116|312:108,1,120.599994295349,10|0,0:2|0:0,0:0:0:0:
470,14,84986,6,0,B|389:48|389:48|436:200,1,241.199988590699,2|10,3:2|0:2,0:0:0:0:
348,326,85500,2,0,B|291:332|232:278|291:241|230:182|166:198,1,241.199988590699,0|2,3:2|3:2,0:0:0:0:
259,184,86014,1,8,0:2:0:0:
67,107,86186,1,2,0:2:0:0:
67,107,86271,1,0,0:0:0:0:
67,107,86357,6,0,B|75:203|75:203|78:204|78:204|86:313,1,194.400004746094,6|0,3:2|0:0,0:0:0:0:
84,298,86700,1,10,0:2:0:0:
191,114,86871,1,0,3:2:0:0:
312,291,87043,5,10,0:2:0:0:
179,253,87214,1,8,3:2:0:0:
343,131,87386,5,2,3:2:0:0:
381,92,87471,1,0,3:2:0:0:
432,110,87557,1,0,3:2:0:0:
455,79,87643,1,0,3:2:0:0:
481,106,87729,6,0,B|500:174|449:229|428:187|377:232|397:310,1,226.799993078613,6|0,3:2|0:0,0:0:0:0:
310,367,88414,2,0,B|214:362|214:362|194:332|194:332|87:324,1,226.799993078613,2|0,0:2|0:0,0:0:0:0:
41,257,89100,6,0,B|13:201|13:201|47:150,1,122.40000074707,2|0,0:2|0:0,0:0:0:0:
