osu file format v14

[General]
AudioFilename: audio.mp3
AudioLeadIn: 0
PreviewTime: 66321
Countdown: 0
SampleSet: None
StackLeniency: 0.6
Mode: 0
LetterboxInBreaks: 0
WidescreenStoryboard: 1

[Editor]
Bookmarks: 11378,25949,34178,45149,63321,80635,100006,121949,143892,165835,187778,198749,215206,234406,264578
DistanceSpacing: 1.5
BeatDivisor: 4
GridSize: 4
TimelineZoom: 1.5

[Metadata]
Title:Connect
TitleUnicode:コネクト
Artist:ClariS
ArtistUnicode:ClariS
Creator:Ringer
Version:Insane
Source:魔法少女まどか☆マギカ
Tags:puella magi madoka magica magical girl mahou shoujou shoujo full version
BeatmapID:1750440
BeatmapSetID:822274

[Difficulty]
HPDrainRate:4.8
CircleSize:3.8
OverallDifficulty:7.5
ApproachRate:9
SliderMultiplier:1.5
SliderTickRate:1

[Events]
//Background and Video events
0,0,"326081.jpg",0,0
//Break Periods
//Storyboard Layer 0 (Background)
//Storyboard Layer 1 (Fail)
//Storyboard Layer 2 (Pass)
//Storyboard Layer 3 (Foreground)
//Storyboard Sound Samples

[TimingPoints]
1264,342.857142857143,4,2,1,30,1,0
1264,-133.333333333333,4,2,1,30,0,0
9492,-133.333333333333,4,2,1,40,0,0
10692,-172.413793103448,4,2,1,30,0,0
11378,-172.413793103448,4,2,1,5,0,0
11892,-100,4,2,1,60,0,0
12235,-100,4,3,1,60,0,0
12492,-100,4,3,1,5,0,0
12578,-100,4,3,1,60,0,0
15235,-100,4,3,1,5,0,0
15321,-100,4,3,1,60,0,0
17978,-100,4,3,1,5,0,0
18064,-100,4,3,1,60,0,0
20806,-100,4,3,1,45,0,0
21157,-100,4,3,1,50,0,0
21492,-100,4,3,1,55,0,0
21835,-100,4,3,1,60,0,0
23206,-117.647058823529,4,3,2,40,0,0
44464,-117.647058823529,4,3,2,40,0,0
44721,-200,4,3,2,5,0,0
44806,-100,4,3,2,55,0,0
45149,-100,4,3,2,55,0,0
45321,-100,4,3,2,50,0,0
61606,-100,4,3,2,50,0,0
62978,-100,4,3,2,55,0,0
64264,-100,4,3,2,5,0,0
64349,-100,4,3,2,60,0,0
65721,-133.333333333333,4,3,2,40,0,0
66321,-133.333333333333,4,3,2,5,0,0
67092,-100,4,3,1,65,0,1
82949,-100,4,3,1,5,0,1
83035,-100,4,3,1,65,0,1
87664,-100,4,3,1,60,0,0
89292,-100,4,3,1,5,0,0
89378,-100,4,3,1,60,0,0
92035,-100,4,3,1,5,0,0
92121,-100,4,3,1,60,0,0
94778,-100,4,3,1,5,0,0
94864,-100,4,3,1,60,0,0
100006,-117.647058823529,4,3,2,40,0,0
110978,-100,4,3,2,50,0,0
121606,-100,4,3,2,55,0,0
121949,-100,4,3,2,50,0,0
126749,-100,4,3,2,50,0,0
127092,-100,4,3,2,50,0,0
141149,-100,4,3,2,60,0,0
142521,-133.333333333333,4,3,2,40,0,0
143121,-133.333333333333,4,3,2,5,0,0
143892,-100,4,3,1,65,0,1
159749,-100,4,3,1,5,0,1
159835,-100,4,3,1,65,0,1
164464,-100,4,3,1,60,0,0
165835,-100,4,3,2,45,0,0
167292,-100,4,3,2,5,0,0
167378,-100,4,3,2,45,0,0
170035,-100,4,3,2,5,0,0
170121,-100,4,3,2,45,0,0
172778,-100,4,3,2,5,0,0
172864,-100,4,3,2,45,0,0
189149,-100,4,3,2,45,0,0
189235,-100,4,3,2,48,0,0
189321,-100,4,3,2,50,0,0
189406,-100,4,3,2,53,0,0
189492,-100,4,3,2,55,0,0
192664,-100,4,3,2,5,0,0
192749,-100,4,3,2,45,0,0
198406,-100,4,3,2,5,0,0
198578,-100,4,3,2,5,0,0
198749,-117.647058823529,4,3,2,35,0,0
204235,-100,4,3,2,50,0,0
209292,-100,4,3,2,5,0,0
209378,-100,4,3,2,50,0,0
210921,-100,4,3,2,65,0,0
214349,-133.333333333333,4,3,2,50,0,0
215206,-100,4,3,1,70,0,1
228321,-100,4,3,1,5,0,1
228406,-100,4,3,1,70,0,1
233035,-100,4,3,1,60,0,0
234664,-100,4,3,1,5,0,0
234749,-100,4,3,1,60,0,0
237406,-100,4,3,1,5,0,0
237492,-100,4,3,1,60,0,0
240149,-100,4,3,1,5,0,0
240235,-100,4,3,1,60,0,0
242892,-100,4,3,1,5,0,0
242978,-100,4,3,1,60,0,0
245635,-100,4,3,1,5,0,0
245721,-100,4,3,1,60,0,0
248378,-100,4,3,1,5,0,0
248464,-100,4,3,1,60,0,0
251121,-100,4,3,1,5,0,0
251206,-100,4,3,1,60,0,0
253606,-100,4,3,1,60,0,1
253949,-100,4,3,1,65,0,1
256692,-100,4,3,1,70,0,1
257721,-100,4,3,1,75,0,1
259092,-200,4,3,1,75,0,1
259435,-200,4,2,1,35,0,0
260121,-200,4,2,1,30,0,0
260806,-200,4,2,1,25,0,0
261492,-200,4,2,1,20,0,0
262178,-200,4,2,1,15,0,0
262864,-200,4,2,1,10,0,0
264578,-200,4,2,1,5,0,0

[Colours]
Combo1 : 255,255,176
Combo2 : 255,210,233
Combo3 : 191,220,255
Combo4 : 230,147,149
Combo5 : 185,168,208

[HitObjects]
120,76,1264,5,2,0:0:0:0:
120,76,1435,2,0,L|174:90,1,56.2500021457673,0|2,0:0|0:0,0:0:0:0:
356,144,1777,1,0,0:0:0:0:
356,144,1949,1,0,0:0:0:0:
356,144,2121,1,2,0:0:0:0:
410,129,2635,5,2,0:0:0:0:
410,129,2806,2,0,L|348:145,1,56.2500021457673,0|2,0:0|0:0,0:0:0:0:
174,197,3149,1,0,0:0:0:0:
174,197,3320,1,0,0:0:0:0:
174,197,3492,1,2,0:0:0:0:
120,184,4006,5,2,0:0:0:0:
120,184,4178,2,0,P|152:186|183:204,1,56.2500021457673,0|2,0:0|0:0,0:0:0:0:
356,252,4521,1,0,0:0:0:0:
356,252,4692,1,0,0:0:0:0:
356,252,4864,1,2,0:0:0:0:
256,336,5206,1,0,0:0:0:0:
356,252,5378,6,0,L|371:194,1,56.2500021457673,2|0,0:0|0:0,0:0:0:0:
396,100,5721,2,0,P|372:88|332:84,1,56.2500021457673,0|0,0:0|0:0,0:0:0:0:
168,83,6064,2,0,P|141:87|116:100,1,56.2500021457673,2|0,0:0|0:0,0:0:0:0:
141,197,6406,2,0,L|156:252,1,56.2500021457673,0|0,0:0|0:0,0:0:0:0:
256,336,6749,5,2,0:0:0:0:
256,336,6921,2,0,L|256:272,1,56.2500021457673,0|2,0:0|0:0,0:0:0:0:
256,88,7264,1,0,0:0:0:0:
256,88,7435,1,0,0:0:0:0:
256,88,7606,1,2,0:0:0:0:
256,31,8121,5,2,0:0:0:0:
256,31,8292,2,0,L|256:95,1,56.2500021457673,0|2,0:0|0:0,0:0:0:0:
256,279,8635,1,0,0:0:0:0:
256,279,8807,1,0,0:0:0:0:
256,279,8978,1,2,0:0:0:0:
356,251,9492,5,2,0:0:0:0:
256,335,9664,2,0,L|255:270,1,56.2500021457673,0|2,0:0|0:0,0:0:0:0:
256,168,10006,1,0,0:0:0:0:
356,84,10178,1,0,0:0:0:0:
256,0,10350,1,2,0:0:0:0:
156,84,10521,1,0,0:0:0:0:
256,168,10692,2,0,B|232:248|284:248|256:340,1,174.000005310059,2|0,0:0|0:0,0:0:0:0:
164,296,11892,5,0,0:0:0:0:
152,292,11978,1,0,0:0:0:0:
140,288,12064,1,0,0:0:0:0:
128,284,12149,1,0,0:0:0:0:
116,280,12235,6,0,B|104:216|104:216|108:184|108:184|100:120,1,150,12|8,0:0|0:0,0:0:0:0:
96,0,12921,1,8,0:0:0:0:
16,160,13092,1,0,0:0:0:0:
192,148,13264,1,8,0:0:0:0:
96,0,13435,6,0,L|68:160,1,150,4|0,0:0|0:0,0:0:0:0:
43,291,13949,2,0,P|99:287|127:271,1,75,8|0,0:0|0:0,0:0:0:0:
183,179,14292,2,0,P|218:166|255:167,1,75,8|0,0:0|0:0,0:0:0:0:
323,267,14635,2,0,P|369:235|385:207,1,75,8|0,0:0|0:0,0:0:0:0:
416,0,14978,6,0,L|444:160,1,150,12|8,0:0|0:0,0:0:0:0:
469,291,15664,1,8,0:0:0:0:
296,172,15835,1,8,0:0:0:0:
296,172,15921,1,8,0:0:0:0:
296,172,16006,1,8,0:0:0:0:
416,0,16178,6,0,B|428:64|428:64|424:96|424:96|432:160,1,150,4|0,0:0|0:0,0:0:0:0:
469,291,16692,2,0,P|413:287|385:271,1,75,8|0,0:0|0:0,0:0:0:0:
329,179,17035,2,0,P|293:166|256:167,1,75,8|0,0:0|0:0,0:0:0:0:
189,267,17378,1,8,0:0:0:0:
177,271,17464,1,8,0:0:0:0:
165,275,17550,1,8,0:0:0:0:
153,279,17635,1,8,0:0:0:0:
141,283,17721,6,0,P|86:241|70:154,1,150,12|8,0:0|0:0,0:0:0:0:
69,29,18406,1,8,0:0:0:0:
184,176,18578,1,0,0:0:0:0:
0,96,18749,1,8,0:0:0:0:
227,69,18921,6,0,P|281:110|297:197,1,150,4|0,0:0|0:0,0:0:0:0:
299,323,19435,2,0,P|259:335|203:327,1,75,8|0,0:0|0:0,0:0:0:0:
134,250,19778,2,0,P|172:246|207:257,1,75,8|0,0:0|0:0,0:0:0:0:
299,323,20121,2,0,P|329:294|350:241,1,75,8|0,0:0|0:0,0:0:0:0:
443,29,20464,5,4,0:0:0:0:
472,176,20806,1,8,0:0:0:0:
443,29,20978,1,8,0:0:0:0:
331,128,21149,1,8,0:0:0:0:
472,176,21321,1,8,0:0:0:0:
337,22,21492,1,8,0:0:0:0:
272,216,21664,1,8,0:0:0:0:
472,176,21835,6,0,B|408:140|344:168|344:168|288:196|244:172,1,225,12|8,0:0|0:0,0:0:0:0:
245,168,22435,1,8,0:0:0:0:
236,160,22521,1,8,0:0:0:0:
147,39,22692,1,8,0:0:0:0:
87,175,22863,1,8,0:0:0:0:
176,296,23035,1,0,0:0:0:0:
176,296,23121,1,0,0:0:0:0:
176,296,23206,6,0,L|239:290,1,63.7500012159348,6|0,0:0|0:0,0:0:0:0:
336,280,23549,2,0,B|360:216|360:216|352:128,1,127.50000243187,2|2,0:0|0:0,0:0:0:0:
348,60,24064,1,0,0:0:0:0:
348,60,24235,1,2,0:0:0:0:
272,204,24406,1,0,0:0:0:0:
272,204,24578,6,0,L|124:191,1,127.50000243187,2|2,0:0|0:0,0:0:0:0:
48,184,25092,2,0,L|0:232,2,63.7500012159348,0|2|0,0:0|0:0|0:0,0:0:0:0:
48,184,25606,1,2,0:0:0:0:
148,56,25778,1,0,0:0:0:0:
148,56,25949,6,0,L|211:61,1,63.7500012159348,2|0,0:0|0:0,0:0:0:0:
308,68,26292,2,0,P|343:106|344:193,1,127.50000243187,2|2,0:0|0:0,0:0:0:0:
328,272,26806,1,0,0:0:0:0:
328,272,26978,1,2,0:0:0:0:
169,235,27149,1,0,0:0:0:0:
169,235,27321,6,0,B|153:171|185:171|173:107,1,127.50000243187,2|2,0:0|0:0,0:0:0:0:
168,12,27835,2,0,P|120:28|92:52,2,63.7500012159348,0|2|0,0:0|0:0|0:0,0:0:0:0:
344,12,28349,1,2,0:0:0:0:
256,152,28521,1,0,0:0:0:0:
354,6,28692,6,0,L|359:69,1,63.7500012159348,2|0,0:0|0:0,0:0:0:0:
364,164,29035,2,0,P|352:214|395:291,1,127.50000243187,2|2,0:0|0:0,0:0:0:0:
464,336,29549,1,0,0:0:0:0:
464,336,29721,1,2,0:0:0:0:
500,177,29892,1,0,0:0:0:0:
500,177,30064,6,0,B|448:132|448:132|362:109,1,127.50000243187,2|2,0:0|0:0,0:0:0:0:
296,96,30578,2,0,L|247:47,2,63.7500012159348,0|2|0,0:0|0:0|0:0,0:0:0:0:
296,96,31092,1,2,0:0:0:0:
412,212,31264,1,0,0:0:0:0:
412,212,31435,6,0,B|348:196|348:228|284:216,1,127.50000243187,2|2,0:0|0:0,0:0:0:0:
192,208,31949,1,0,0:0:0:0:
251,67,32121,2,0,L|245:130,1,63.7500012159348,2|0,0:0|0:0,0:0:0:0:
245,130,32464,1,2,0:0:0:0:
233,294,32635,1,0,0:0:0:0:
233,294,32806,6,0,B|169:278|169:310|105:298,1,127.50000243187,2|2,0:0|0:0,0:0:0:0:
10,303,33321,2,0,P|26:351|50:379,2,63.7500012159348,0|2|0,0:0|0:0|0:0,0:0:0:0:
10,127,33835,1,2,0:0:0:0:
136,212,34006,1,0,0:0:0:0:
3,116,34178,6,0,L|66:110,1,63.7500012159348,2|0,0:0|0:0,0:0:0:0:
164,104,34521,2,0,P|228:144|248:213,1,127.50000243187,2|2,0:0|0:0,0:0:0:0:
256,284,35035,1,0,0:0:0:0:
256,284,35207,1,2,0:0:0:0:
97,247,35378,1,0,0:0:0:0:
97,247,35549,6,0,B|66:185|66:185|67:96,1,127.50000243187,2|2,0:0|0:0,0:0:0:0:
64,28,36064,2,0,L|-21:5,2,63.7500012159348,0|2|0,0:0|0:0|0:0,0:0:0:0:
68,32,36578,1,2,0:0:0:0:
227,69,36749,1,0,0:0:0:0:
227,69,36921,6,0,L|233:140,1,63.7500012159348,2|0,0:0|0:0,0:0:0:0:
240,228,37264,2,0,P|267:284|323:313,1,127.50000243187,2|2,0:0|0:0,0:0:0:0:
420,328,37778,1,0,0:0:0:0:
420,328,37949,1,2,0:0:0:0:
457,169,38121,1,2,0:0:0:0:
457,169,38292,6,0,L|328:192,1,127.50000243187,2|2,0:0|0:0,0:0:0:0:
240,224,38806,2,0,P|240:168|256:136,2,63.7500012159348,0|2|0,0:0|0:0|0:0,0:0:0:0:
327,376,39321,1,2,0:0:0:0:
331,191,39492,1,0,0:0:0:0:
316,383,39664,6,0,L|240:376,1,63.7500012159348,2|0,0:0|0:0,0:0:0:0:
156,368,40006,2,0,B|143:300|143:300|166:214,1,127.50000243187,2|2,0:0|0:0,0:0:0:0:
180,148,40521,1,0,0:0:0:0:
180,148,40692,1,2,0:0:0:0:
228,304,40864,1,0,0:0:0:0:
228,304,41035,6,0,B|292:320|292:288|356:300,1,127.50000243187,2|2,0:0|0:0,0:0:0:0:
448,308,41549,1,0,0:0:0:0:
412,157,41721,2,0,L|406:228,1,63.7500012159348,2|0,0:0|0:0,0:0:0:0:
406,220,42064,1,2,0:0:0:0:
392,384,42235,1,0,0:0:0:0:
392,384,42406,6,0,B|322:378|322:378|245:334,1,127.50000243187,2|2,0:0|0:0,0:0:0:0:
192,296,42921,2,0,P|176:336|180:376,2,63.7500012159348,0|2|0,0:0|0:0|0:0,0:0:0:0:
192,296,43435,1,2,0:0:0:0:
256,144,43606,1,0,0:0:0:0:
256,144,43778,6,0,L|391:132,1,127.50000243187,2|2,0:0|0:0,0:0:0:0:
476,68,44292,1,0,0:0:0:0:
476,68,44464,2,0,L|336:56,1,127.50000243187,2|0,0:0|0:0,0:0:0:0:
167,56,44978,1,0,0:0:0:0:
383,132,45149,6,0,P|407:200|403:236,1,75,12|0,0:0|0:0,0:0:0:0:
504,184,45492,2,0,P|490:254|469:284,1,75,8|0,0:0|0:0,0:0:0:0:
400,299,45835,2,0,P|332:275|296:279,1,75,8|0,0:0|0:0,0:0:0:0:
220,248,46178,1,8,0:0:0:0:
274,111,46349,1,0,0:0:0:0:
129,132,46521,6,0,P|105:200|109:236,1,75,8|0,0:0|0:0,0:0:0:0:
8,184,46864,2,0,P|21:254|42:284,1,75,8|0,0:0|0:0,0:0:0:0:
112,299,47207,2,0,P|180:275|216:279,1,75,8|0,0:0|0:0,0:0:0:0:
292,248,47549,2,0,L|271:170,1,75,8|0,0:0|0:0,0:0:0:0:
256,24,47892,6,0,P|336:24|416:80,1,150,8|8,0:0|0:0,0:0:0:0:
441,198,48406,1,0,0:0:0:0:
296,168,48578,2,0,P|216:168|136:112,1,150,8|8,0:0|0:0,0:0:0:0:
45,34,49092,1,0,0:0:0:0:
7,184,49264,6,0,P|9:221|22:256,1,75,8|0,0:0|0:0,0:0:0:0:
120,276,49606,2,0,P|118:238|105:203,1,75,8|0,0:0|0:0,0:0:0:0:
72,108,49949,2,0,P|140:84|176:88,1,75,8|0,0:0|0:0,0:0:0:0:
256,76,50292,1,8,0:0:0:0:
218,256,50464,1,0,0:0:0:0:
370,83,50635,6,0,P|410:152|401:249,1,150,8|8,0:0|0:0,0:0:0:0:
278,256,51149,2,0,P|252:216|240:164,2,75,0|8|0,0:0|0:0|0:0,0:0:0:0:
369,357,51664,6,0,P|409:287|400:190,1,150,8|8,0:0|0:0,0:0:0:0:
277,183,52178,2,0,P|250:223|238:275,2,75,0|8|0,0:0|0:0|0:0,0:0:0:0:
370,83,52692,2,0,P|371:120|384:155,1,75,8|0,0:0|0:0,0:0:0:0:
424,291,53035,1,8,0:0:0:0:
468,100,53206,1,0,0:0:0:0:
280,157,53378,6,0,P|278:194|265:229,1,75,8|0,0:0|0:0,0:0:0:0:
332,304,53721,2,0,P|298:321|262:328,1,75,8|0,0:0|0:0,0:0:0:0:
176,276,54064,2,0,P|144:256|120:227,1,75,8|0,0:0|0:0,0:0:0:0:
44,100,54406,1,8,0:0:0:0:
166,34,54578,1,0,0:0:0:0:
232,157,54749,6,0,P|233:194|246:229,1,75,8|0,0:0|0:0,0:0:0:0:
180,304,55092,2,0,P|213:321|249:328,1,75,8|0,0:0|0:0,0:0:0:0:
336,276,55435,2,0,P|367:256|391:227,1,75,8|0,0:0|0:0,0:0:0:0:
468,100,55778,1,8,0:0:0:0:
345,34,55949,1,2,0:0:0:0:
256,184,56121,6,0,L|256:268,1,75,12|0,0:0|0:0,0:0:0:0:
292,352,56464,2,0,P|254:359|200:340,1,75,8|0,0:0|0:0,0:0:0:0:
176,276,56806,2,0,P|145:256|121:227,1,75,8|0,0:0|0:0,0:0:0:0:
44,100,57149,1,8,0:0:0:0:
167,34,57320,1,0,0:0:0:0:
256,146,57492,6,0,L|256:230,1,75,8|0,0:0|0:0,0:0:0:0:
220,314,57835,2,0,P|258:321|312:302,1,75,8|0,0:0|0:0,0:0:0:0:
336,238,58178,2,0,P|352:203|348:146,1,75,8|0,0:0|0:0,0:0:0:0:
345,0,58521,1,8,0:0:0:0:
256,109,58692,1,0,0:0:0:0:
256,109,58778,1,0,0:0:0:0:
256,109,58864,6,0,P|253:183|215:246,1,150,8|8,0:0|0:0,0:0:0:0:
83,204,59378,2,0,P|82:155|100:105,2,75,0|8|0,0:0|0:0|0:0,0:0:0:0:
112,339,59892,5,8,0:0:0:0:
75,127,60064,1,2,0:0:0:0:
264,99,60235,1,8,0:0:0:0:
88,130,60406,1,2,0:0:0:0:
277,102,60577,1,10,0:0:0:0:
347,120,60921,6,0,P|312:103|255:107,1,75,8|0,0:0|0:0,0:0:0:0:
88,130,61264,2,0,P|122:146|179:142,1,75,8|0,0:0|0:0,0:0:0:0:
292,184,61606,6,0,P|320:240|376:200,1,150,12|8,0:0|0:0,0:0:0:0:
402,56,62121,1,0,0:0:0:0:
260,18,62292,2,0,P|221:14|169:37,1,75,8|0,0:0|0:0,0:0:0:0:
20,115,62635,2,0,P|58:118|110:95,1,75,8|0,0:0|0:0,0:0:0:0:
230,96,62978,6,0,P|275:139|314:82,1,150,12|8,0:0|0:0,0:0:0:0:
187,25,63492,1,0,0:0:0:0:
48,36,63664,2,0,L|61:191,1,150,10|10,0:0|0:0,0:0:0:0:
145,199,64349,6,0,P|99:242|60:185,1,150,12|8,0:0|0:0,0:0:0:0:
76,27,64864,1,8,0:0:0:0:
200,132,65035,1,8,0:0:0:0:
47,187,65206,1,8,0:0:0:0:
74,13,65378,1,8,0:0:0:0:
306,58,65549,1,8,0:0:0:0:
151,236,65721,6,0,B|204:260|212:312|212:312|240:260|304:260,1,196.875007510186,4|0,0:0|0:0,0:0:0:0:
287,260,67092,6,0,P|368:252|428:188,1,150,6|8,0:0|0:0,0:0:0:0:
496,99,67606,1,2,0:0:0:0:
491,268,67778,1,0,0:0:0:0:
403,115,67949,1,0,0:0:0:0:
343,267,68121,2,0,P|304:268|260:256,1,75,8|0,0:0|0:0,0:0:0:0:
98,212,68464,5,2,0:0:0:0:
225,88,68635,1,0,0:0:0:0:
171,278,68806,1,8,0:0:0:0:
5,243,68978,2,0,P|0:196|16:148,1,75,2|0,0:0|0:0,0:0:0:0:
131,51,69321,2,0,P|137:88|132:125,1,75,0|8,0:0|0:0,0:0:0:0:
78,309,69835,6,0,P|134:355|208:360,1,150,2|8,0:0|0:0,0:0:0:0:
340,337,70349,1,2,0:0:0:0:
208,255,70521,1,0,0:0:0:0:
64,311,70692,1,0,0:0:0:0:
200,372,70864,2,0,L|208:280,1,75,8|0,0:0|0:0,0:0:0:0:
225,88,71206,5,2,0:0:0:0:
303,255,71378,1,0,0:0:0:0:
287,88,71549,1,8,0:0:0:0:
208,255,71721,1,2,0:0:0:0:
225,88,72064,5,0,0:0:0:0:
208,255,72235,1,10,0:0:0:0:
71,156,72406,1,0,0:0:0:0:
258,175,72578,6,0,B|338:159|338:195|414:179,1,150,2|8,0:0|0:0,0:0:0:0:
484,71,73092,1,2,0:0:0:0:
479,240,73264,1,0,0:0:0:0:
391,87,73435,1,0,0:0:0:0:
331,239,73606,2,0,P|293:229|253:206,1,75,8|0,0:0|0:0,0:0:0:0:
108,122,73949,5,2,0:0:0:0:
263,35,74120,1,0,0:0:0:0:
162,205,74291,1,8,0:0:0:0:
11,128,74463,2,0,P|18:81|46:39,1,75,2|0,0:0|0:0,0:0:0:0:
205,116,74806,2,0,P|197:162|169:204,1,75,0|8,0:0|0:0,0:0:0:0:
87,351,75321,6,0,L|71:276,1,75,6|0,0:0|0:0,0:0:0:0:
108,122,75664,2,0,L|110:196,1,75,10|0,0:0|0:0,0:0:0:0:
101,349,76006,2,0,L|175:333,1,75,10|0,0:0|0:0,0:0:0:0:
380,284,76349,1,8,0:0:0:0:
256,70,76520,1,6,0:0:0:0:
132,284,76864,5,0,0:0:0:0:
256,70,77035,1,10,0:0:0:0:
318,177,77206,1,0,0:0:0:0:
194,177,77378,2,0,P|156:167|116:144,1,75,2|0,0:0|0:0,0:0:0:0:
40,40,77721,1,10,0:0:0:0:
40,40,77806,1,8,0:0:0:0:
40,40,77892,1,8,0:0:0:0:
256,56,78064,6,0,L|265:207,1,150,6|8,0:0|0:0,0:0:0:0:
274,338,78578,1,2,0:0:0:0:
352,166,78749,1,0,0:0:0:0:
202,276,78921,1,0,0:0:0:0:
361,299,79092,2,0,P|388:271|412:231,1,75,8|0,0:0|0:0,0:0:0:0:
494,85,79435,5,2,0:0:0:0:
342,16,79606,1,8,0:0:0:0:
342,16,79692,1,8,0:0:0:0:
342,16,79778,1,8,0:0:0:0:
256,192,79949,5,10,0:0:0:0:
256,192,80292,5,8,0:0:0:0:
256,192,80635,6,0,L|105:201,1,150,14|0,0:0|0:0,0:0:0:0:
51,355,81149,1,8,0:0:0:0:
218,288,81321,1,2,0:0:0:0:
148,115,81492,1,0,0:0:0:0:
34,262,81664,1,0,0:0:0:0:
235,380,81835,2,0,P|275:362|304:330,1,75,8|0,0:0|0:0,0:0:0:0:
349,187,82178,5,2,0:0:0:0:
218,288,82349,1,0,0:0:0:0:
381,299,82521,1,8,0:0:0:0:
187,177,82692,2,0,P|174:142|174:103,1,75,6|0,0:0|0:0,0:0:0:0:
337,112,83035,2,0,P|295:125|252:122,1,75,2|8,0:0|0:0,0:0:0:0:
145,17,83378,1,0,0:0:0:0:
93,210,83549,6,0,P|140:268|224:268,1,150,6|8,0:0|0:0,0:0:0:0:
339,241,84064,1,2,0:0:0:0:
259,111,84235,1,0,0:0:0:0:
107,116,84406,1,0,0:0:0:0:
187,246,84578,1,10,0:0:0:0:
365,144,84749,1,0,0:0:0:0:
365,144,84835,1,0,0:0:0:0:
365,144,84921,6,0,P|425:185|436:258,1,150,2|8,0:0|0:0,0:0:0:0:
419,371,85435,1,2,0:0:0:0:
267,376,85606,1,0,0:0:0:0:
187,246,85777,1,0,0:0:0:0:
339,241,85949,1,10,0:0:0:0:
160,342,86121,1,0,0:0:0:0:
160,342,86206,1,0,0:0:0:0:
160,342,86292,6,0,B|176:262|140:262|156:186,1,150,6|8,0:0|0:0,0:0:0:0:
156,4,86806,1,10,0:0:0:0:
250,99,86977,1,10,0:0:0:0:
60,98,87149,1,10,0:0:0:0:
56,110,87235,1,0,0:0:0:0:
52,122,87321,1,10,0:0:0:0:
48,134,87406,1,0,0:0:0:0:
44,146,87492,1,10,0:0:0:0:
40,158,87578,1,8,0:0:0:0:
36,170,87664,5,6,0:0:0:0:
36,170,88692,1,0,0:0:0:0:
40,158,88778,1,0,0:0:0:0:
44,146,88864,1,0,0:0:0:0:
48,134,88950,1,0,0:0:0:0:
52,122,89035,6,0,B|116:110|116:110|148:114|148:114|212:106,1,150,12|8,0:0|0:0,0:0:0:0:
332,102,89721,1,8,0:0:0:0:
172,22,89892,1,0,0:0:0:0:
184,198,90064,1,8,0:0:0:0:
332,102,90235,6,0,P|378:157|370:230,1,150,4|0,0:0|0:0,0:0:0:0:
284,336,90749,2,0,L|272:256,1,75,8|0,0:0|0:0,0:0:0:0:
240,75,91092,2,0,L|228:155,1,75,8|0,0:0|0:0,0:0:0:0:
196,336,91435,2,0,L|184:256,1,75,8|0,0:0|0:0,0:0:0:0:
148,48,91778,6,0,P|101:103|109:176,1,150,12|8,0:0|0:0,0:0:0:0:
188,273,92464,1,8,0:0:0:0:
308,135,92635,1,8,0:0:0:0:
308,135,92721,1,8,0:0:0:0:
308,135,92806,1,8,0:0:0:0:
148,48,92978,6,0,L|133:212,1,150,4|0,0:0|0:0,0:0:0:0:
121,347,93492,2,0,L|201:335,1,75,8|0,0:0|0:0,0:0:0:0:
382,303,93835,2,0,L|302:291,1,75,8|0,0:0|0:0,0:0:0:0:
128,248,94178,1,8,0:0:0:0:
128,234,94264,1,8,0:0:0:0:
130,222,94350,1,8,0:0:0:0:
132,210,94436,1,8,0:0:0:0:
134,198,94521,6,0,P|158:129|225:100,1,150,0|8,0:0|0:0,0:0:0:0:
354,71,95206,1,8,0:0:0:0:
228,200,95378,1,0,0:0:0:0:
382,156,95549,1,8,0:0:0:0:
256,285,95721,6,0,B|192:273|192:273|160:277|160:277|96:269,1,150,4|0,0:0|0:0,0:0:0:0:
40,152,96235,2,0,P|24:120|20:76,1,75,8|0,0:0|0:0,0:0:0:0:
100,0,96578,2,0,P|135:2|175:20,1,75,8|0,0:0|0:0,0:0:0:0:
201,127,96921,2,0,L|179:208,1,75,8|0,0:0|0:0,0:0:0:0:
69,355,97264,5,4,0:0:0:0:
40,208,97606,1,8,0:0:0:0:
69,355,97778,1,8,0:0:0:0:
181,256,97949,1,8,0:0:0:0:
40,208,98121,1,8,0:0:0:0:
175,362,98292,1,8,0:0:0:0:
240,168,98464,1,8,0:0:0:0:
40,208,98635,6,0,B|104:244|168:216|168:216|224:188|268:212,1,225,4|8,0:0|0:0,0:0:0:0:
267,216,99235,1,8,0:0:0:0:
276,224,99321,1,8,0:0:0:0:
365,345,99492,1,8,0:0:0:0:
425,209,99663,1,8,0:0:0:0:
336,88,99835,1,0,0:0:0:0:
336,88,99921,1,0,0:0:0:0:
336,88,100006,6,0,L|273:94,1,63.7500012159348,14|0,0:0|0:0,0:0:0:0:
186,49,100349,2,0,P|175:88|184:136,1,63.7500012159348,8|0,0:0|0:0,0:0:0:0:
240,185,100692,2,0,L|303:191,1,63.7500012159348,8|0,0:0|0:0,0:0:0:0:
398,173,101035,2,0,P|398:204|389:235,1,63.7500012159348,8|0,0:0|0:0,0:0:0:0:
256,360,101378,6,0,L|256:288,1,63.7500012159348,10|0,0:0|0:0,0:0:0:0:
256,136,101721,1,8,0:0:0:0:
259,285,101892,2,0,P|288:295|320:297,1,63.7500012159348,2|8,0:0|0:0,0:0:0:0:
416,304,102235,1,0,0:0:0:0:
468,224,102406,1,8,0:0:0:0:
407,149,102578,1,0,0:0:0:0:
253,285,102749,6,0,P|223:295|191:297,1,63.7500012159348,10|0,0:0|0:0,0:0:0:0:
96,304,103092,2,0,L|90:241,1,63.7500012159348,8|0,0:0|0:0,0:0:0:0:
40,156,103435,2,0,P|70:146|102:144,1,63.7500012159348,8|0,0:0|0:0,0:0:0:0:
197,150,103778,2,0,L|203:87,1,63.7500012159348,8|0,0:0|0:0,0:0:0:0:
354,113,104121,6,0,P|382:127|406:148,1,63.7500012159348,8|0,0:0|0:0,0:0:0:0:
486,286,104464,1,8,0:0:0:0:
392,160,104635,2,0,L|373:229,1,63.7500012159348,2|8,0:0|0:0,0:0:0:0:
344,312,104978,1,0,0:0:0:0:
256,352,105149,1,10,0:0:0:0:
190,280,105321,1,0,0:0:0:0:
318,165,105492,6,0,P|339:141|353:112,1,63.7500012159348,10|0,0:0|0:0,0:0:0:0:
396,28,105835,2,0,B|364:16|364:16|316:24,1,63.7500012159348,8|0,0:0|0:0,0:0:0:0:
256,72,106178,2,0,B|224:84|224:84|176:76,1,63.7500012159348,8|0,0:0|0:0,0:0:0:0:
100,100,106521,2,0,P|114:128|135:152,1,63.7500012159348,8|0,0:0|0:0,0:0:0:0:
256,287,106864,6,0,B|268:255|268:255|260:207,1,63.7500012159348,10|0,0:0|0:0,0:0:0:0:
264,66,107207,1,8,0:0:0:0:
267,215,107378,2,0,P|296:225|328:227,1,63.7500012159348,2|8,0:0|0:0,0:0:0:0:
424,234,107721,1,0,0:0:0:0:
476,154,107892,1,8,0:0:0:0:
415,79,108064,1,0,0:0:0:0:
245,215,108235,6,0,P|184:236|124:216,1,127.50000243187,10|8,0:0|0:0,0:0:0:0:
72,140,108749,1,0,0:0:0:0:
123,57,108921,2,0,P|184:36|244:56,1,127.50000243187,8|8,0:0|0:0,0:0:0:0:
296,132,109435,1,0,0:0:0:0:
440,290,109606,6,0,P|379:311|319:291,1,127.50000243187,10|8,0:0|0:0,0:0:0:0:
220,228,110120,1,0,0:0:0:0:
192,110,110292,2,0,B|224:98|224:98|272:106,1,63.7500012159348,8|0,0:0|0:0,0:0:0:0:
469,207,110635,1,4,0:0:0:0:
469,207,110978,6,0,L|309:193,1,150,4|8,0:0|0:0,0:0:0:0:
152,176,111664,1,0,0:0:0:0:
323,181,111835,1,0,0:0:0:0:
155,163,112006,2,0,P|137:195|131:232,1,75,8|0,0:0|0:0,0:0:0:0:
276,360,112349,6,0,P|280:300|212:224,1,150,2|8,0:0|0:0,0:0:0:0:
74,104,112864,2,0,P|123:70|223:91,1,150,2|0,0:0|0:0,0:0:0:0:
396,148,113378,1,8,0:0:0:0:
396,148,113721,6,0,P|346:181|246:160,1,150,2|8,0:0|0:0,0:0:0:0:
102,110,114406,1,0,0:0:0:0:
266,159,114577,1,0,0:0:0:0:
108,98,114749,2,0,L|115:181,1,75,8|0,0:0|0:0,0:0:0:0:
126,364,115092,6,0,L|301:348,1,150,2|8,0:0|0:0,0:0:0:0:
461,281,115606,2,0,L|285:265,1,150,2|0,0:0|0:0,0:0:0:0:
126,198,116121,1,8,0:0:0:0:
126,198,116464,6,0,B|206:214|206:178|282:194,1,150,2|8,0:0|0:0,0:0:0:0:
441,174,117149,1,0,0:0:0:0:
270,179,117320,1,0,0:0:0:0:
438,161,117492,2,0,P|455:193|461:230,1,75,8|0,0:0|0:0,0:0:0:0:
317,358,117835,6,0,B|253:346|253:346|221:350|221:350|157:342,1,150,2|8,0:0|0:0,0:0:0:0:
43,225,118349,1,0,0:0:0:0:
161,99,118521,2,0,L|234:118,1,75
438,161,118864,1,8,0:0:0:0:
438,161,119206,6,0,B|374:173|374:173|342:169|342:169|278:177,1,150,0|8,0:0|0:0,0:0:0:0:
133,305,119721,1,0,0:0:0:0:
328,250,119892,2,0,L|347:176,1,75,0|0,0:0|0:0,0:0:0:0:
256,0,120235,2,0,L|256:84,1,75,8|0,0:0|0:0,0:0:0:0:
256,324,120578,6,0,L|341:346,2,75,8|0|0,0:0|0:0|0:0,0:0:0:0:
106,209,121092,2,0,L|125:135,1,75,8|0,0:0|0:0,0:0:0:0:
268,4,121435,1,0,0:0:0:0:
268,253,121606,1,8,0:0:0:0:
280,257,121691,1,8,0:0:0:0:
292,261,121777,1,8,0:0:0:0:
304,265,121863,1,8,0:0:0:0:
316,269,121949,6,0,P|370:222|385:188,1,75,12|0,0:0|0:0,0:0:0:0:
464,184,122292,2,0,P|417:130|383:115,1,75,8|0,0:0|0:0,0:0:0:0:
379,36,122635,2,0,P|325:83|310:117,1,75,8|0,0:0|0:0,0:0:0:0:
304,265,122978,1,8,0:0:0:0:
311,81,123149,1,2,0:0:0:0:
196,269,123321,6,0,P|142:222|127:188,1,75,8|0,0:0|0:0,0:0:0:0:
48,184,123664,2,0,P|95:130|129:115,1,75,8|0,0:0|0:0,0:0:0:0:
133,36,124007,2,0,P|187:83|202:117,1,75,8|0,0:0|0:0,0:0:0:0:
208,265,124349,1,8,0:0:0:0:
201,81,124520,1,2,0:0:0:0:
316,269,124692,6,0,P|370:222|392:144,1,150,10|8,0:0|0:0,0:0:0:0:
320,280,125206,2,0,P|344:308|376:329,2,75,0|8|0,0:0|0:0|0:0,0:0:0:0:
272,68,125721,1,8,0:0:0:0:
239,288,125892,1,2,0:0:0:0:
364,154,126064,5,10,0:0:0:0:
250,282,126235,1,0,0:0:0:0:
375,148,126406,2,0,P|303:146|270:130,1,75,8|0,0:0|0:0,0:0:0:0:
342,54,126749,2,0,P|284:48|208:108,1,150,8|8,0:0|0:0,0:0:0:0:
152,256,127264,1,8,0:0:0:0:
152,256,127349,1,0,0:0:0:0:
152,256,127435,6,0,P|175:309|265:345,1,150,12|8,0:0|0:0,0:0:0:0:
301,238,127949,2,0,P|337:231|375:236,2,75,0|8|0,0:0|0:0|0:0,0:0:0:0:
66,327,128464,1,8,0:0:0:0:
255,345,128635,1,2,0:0:0:0:
217,166,128807,5,8,0:0:0:0:
248,352,128978,2,0,P|211:358|174:354,2,75,0|8|0,0:0|0:0|0:0,0:0:0:0:
483,263,129492,2,0,P|423:223|386:217,1,75,8|0,0:0|0:0,0:0:0:0:
217,166,129835,1,8,0:0:0:0:
353,43,130006,1,0,0:0:0:0:
217,166,130178,6,0,L|193:254,1,75,8|0,0:0|0:0,0:0:0:0:
173,353,130521,2,0,P|137:339|104:304,1,75,8|0,0:0|0:0,0:0:0:0:
23,237,130864,2,0,L|4:165,1,75,8|0,0:0|0:0,0:0:0:0:
8,44,131206,1,8,0:0:0:0:
230,41,131377,1,2,0:0:0:0:
110,194,131549,5,8,0:0:0:0:
222,51,131721,1,2,0:0:0:0:
102,204,131892,2,0,P|174:206|207:222,1,75,8|0,0:0|0:0,0:0:0:0:
135,298,132235,2,0,P|193:304|269:244,1,150,8|8,0:0|0:0,0:0:0:0:
368,132,132749,1,8,0:0:0:0:
264,252,132921,6,0,P|200:217|164:215,1,75,12|0,0:0|0:0,0:0:0:0:
104,260,133264,2,0,P|97:223|101:186,1,75,8|0,0:0|0:0,0:0:0:0:
111,84,133606,2,0,P|146:96|176:118,1,75,8|0,0:0|0:0,0:0:0:0:
349,192,133949,1,8,0:0:0:0:
256,360,134121,1,2,0:0:0:0:
248,252,134292,6,0,P|311:217|347:215,1,75,8|0,0:0|0:0,0:0:0:0:
408,260,134635,2,0,P|414:223|410:186,1,75,8|0,0:0|0:0,0:0:0:0:
401,84,134977,2,0,P|365:96|335:118,1,75,8|0,0:0|0:0,0:0:0:0:
163,192,135320,1,8,0:0:0:0:
256,360,135492,1,0,0:0:0:0:
256,360,135578,1,0,0:0:0:0:
256,360,135664,6,0,L|256:204,1,150,8|8,0:0|0:0,0:0:0:0:
292,112,136178,2,0,P|255:105|218:110,2,75,0|8|0,0:0|0:0|0:0,0:0:0:0:
414,249,136692,5,8,0:0:0:0:
256,347,136864,1,2,0:0:0:0:
98,249,137035,1,8,0:0:0:0:
256,360,137206,1,2,0:0:0:0:
98,262,137377,1,8,0:0:0:0:
27,244,137721,2,0,P|61:261|98:263,1,75,8|0,0:0|0:0,0:0:0:0:
285,233,138064,2,0,P|251:216|214:214,1,75,8|0,0:0|0:0,0:0:0:0:
84,164,138406,6,0,B|128:148|144:112|144:112|164:64|212:76,1,150,12|8,0:0|0:0,0:0:0:0:
456,68,138921,1,0,0:0:0:0:
485,244,139092,2,0,P|451:261|414:263,1,75,8|0,0:0|0:0,0:0:0:0:
227,233,139435,2,0,P|261:216|298:214,1,75,8|0,0:0|0:0,0:0:0:0:
428,164,139778,6,0,B|384:148|368:112|368:112|348:64|300:76,1,150,12|8,0:0|0:0,0:0:0:0:
56,68,140292,1,0,0:0:0:0:
27,244,140464,2,0,L|182:257,1,150,8|8,0:0|0:0,0:0:0:0:
256,308,141149,6,0,P|324:284|344:256,1,100,4|0,0:0|0:0,0:0:0:0:
261,214,141492,2,0,L|199:197,2,50,8|0|0,0:0|0:0|0:0,0:0:0:0:
331,151,141835,2,0,L|299:95,2,50,8|0|0,0:0|0:0|0:0,0:0:0:0:
425,155,142178,2,0,L|441:92,2,50,8|0|0,0:0|0:0|0:0,0:0:0:0:
374,234,142521,6,0,B|321:258|313:310|313:310|285:258|221:258,1,196.875007510186,12|0,0:0|0:0,0:0:0:0:
238,258,143892,6,0,P|161:246|100:181,1,150,6|8,0:0|0:0,0:0:0:0:
29,97,144406,1,2,0:0:0:0:
139,19,144578,1,0,0:0:0:0:
217,129,144749,1,0,0:0:0:0:
238,258,144921,2,0,P|274:272|319:276,1,75,8|0,0:0|0:0,0:0:0:0:
487,290,145264,5,2,0:0:0:0:
410,128,145434,1,0,0:0:0:0:
304,265,145606,1,8,0:0:0:0:
480,277,145778,2,0,P|496:232|493:182,1,75,2|0,0:0|0:0,0:0:0:0:
407,58,146121,2,0,P|391:92|386:129,1,75,0|8,0:0|0:0,0:0:0:0:
391,320,146635,6,0,P|316:341|233:308,1,150,2|8,0:0|0:0,0:0:0:0:
133,262,147149,1,2,0:0:0:0:
200,145,147321,1,0,0:0:0:0:
317,211,147492,1,0,0:0:0:0:
249,320,147664,2,0,P|219:297|200:264,1,75,8|0,0:0|0:0,0:0:0:0:
287,88,148006,5,2,0:0:0:0:
209,255,148178,1,0,0:0:0:0:
225,88,148349,1,8,0:0:0:0:
304,255,148521,1,2,0:0:0:0:
287,88,148864,5,0,0:0:0:0:
304,255,149035,1,8,0:0:0:0:
441,156,149206,1,0,0:0:0:0:
254,175,149378,6,0,B|174:159|174:195|98:179,1,150,2|8,0:0|0:0,0:0:0:0:
28,71,149892,1,2,0:0:0:0:
33,240,150064,1,0,0:0:0:0:
195,287,150235,1,0,0:0:0:0:
256,176,150406,2,0,P|294:170|335:150,1,75,8|0,0:0|0:0,0:0:0:0:
484,71,150749,5,2,0:0:0:0:
479,240,150921,1,0,0:0:0:0:
317,287,151092,1,8,0:0:0:0:
256,176,151264,2,0,P|217:170|176:150,1,75,2|0,0:0|0:0,0:0:0:0:
100,2,151606,2,0,P|137:5|171:20,1,75,0|8,0:0|0:0,0:0:0:0:
256,176,152121,6,0,L|256:252,1,75,6|0,0:0|0:0,0:0:0:0:
256,376,152464,2,0,L|256:300,1,75,10|0,0:0|0:0,0:0:0:0:
256,176,152806,2,0,P|234:145|204:122,1,75,10|0,0:0|0:0,0:0:0:0:
0,61,153149,1,8,0:0:0:0:
1,307,153320,1,6,0:0:0:0:
214,184,153664,5,0,0:0:0:0:
1,307,153835,1,10,0:0:0:0:
1,183,154006,1,0,0:0:0:0:
108,245,154178,2,0,P|146:235|186:212,1,75,2|0,0:0|0:0,0:0:0:0:
256,108,154521,1,10,0:0:0:0:
256,108,154606,1,8,0:0:0:0:
256,108,154692,1,8,0:0:0:0:
256,328,154864,6,0,P|316:279|337:192,1,150,6|8,0:0|0:0,0:0:0:0:
346,80,155378,1,2,0:0:0:0:
186,44,155549,1,0,0:0:0:0:
150,204,155721,1,0,0:0:0:0:
310,240,155892,2,0,P|344:220|376:187,1,75,8|0,0:0|0:0,0:0:0:0:
494,85,156235,5,2,0:0:0:0:
342,16,156406,1,8,0:0:0:0:
342,16,156492,1,8,0:0:0:0:
342,16,156578,1,8,0:0:0:0:
256,192,156749,5,10,0:0:0:0:
256,192,157092,5,8,0:0:0:0:
256,192,157435,6,0,L|407:201,1,150,14|0,0:0|0:0,0:0:0:0:
461,355,157949,1,8,0:0:0:0:
500,206,158121,1,2,0:0:0:0:
382,122,158292,1,0,0:0:0:0:
256,192,158464,1,0,0:0:0:0:
129,261,158635,2,0,P|101:233|77:193,1,75,8|0,0:0|0:0,0:0:0:0:
70,41,158978,5,2,0:0:0:0:
238,23,159149,1,0,0:0:0:0:
256,192,159321,1,8,0:0:0:0:
273,360,159492,2,0,P|311:354|352:334,1,75,6|0,0:0|0:0,0:0:0:0:
475,226,159835,2,0,P|453:194|423:172,1,75,2|8,0:0|0:0,0:0:0:0:
247,108,160178,1,0,0:0:0:0:
222,280,160349,6,0,P|146:261|91:191,1,150,6|8,0:0|0:0,0:0:0:0:
26,100,160863,1,2,0:0:0:0:
108,0,161035,1,0,0:0:0:0:
228,47,161206,1,0,0:0:0:0:
181,167,161378,1,10,0:0:0:0:
290,280,161549,1,0,0:0:0:0:
290,280,161635,1,0,0:0:0:0:
290,280,161721,6,0,P|365:261|420:191,1,150,2|8,0:0|0:0,0:0:0:0:
486,100,162235,1,2,0:0:0:0:
404,0,162407,1,0,0:0:0:0:
284,47,162578,1,0,0:0:0:0:
331,167,162750,1,10,0:0:0:0:
256,314,162921,1,0,0:0:0:0:
256,314,163006,1,0,0:0:0:0:
256,314,163092,6,0,B|236:236|276:236|256:164,1,150,6|10,0:0|0:0,0:0:0:0:
256,8,163606,1,10,0:0:0:0:
162,103,163777,1,10,0:0:0:0:
352,102,163949,1,10,0:0:0:0:
356,114,164035,1,0,0:0:0:0:
360,126,164121,1,10,0:0:0:0:
364,138,164206,1,0,0:0:0:0:
368,150,164292,1,10,0:0:0:0:
372,162,164378,1,8,0:0:0:0:
376,174,164464,5,6,0:0:0:0:
376,174,165835,5,6,0:0:0:0:
376,174,166006,2,0,B|316:160|252:164|252:164|204:212|156:200,1,225,2|8,0:0|0:0,0:0:0:0:
172,104,167035,5,2,0:0:0:0:
163,201,167378,1,2,0:0:0:0:
163,201,167549,2,0,P|136:269|69:299,1,150,2|8,0:0|0:0,0:0:0:0:
256,352,168578,5,2,0:0:0:0:
256,352,168749,2,0,B|288:240|224:240|256:128,1,225,2|8,0:0|0:0,0:0:0:0:
344,188,169778,5,2,0:0:0:0:
255,130,170121,1,2,0:0:0:0:
168,188,170292,1,2,0:0:0:0:
256,144,170464,1,2,0:0:0:0:
209,237,170635,1,10,0:0:0:0:
256,160,170806,1,2,0:0:0:0:
261,264,170977,1,2,0:0:0:0:
256,176,171149,1,2,0:0:0:0:
312,263,171320,5,6,0:0:0:0:
312,263,171492,2,0,B|368:208|444:252|444:252|424:208|424:144,1,225,0|8,0:0|0:0,0:0:0:0:
421,67,172521,1,2,0:0:0:0:
425,173,172864,1,2,0:0:0:0:
425,173,173035,2,0,P|414:224|354:336,1,150,2|8,0:0|0:0,0:0:0:0:
140,311,174064,5,2,0:0:0:0:
140,311,174235,2,0,B|92:248|84:167|84:167|120:188|176:168,1,225,2|8,0:0|0:0,0:0:0:0:
227,113,175092,1,8,0:0:0:0:
136,64,175264,5,6,0:0:0:0:
150,175,175606,1,8,0:0:0:0:
249,208,175777,1,8,0:0:0:0:
152,188,175949,1,8,0:0:0:0:
222,266,176120,1,0,0:0:0:0:
156,204,176291,1,8,0:0:0:0:
178,305,176464,1,8,0:0:0:0:
165,307,176550,1,0,0:0:0:0:
153,310,176636,1,8,0:0:0:0:
140,312,176722,1,0,0:0:0:0:
128,316,176806,6,0,P|76:284|44:196,1,150,14|8,0:0|0:0,0:0:0:0:
41,57,177321,1,0,0:0:0:0:
188,55,177492,1,0,0:0:0:0:
156,204,177664,1,0,0:0:0:0:
9,206,177835,1,8,0:0:0:0:
6,58,178006,1,0,0:0:0:0:
153,56,178178,6,0,P|206:26|298:43,1,150,2|8,0:0|0:0,0:0:0:0:
420,110,178692,2,0,P|414:146|398:181,1,75,2|0,0:0|0:0,0:0:0:0:
408,296,179035,2,0,P|371:290|336:274,1,75,2|8,0:0|0:0,0:0:0:0:
156,204,179378,1,2,0:0:0:0:
256,70,179549,6,0,B|236:148|276:148|256:220,1,150,2|8,0:0|0:0,0:0:0:0:
256,364,180064,1,0,0:0:0:0:
163,290,180235,1,0,0:0:0:0:
256,217,180406,1,0,0:0:0:0:
348,290,180578,2,0,P|371:261|386:226,1,75,8|0,0:0|0:0,0:0:0:0:
398,80,180921,5,2,0:0:0:0:
256,60,181092,1,0,0:0:0:0:
114,80,181264,1,10,0:0:0:0:
256,204,181435,1,0,0:0:0:0:
114,93,181778,1,0,0:0:0:0:
256,73,181950,1,10,0:0:0:0:
398,93,182121,1,2,0:0:0:0:
256,220,182292,6,0,P|238:278|161:332,1,150,6|8,0:0|0:0,0:0:0:0:
28,370,182807,1,0,0:0:0:0:
64,227,182978,1,0,0:0:0:0:
164,340,183149,1,0,0:0:0:0:
23,380,183321,1,8,0:0:0:0:
59,237,183492,1,0,0:0:0:0:
163,339,183664,6,0,P|236:334|293:287,1,150,2|8,0:0|0:0,0:0:0:0:
367,156,184178,2,0,P|342:127|311:106,1,75,2|0,0:0|0:0,0:0:0:0:
256,2,184521,2,0,P|227:26|206:57,1,75,2|8,0:0|0:0,0:0:0:0:
82,207,184864,1,0,0:0:0:0:
293,286,185035,5,6,0:0:0:0:
273,213,185378,2,0,L|293:290,1,75,10|0,0:0|0:0,0:0:0:0:
421,285,185721,2,0,L|440:212,1,75,8|2,0:0|0:0,0:0:0:0:
457,67,186064,1,10,0:0:0:0:
256,68,186235,1,6,0:0:0:0:
273,213,186578,5,0,0:0:0:0:
256,68,186749,2,0,L|178:88,1,75,8|0,0:0|0:0,0:0:0:0:
184,216,187092,2,0,L|256:235,1,75,8|0,0:0|0:0,0:0:0:0:
402,252,187435,1,10,0:0:0:0:
398,240,187521,1,10,0:0:0:0:
394,228,187607,1,10,0:0:0:0:
390,216,187693,1,10,0:0:0:0:
386,204,187778,6,0,B|322:192|322:192|290:196|290:196|226:188,1,150,6|8,0:0|0:0,0:0:0:0:
92,162,188292,1,0,0:0:0:0:
117,18,188463,1,0,0:0:0:0:
258,78,188635,1,0,0:0:0:0:
232,222,188806,1,8,0:0:0:0:
86,194,188978,1,0,0:0:0:0:
111,50,189149,5,10,0:0:0:0:
111,50,189235,1,10,0:0:0:0:
111,50,189321,1,10,0:0:0:0:
111,50,189406,1,10,0:0:0:0:
111,50,189492,1,10,0:0:0:0:
256,192,189664,5,2,0:0:0:0:
256,192,190006,5,2,0:0:0:0:
256,192,190349,6,0,B|178:172|178:212|106:192,1,150,6|0,0:0|0:0,0:0:0:0:
33,65,190864,1,8,0:0:0:0:
179,62,191035,1,0,0:0:0:0:
97,188,191206,1,2,0:0:0:0:
21,62,191378,1,0,0:0:0:0:
169,60,191549,1,10,0:0:0:0:
85,183,191721,1,0,0:0:0:0:
149,304,191892,6,0,L|96:379,2,75,2|2|10,0:0|0:0|0:0,0:0:0:0:
233,181,192406,2,0,B|297:169|297:169|329:173|329:173|393:165,1,150,6|2,0:0|0:0,0:0:0:0:
445,45,192921,1,8,0:0:0:0:
497,174,193264,6,0,P|492:100|444:44,1,150,6|8,0:0|0:0,0:0:0:0:
310,13,193778,1,0,0:0:0:0:
238,131,193949,1,0,0:0:0:0:
327,235,194121,1,0,0:0:0:0:
399,117,194292,1,8,0:0:0:0:
310,13,194464,1,2,0:0:0:0:
310,13,194549,1,0,0:0:0:0:
310,13,194635,6,0,P|236:17|180:65,1,150,6|8,0:0|0:0,0:0:0:0:
148,199,195149,1,0,0:0:0:0:
266,271,195320,1,0,0:0:0:0:
369,182,195492,1,0,0:0:0:0:
252,110,195663,1,8,0:0:0:0:
148,199,195835,1,2,0:0:0:0:
148,199,195920,1,0,0:0:0:0:
148,199,196006,6,0,P|152:272|200:328,1,150,6|8,0:0|0:0,0:0:0:0:
334,361,196521,1,8,0:0:0:0:
406,243,196692,1,8,0:0:0:0:
316,140,196864,1,8,0:0:0:0:
304,136,196950,1,8,0:0:0:0:
292,132,197036,1,8,0:0:0:0:
280,128,197122,1,8,0:0:0:0:
266,124,197207,1,8,0:0:0:0:
25,135,197378,5,14,0:0:0:0:
256,192,197464,12,0,198406,0:0:0:0:
25,135,198749,5,6,0:0:0:0:
30,71,199092,2,0,L|24:134,1,63.7500012159348,2|0,0:0|0:0,0:0:0:0:
116,112,199435,2,0,L|121:175,1,63.7500012159348,2|0,0:0|0:0,0:0:0:0:
37,239,199778,2,0,L|31:302,1,63.7500012159348,2|0,0:0|0:0,0:0:0:0:
123,280,200121,5,2,0:0:0:0:
59,274,200464,2,0,L|122:279,1,63.7500012159348,2|0,0:0|0:0,0:0:0:0:
100,188,200807,2,0,L|163:182,1,63.7500012159348,2|0,0:0|0:0,0:0:0:0:
227,267,201150,2,0,L|290:272,1,63.7500012159348,2|0,0:0|0:0,0:0:0:0:
268,181,201492,5,2,0:0:0:0:
262,244,201835,2,0,L|267:180,1,63.7500012159348,2|0,0:0|0:0,0:0:0:0:
176,203,202178,2,0,L|170:139,1,63.7500012159348,2|0,0:0|0:0,0:0:0:0:
255,76,202521,2,0,L|260:12,1,63.7500012159348,2|0,0:0|0:0,0:0:0:0:
169,35,202864,5,2,0:0:0:0:
232,40,203206,2,0,L|168:34,1,63.7500012159348,2|0,0:0|0:0,0:0:0:0:
191,126,203548,5,2,0:0:0:0:
196,62,203892,2,0,L|190:125,1,63.7500012159348,2|2,0:0|0:0,0:0:0:0:
189,137,204149,1,0,0:0:0:0:
188,150,204235,6,0,P|208:180|256:204,1,75,10|0,0:0|0:0,0:0:0:0:
276,108,204578,2,0,P|256:78|208:54,1,75,8|0,0:0|0:0,0:0:0:0:
125,71,204921,2,0,P|89:73|44:102,1,75,8|0,0:0|0:0,0:0:0:0:
118,170,205264,2,0,P|153:167|198:138,1,75,8|0,0:0|0:0,0:0:0:0:
364,66,205606,6,0,P|352:108|356:156,1,75,8|0,0:0|0:0,0:0:0:0:
463,119,205949,2,0,P|463:157|452:193,1,75,8|0,0:0|0:0,0:0:0:0:
352,139,206292,2,0,P|340:181|344:229,1,75,8|0,0:0|0:0,0:0:0:0:
451,192,206635,2,0,P|450:229|439:265,1,75,8|0,0:0|0:0,0:0:0:0:
256,284,206978,6,0,P|179:309|115:285,1,150,8|8,0:0|0:0,0:0:0:0:
56,192,207492,1,0,0:0:0:0:
116,97,207664,2,0,P|186:74|256:100,1,150,8|8,0:0|0:0,0:0:0:0:
320,192,208178,1,0,0:0:0:0:
428,268,208349,6,0,P|448:184|428:120,1,150,8|8,0:0|0:0,0:0:0:0:
366,32,208864,1,0,0:0:0:0:
256,100,209035,2,0,L|256:260,1,150,8|8,0:0|0:0,0:0:0:0:
256,384,209721,5,4,0:0:0:0:
180,252,210064,1,8,0:0:0:0:
256,384,210235,1,8,0:0:0:0:
332,252,210406,1,8,0:0:0:0:
180,252,210578,1,8,0:0:0:0:
360,356,210749,1,8,0:0:0:0:
361,149,210921,1,12,0:0:0:0:
360,356,211264,5,8,0:0:0:0:
361,149,211435,1,8,0:0:0:0:
472,148,214349,6,0,B|412:136|412:160|360:148,1,112.500004291535,2|2,0:0|0:0,0:0:0:0:
256,60,215035,1,2,0:0:0:0:
143,147,215206,6,0,P|166:217|225:263,1,150,6|8,0:0|0:0,0:0:0:0:
336,322,215721,1,2,0:0:0:0:
437,241,215892,1,0,0:0:0:0:
356,140,216064,1,0,0:0:0:0:
255,221,216235,2,0,P|235:251|187:275,1,75,8|0,0:0|0:0,0:0:0:0:
92,180,216578,5,2,0:0:0:0:
256,48,216749,1,0,0:0:0:0:
420,180,216921,1,8,0:0:0:0:
256,312,217092,1,2,0:0:0:0:
338,246,217435,5,0,0:0:0:0:
256,312,217606,1,8,0:0:0:0:
174,246,217778,1,0,0:0:0:0:
256,180,217949,6,0,P|233:110|174:64,1,150,2|8,0:0|0:0,0:0:0:0:
62,3,218464,1,2,0:0:0:0:
76,132,218635,1,0,0:0:0:0:
180,55,218806,1,0,0:0:0:0:
56,12,218978,2,0,P|38:44|35:81,1,75,8|0,0:0|0:0,0:0:0:0:
69,203,219321,5,2,0:0:0:0:
151,102,219492,1,0,0:0:0:0:
23,83,219663,1,8,0:0:0:0:
56,204,219835,2,0,P|82:229|118:241,1,75,2|0,0:0|0:0,0:0:0:0:
285,191,220178,2,0,P|321:203|348:229,1,75,0|8,0:0|0:0,0:0:0:0:
254,361,220692,6,0,L|267:286,1,75,6|0,0:0|0:0,0:0:0:0:
304,95,221035,2,0,L|229:108,1,75,10|0,0:0|0:0,0:0:0:0:
38,145,221378,2,0,L|51:219,1,75,10|0,0:0|0:0,0:0:0:0:
132,348,221721,1,8,0:0:0:0:
378,347,221892,1,6,0:0:0:0:
255,135,222235,5,0,0:0:0:0:
378,347,222406,1,10,0:0:0:0:
255,348,222578,1,0,0:0:0:0:
317,242,222749,2,0,P|324:204|320:164,1,75,10|0,0:0|0:0,0:0:0:0:
254,12,223093,1,10,0:0:0:0:
254,12,223178,1,8,0:0:0:0:
254,12,223264,1,8,0:0:0:0:
191,167,223435,6,0,P|183:244|229:320,1,150,6|8,0:0|0:0,0:0:0:0:
320,374,223949,1,2,0:0:0:0:
427,302,224120,1,0,0:0:0:0:
356,195,224292,1,0,0:0:0:0:
249,267,224464,2,0,P|211:274|171:270,1,75,8|0,0:0|0:0,0:0:0:0:
19,204,224806,5,2,0:0:0:0:
84,48,224978,1,8,0:0:0:0:
84,48,225064,1,8,0:0:0:0:
84,48,225149,1,8,0:0:0:0:
256,192,225321,5,10,0:0:0:0:
256,192,225664,5,8,0:0:0:0:
256,192,226006,6,0,P|287:262|366:305,1,150,14|0,0:0|0:0,0:0:0:0:
471,306,226521,1,8,0:0:0:0:
384,176,226692,1,2,0:0:0:0:
256,79,226864,1,0,0:0:0:0:
128,176,227035,1,0,0:0:0:0:
256,272,227206,2,0,L|256:192,1,75,8|0,0:0|0:0,0:0:0:0:
256,68,227549,5,2,0:0:0:0:
128,164,227721,1,0,0:0:0:0:
32,37,227892,1,8,0:0:0:0:
256,56,228064,2,0,P|243:92|219:125,1,75,6|0,0:0|0:0,0:0:0:0:
34,136,228406,2,0,P|30:173|37:210,1,75,0|8,0:0|0:0,0:0:0:0:
85,376,228749,1,0,0:0:0:0:
256,347,228921,6,0,L|256:175,1,150,6|8,0:0|0:0,0:0:0:0:
256,76,229435,1,2,0:0:0:0:
128,164,229606,1,0,0:0:0:0:
256,252,229778,1,0,0:0:0:0:
384,164,229949,1,10,0:0:0:0:
256,76,230121,1,0,0:0:0:0:
256,76,230206,1,0,0:0:0:0:
256,76,230292,6,0,L|256:248,1,150,2|8,0:0|0:0,0:0:0:0:
256,347,230806,1,2,0:0:0:0:
128,259,230977,1,0,0:0:0:0:
256,171,231149,1,0,0:0:0:0:
384,259,231320,1,10,0:0:0:0:
256,347,231492,1,0,0:0:0:0:
256,347,231577,1,0,0:0:0:0:
256,347,231663,6,0,B|236:269|276:269|256:197,1,150,6|10,0:0|0:0,0:0:0:0:
256,41,232177,1,10,0:0:0:0:
256,212,232348,1,10,0:0:0:0:
256,29,232520,1,10,0:0:0:0:
256,41,232606,1,0,0:0:0:0:
256,54,232692,1,10,0:0:0:0:
257,66,232777,1,0,0:0:0:0:
257,79,232863,1,10,0:0:0:0:
257,92,232949,1,8,0:0:0:0:
257,104,233035,5,6,0:0:0:0:
257,104,234064,1,0,0:0:0:0:
257,92,234150,1,0,0:0:0:0:
257,79,234236,1,0,0:0:0:0:
257,66,234322,1,0,0:0:0:0:
256,54,234406,6,0,B|192:42|192:42|160:46|160:46|96:38,1,150,12|8,0:0|0:0,0:0:0:0:
14,187,235092,1,8,0:0:0:0:
188,193,235263,1,0,0:0:0:0:
107,39,235435,1,8,0:0:0:0:
14,187,235606,6,0,P|45:257|124:300,1,150,4|0,0:0|0:0,0:0:0:0:
264,320,236121,2,0,P|292:295|313:264,1,75,8|0,0:0|0:0,0:0:0:0:
313,119,236464,2,0,P|292:88|264:63,1,75,8|0,0:0|0:0,0:0:0:0:
128,64,236806,2,0,P|97:85|72:113,1,75,8|0,0:0|0:0,0:0:0:0:
188,193,237149,6,0,B|266:173|266:213|338:193,1,150,12|8,0:0|0:0,0:0:0:0:
480,192,237835,1,8,0:0:0:0:
406,41,238006,1,8,0:0:0:0:
406,41,238092,1,8,0:0:0:0:
406,41,238178,1,8,0:0:0:0:
335,193,238349,6,0,L|184:233,1,150,4|0,0:0|0:0,0:0:0:0:
114,358,238864,2,0,P|85:333|64:302,1,75,8|0,0:0|0:0,0:0:0:0:
46,189,239206,2,0,P|62:155|86:126,1,75,8|0,0:0|0:0,0:0:0:0:
255,104,239549,1,8,0:0:0:0:
255,92,239635,1,8,0:0:0:0:
255,79,239721,1,8,0:0:0:0:
255,66,239807,1,8,0:0:0:0:
256,54,239892,6,0,B|320:42|320:42|352:46|352:46|424:36,1,150,12|8,0:0|0:0,0:0:0:0:
498,187,240577,1,8,0:0:0:0:
324,193,240748,1,0,0:0:0:0:
405,39,240920,1,8,0:0:0:0:
498,187,241092,6,0,P|466:257|387:300,1,150,4|0,0:0|0:0,0:0:0:0:
248,320,241606,2,0,P|219:295|198:264,1,75,8|0,0:0|0:0,0:0:0:0:
198,119,241949,2,0,P|219:88|248:63,1,75,8|0,0:0|0:0,0:0:0:0:
384,64,242292,2,0,P|415:85|440:113,1,75,8|0,0:0|0:0,0:0:0:0:
324,193,242635,6,0,B|246:173|246:213|174:193,1,150,12|8,0:0|0:0,0:0:0:0:
32,192,243320,1,8,0:0:0:0:
105,41,243492,1,8,0:0:0:0:
105,41,243578,1,8,0:0:0:0:
105,41,243664,1,8,0:0:0:0:
177,193,243835,6,0,L|327:233,1,150,4|0,0:0|0:0,0:0:0:0:
398,358,244350,2,0,P|426:333|447:302,1,75,8|0,0:0|0:0,0:0:0:0:
466,189,244692,2,0,P|449:155|425:126,1,75,8|0,0:0|0:0,0:0:0:0:
256,104,245035,1,8,0:0:0:0:
256,116,245121,1,8,0:0:0:0:
256,128,245206,1,8,0:0:0:0:
256,140,245292,1,8,0:0:0:0:
256,152,245378,6,0,B|232:220|232:220|156:272,1,150,12|8,0:0|0:0,0:0:0:0:
14,345,246064,1,8,0:0:0:0:
20,170,246235,1,0,0:0:0:0:
167,263,246407,1,8,0:0:0:0:
14,345,246578,6,0,B|26:281|26:281|22:249|22:249|30:185,1,150,4|0,0:0|0:0,0:0:0:0:
37,49,247092,2,0,P|76:52|120:72,1,75,8|0,0:0|0:0,0:0:0:0:
104,192,247435,2,0,P|143:189|187:169,1,75,8|0,0:0|0:0,0:0:0:0:
184,52,247778,2,0,P|223:55|267:75,1,75,8|0,0:0|0:0,0:0:0:0:
361,98,248121,6,0,L|403:256,1,150,12|8,0:0|0:0,0:0:0:0:
433,380,248806,1,8,0:0:0:0:
480,192,248978,1,8,0:0:0:0:
480,192,249064,1,8,0:0:0:0:
480,192,249149,1,8,0:0:0:0:
293,245,249321,6,0,P|212:268|120:244,1,150,4|0,0:0|0:0,0:0:0:0:
7,303,249835,2,0,P|0:266|4:228,1,75,8|0,0:0|0:0,0:0:0:0:
16,116,250178,2,0,P|44:92|78:76,1,75,8|0,0:0|0:0,0:0:0:0:
256,104,250521,1,8,0:0:0:0:
256,116,250607,1,8,0:0:0:0:
256,128,250692,1,8,0:0:0:0:
256,140,250778,1,8,0:0:0:0:
256,152,250864,6,0,B|280:220|280:220|356:272,1,150,12|8,0:0|0:0,0:0:0:0:
498,345,251550,1,8,0:0:0:0:
492,170,251721,1,0,0:0:0:0:
345,263,251893,1,8,0:0:0:0:
498,345,252064,6,0,B|486:281|486:281|490:249|490:249|482:185,1,150,4|0,0:0|0:0,0:0:0:0:
475,49,252578,2,0,P|436:52|392:72,1,75,8|0,0:0|0:0,0:0:0:0:
408,192,252921,2,0,P|369:189|325:169,1,75,8|0,0:0|0:0,0:0:0:0:
328,52,253264,2,0,P|289:55|245:75,1,75,8|0,0:0|0:0,0:0:0:0:
40,192,253606,5,4,0:0:0:0:
17,263,253949,2,0,L|45:171,1,75,8|0,0:0|0:0,0:0:0:0:
80,52,254292,2,0,P|128:76|156:112,1,75,8|0,0:0|0:0,0:0:0:0:
256,208,254635,2,0,P|283:232|318:246,1,75,8|0,0:0|0:0,0:0:0:0:
495,263,254978,6,0,L|466:171,1,75,8|0,0:0|0:0,0:0:0:0:
432,52,255321,2,0,P|384:76|356:112,1,75,8|0,0:0|0:0,0:0:0:0:
256,208,255664,2,0,P|228:232|193:246,1,75,8|0,0:0|0:0,0:0:0:0:
16,276,256006,1,8,0:0:0:0:
79,65,256178,1,0,0:0:0:0:
256,192,256349,1,4,0:0:0:0:
233,263,256692,6,0,L|261:171,1,75,8|0,0:0|0:0,0:0:0:0:
333,20,257035,1,8,0:0:0:0:
333,20,257206,1,0,0:0:0:0:
410,191,257378,1,8,0:0:0:0:
410,191,257549,1,0,0:0:0:0:
255,334,257721,6,0,L|226:242,1,75,8|8,0:0|0:0,0:0:0:0:
203,115,258064,1,8,0:0:0:0:
91,214,258235,1,8,0:0:0:0:
232,262,258407,1,8,0:0:0:0:
97,108,258578,1,8,0:0:0:0:
32,302,258750,1,8,0:0:0:0:
291,174,258921,1,8,0:0:0:0:
291,174,259006,1,0,0:0:0:0:
291,174,259092,5,4,0:0:0:0:
256,192,259178,12,0,264578,0:0:0:0:
