osu file format v14

[General]
AudioFilename: audio.mp3
AudioLeadIn: 0
PreviewTime: 59625
Countdown: 0
SampleSet: Soft
StackLeniency: 0.4
Mode: 0
LetterboxInBreaks: 0
WidescreenStoryboard: 1

[Editor]
Bookmarks: 11844,44204
DistanceSpacing: 1.4
BeatDivisor: 4
GridSize: 32
TimelineZoom: 2.2

[Metadata]
Title:Colorful -movie MIX-
TitleUnicode:カラフル -movie MIX-
Artist:ClariS
ArtistUnicode:ClariS
Creator:Sarawatlism
Version:muya-'s Hard
Source:劇場版 魔法少女まどか☆マギカ[新編]叛逆の物語
Tags:gekijouban mahou shoujo madoka*magica [shinpen] hangyaku no monogatari puella magi movie 3 the rebellion story karafuru opening op jpop pop j-pop anime japanese [_lost_] conner c_o_n_n_e_r muya- Kirishima- ohm002
BeatmapID:3094366
BeatmapSetID:1510197

[Difficulty]
HPDrainRate:4
CircleSize:3.4
OverallDifficulty:6.6
ApproachRate:8
SliderMultiplier:1.4
SliderTickRate:1

[Events]
//Background and Video events
0,0,"BG.jpg",0,0
Video,-1000,"VD.mp4"
//Break Periods
//Storyboard Layer 0 (Background)
//Storyboard Layer 1 (Fail)
//Storyboard Layer 2 (Pass)
//Storyboard Layer 3 (Foreground)
//Storyboard Layer 4 (Overlay)
//Storyboard Sound Samples

[TimingPoints]
-290,337.078651685393,4,2,1,20,1,0
10496,-100,4,2,1,50,0,0
10665,-111.111111111111,4,2,1,50,0,0
11844,-142.857142857143,4,2,1,50,0,0
16732,-111.111111111111,4,2,1,50,0,0
17238,-142.857142857143,4,2,1,50,0,0
19934,-100,4,2,1,30,0,0
20271,-100,4,2,1,40,0,0
20608,-100,4,2,1,50,0,0
20945,-100,4,2,1,60,0,0
21283,-100,4,2,1,30,0,0
21620,-100,4,2,1,40,0,0
21957,-100,4,2,1,50,0,0
22294,-100,4,2,1,60,0,0
22631,-105.263157894737,4,2,1,40,0,0
22968,-105.263157894737,4,2,1,40,0,0
42856,-105.263157894737,4,2,1,50,0,0
43530,-105.263157894737,4,2,1,60,0,0
44204,-100,4,2,1,50,0,0
48923,-100,4,2,1,40,0,0
49260,-100,4,2,1,50,0,0
49597,-95.2380952380952,4,2,1,60,0,0
54990,-95.2380952380952,4,2,1,70,0,0
55159,-105.263157894737,4,2,1,70,0,0
57687,-105.263157894737,4,2,1,80,0,0
61058,-105.263157894737,4,2,1,40,0,0
61395,-105.263157894737,4,2,1,50,0,0
61732,-90.9090909090909,4,2,1,80,0,1
72434,-90.9090909090909,4,2,1,80,0,0
72518,-90.9090909090909,4,2,1,80,0,1
83305,-90.9090909090909,4,2,1,45,0,0
86507,-111.111111111111,4,2,1,80,0,0
87350,-90.9090909090909,4,2,1,80,0,1
88698,-90.9090909090909,4,2,1,80,0,0
91395,-90.9090909090909,4,2,1,5,0,0

[Colours]
Combo1 : 239,154,209
Combo2 : 128,128,192
Combo3 : 154,58,154
Combo4 : 255,128,128

[HitObjects]
126,225,10496,5,8,2:0:0:0:
126,225,10665,2,0,B|196:210|178:263|274:237,1,125.999996154785,4|0,3:0|2:0,2:0:0:0:
319,203,11170,2,0,L|308:123,1,62.9999980773926,4|4,3:0|3:0,2:0:0:0:
296,59,11507,1,8,3:0:0:0:
479,233,11844,6,0,B|439:241|406:248|406:248|383:289|383:289|343:297|308:308,1,195.999994018555,6|0,1:2|2:0,2:0:0:0:
313,318,13193,2,0,B|345:307|385:299|385:299|408:258|408:258|441:251|481:243,1,195.999994018555,6|2,1:2|2:0,2:0:0:0:
134,176,14541,6,0,B|149:274|149:274|146:274|146:274|162:376,2,195.999994018555,6|2|2,1:2|2:0|2:0,2:0:0:0:
134,176,16563,1,10,2:0:0:0:
64,133,16732,2,0,P|30:134|0:157,2,62.9999980773926,0|4|0,1:0|3:0|2:0,2:0:0:0:
134,176,17238,6,0,B|226:151|175:81|286:59,1,195.999994018555,6|2,1:2|2:0,2:0:0:0:
282,180,18417,1,2,2:0:0:0:
282,180,18502,1,0,2:0:0:0:
282,180,18586,2,0,B|190:155|241:85|130:63,1,195.999994018555,6|2,1:2|2:0,2:0:0:0:
449,3,19934,6,0,P|465:30|463:78,1,70,10|8,2:0|2:0,2:0:0:0:
512,146,20271,2,0,P|496:173|454:195,1,70,8|8,2:0|2:0,2:0:0:0:
419,272,20608,2,0,P|387:272|347:246,1,70,8|8,2:0|2:0,2:0:0:0:
307,188,20945,1,8,2:0:0:0:
307,188,21030,1,8,2:0:0:0:
307,188,21114,1,8,2:0:0:0:
232,261,21283,6,0,L|243:336,1,70,10|8,2:0|2:0,2:0:0:0:
168,384,21620,1,8,2:0:0:0:
80,360,21788,1,8,2:0:0:0:
54,272,21957,2,0,L|68:197,1,70,8|0,2:0|1:2,2:0:0:0:
121,103,22294,1,10,2:0:0:0:
39,121,22462,1,2,1:2:0:0:
152,184,22631,6,0,B|220:160|186:124|268:100,1,132.999996448517,6|0,1:2|1:2,2:0:0:0:
338,104,23136,1,2,2:0:0:0:
338,104,23305,2,0,P|332:41|268:25,1,132.999996448517,2|2,1:2|1:2,2:0:0:0:
254,104,23811,6,0,L|261:172,1,66.4999982242585,2|0,2:0|1:2,2:0:0:0:
334,201,24148,2,0,L|327:269,1,66.4999982242585,2|0,2:0|1:2,2:0:0:0:
286,336,24485,2,0,P|334:289|404:301,1,132.999996448517,2|0,2:0|2:0,2:0:0:0:
459,351,24990,1,2,1:2:0:0:
459,351,25159,1,2,2:0:0:0:
511,291,25327,6,0,L|520:137,1,132.999996448517,2|2,1:2|1:2,2:0:0:0:
495,81,25833,2,0,P|462:65|420:72,1,66.4999982242585,2|0,2:0|1:2,2:0:0:0:
374,121,26170,2,0,P|341:137|244:90,1,132.999996448517,2|2,2:0|2:0,2:0:0:0:
190,45,26676,6,0,L|207:189,1,132.999996448517,0|0,1:2|1:2,2:0:0:0:
281,230,27181,1,2,0:0:0:0:
281,230,27350,2,0,L|272:296,1,66.4999982242585,0|0,1:2|0:0,2:0:0:0:
184,324,27687,2,0,L|197:241,1,66.4999982242585,10|2,2:0|2:0,2:0:0:0:
130,203,28024,6,0,B|62:224|94:271|23:296,1,132.999996448517,2|0,1:2|1:2,2:0:0:0:
5,215,28530,1,2,2:0:0:0:
5,215,28698,2,0,L|-9:68,1,132.999996448517,2|2,1:2|1:2,2:0:0:0:
29,11,29204,1,2,2:0:0:0:
108,12,29372,2,0,B|168:22|168:22|224:85|224:85|277:96,2,199.499994672775,2|2|2,1:2|2:0|1:2,2:0:0:0:
270,11,30721,6,0,L|409:39,1,132.999996448517,2|2,1:2|1:2,2:0:0:0:
477,55,31226,2,0,P|488:99|470:134,1,66.4999982242585,2|0,2:0|1:2,2:0:0:0:
505,194,31563,2,0,P|472:225|433:227,1,66.4999982242585,2|0,2:0|1:2,2:0:0:0:
375,207,31901,1,10,2:0:0:0:
324,145,32069,6,0,P|297:130|248:131,1,66.4999982242585,2|2,1:2|2:0,2:0:0:0:
203,71,32406,1,2,1:2:0:0:
203,71,32575,2,0,P|173:79|139:114,2,66.4999982242585,2|2|10,2:0|1:2|2:0,2:0:0:0:
261,127,33080,2,0,L|255:209,1,66.4999982242585,2|10,1:2|2:0,2:0:0:0:
296,303,33417,6,0,B|363:287|327:232|409:224,1,132.999996448517,6|0,1:2|1:2,2:0:0:0:
479,248,33923,1,2,2:0:0:0:
479,248,34092,2,0,P|472:309|413:299,1,132.999996448517,2|2,1:2|1:2,2:0:0:0:
363,239,34597,6,0,P|339:217|300:211,1,66.4999982242585,2|0,2:0|1:2,2:0:0:0:
247,264,34934,2,0,P|223:286|184:292,1,66.4999982242585,2|0,2:0|1:2,2:0:0:0:
119,255,35271,2,0,L|135:110,1,132.999996448517,2|0,2:0|2:0,2:0:0:0:
148,42,35777,1,2,1:2:0:0:
148,42,35945,1,10,2:0:0:0:
223,15,36114,6,0,B|298:19|268:67|344:80,1,132.999996448517,2|2,1:2|1:2,2:0:0:0:
407,45,36620,2,0,P|477:53|503:110,2,132.999996448517,2|2|2,2:0|2:0|2:0,2:0:0:0:
334,78,37462,6,0,L|339:119,2,33.2499991121292,2|2|2,1:2|2:0|2:0,2:0:0:0:
246,82,37799,1,0,1:2:0:0:
246,82,37968,2,0,L|256:162,1,66.4999982242585,8|2,2:3|1:2,2:0:0:0:
271,230,38305,1,4,2:3:0:0:
271,230,38474,1,2,1:2:0:0:
481,336,38811,6,0,B|490:267|490:267|488:269|488:269|496:209,1,132.999996448517,2|2,1:2|1:2,2:0:0:0:
413,172,39316,2,0,L|404:255,1,66.4999982242585,8|0,2:3|1:2,2:0:0:0:
390,316,39653,2,0,B|327:304|350:253|276:238,1,132.999996448517,2|2,2:0|2:0,2:0:0:0:
219,194,40159,6,0,P|235:255|189:298,1,132.999996448517,0|0,1:2|1:2,2:0:0:0:
112,263,40665,1,10,2:0:0:0:
112,263,40833,2,0,P|74:258|26:277,2,66.4999982242585,2|8|0,1:2|2:3|1:2,2:0:0:0:
199,302,41339,1,4,2:3:0:0:
199,302,41423,1,0,2:0:0:0:
199,302,41507,6,0,P|245:258|228:197,1,132.999996448517,0|0,1:2|1:2,2:0:0:0:
58,77,42181,2,0,P|73:138|134:154,1,132.999996448517,0|0,1:2|1:2,2:0:0:0:
298,32,42856,5,2,1:2:0:0:
385,1,43024,2,0,L|376:163,1,132.999996448517,8|0,2:0|1:2,2:0:0:0:
297,181,43530,2,0,L|287:99,1,66.4999982242585,10|0,2:0|2:0,2:0:0:0:
383,223,43867,2,0,L|374:288,1,66.4999982242585,10|0,2:0|2:0,2:0:0:0:
296,349,44204,6,0,P|220:354|205:285,1,140,6|0,1:2|2:0,2:0:0:0:
174,209,44709,2,0,L|86:217,1,70,2|8,1:2|2:0,2:0:0:0:
119,117,45047,2,0,L|207:109,1,70,2|0,1:2|2:0,2:0:0:0:
225,19,45384,1,2,1:2:0:0:
5,0,45721,6,0,L|26:149,1,140,8|0,2:0|1:2,2:0:0:0:
41,227,46226,1,10,2:0:0:0:
189,99,46563,1,2,1:2:0:0:
314,295,46901,6,0,B|252:307|252:307|240:317|240:317|167:334,1,140,10|2,2:0|2:0,2:0:0:0:
129,256,47406,2,0,L|205:237,1,70,2|8,1:2|2:0,2:0:0:0:
249,158,47743,2,0,L|325:177,1,70,2|0,1:2|2:0,2:0:0:0:
405,198,48080,1,2,1:2:0:0:
196,239,48417,6,0,L|129:256,1,70,8|0,2:0|2:0,2:0:0:0:
30,284,48754,1,0,1:2:0:0:
30,284,48839,1,0,1:2:0:0:
30,284,48923,2,0,P|47:327|82:343,1,70,10|0,2:0|1:0,2:0:0:0:
129,256,49260,1,10,2:0:0:0:
57,189,49429,1,0,2:0:0:0:
137,91,49597,6,0,B|213:66|162:18|268:3,1,146.999995513916,6|10,1:2|2:0,2:0:0:0:
322,68,50103,2,0,P|351:89|408:90,1,73.4999977569581,2|0,2:0|1:2,2:0:0:0:
480,71,50440,2,0,L|485:-3,2,73.4999977569581,2|8|0,1:2|2:0|2:0,2:0:0:0:
387,94,50945,6,0,L|408:251,1,146.999995513916,2|8,1:2|2:0,2:0:0:0:
512,384,51620,1,2,1:2:0:0:
512,384,51788,1,0,1:2:0:0:
457,304,51957,2,0,P|420:285|374:289,1,73.4999977569581,8|0,2:0|2:0,2:0:0:0:
288,312,52294,6,0,B|199:311|242:383|148:383,1,146.999995513916,2|8,1:2|2:0,2:0:0:0:
13,221,52968,1,2,1:2:0:0:
13,221,53136,1,2,1:2:0:0:
60,137,53305,2,0,P|99:132|145:165,1,73.4999977569581,10|2,2:0|2:0,2:0:0:0:
200,209,53642,6,0,B|261:197|261:197|277:177|277:177|336:166,1,146.999995513916,2|10,1:2|2:0,2:0:0:0:
429,147,54148,2,0,P|429:192|400:233,1,73.4999977569581,2|0,2:0|1:2,2:0:0:0:
335,166,54485,1,2,1:2:0:0:
364,86,54653,1,8,2:0:0:0:
161,1,54990,5,14,2:0:0:0:
161,1,55159,2,0,P|94:6|62:69,1,132.999996448517,8|0,2:0|1:2,2:0:0:0:
5,123,55665,1,8,2:0:0:0:
5,123,55834,2,0,B|79:134|46:187|120:201,1,132.999996448517,8|0,2:0|1:2,2:0:0:0:
202,154,56339,5,8,2:0:0:0:
202,154,56507,2,0,L|214:288,1,132.999996448517,8|0,2:0|1:2,2:0:0:0:
308,322,57013,1,8,2:0:0:0:
308,322,57181,2,0,L|296:188,1,132.999996448517,8|0,2:0|1:2,2:0:0:0:
281,79,57687,5,10,2:0:0:0:
281,79,57856,2,0,B|347:58|310:12|396:-4,1,132.999996448517,10|0,2:0|1:2,2:0:0:0:
467,5,58361,2,0,P|483:43|478:84,1,66.4999982242585,10|10,2:0|2:0,2:0:0:0:
494,153,58698,2,0,P|453:147|420:123,1,66.4999982242585,0|0,1:2|2:0,2:0:0:0:
334,32,59035,5,10,2:0:0:0:
482,67,59204,1,10,2:0:0:0:
366,338,61058,6,0,P|360:361|343:388,2,44.3333321495057,2|2|2,2:0|2:0|2:0,2:0:0:0:
417,274,61395,6,0,P|432:289|445:315,2,44.3333321495057,2|2|2,2:0|2:0|2:0,2:0:0:0:
324,244,61732,6,0,B|283:228|242:260|265:274|227:320|176:302,1,154.000004699707,6|10,1:2|2:0,2:0:0:0:
90,268,62238,2,0,P|81:225|102:179,1,77.0000023498536,2|0,2:0|1:2,2:0:0:0:
30,114,62575,2,0,P|62:84|113:79,1,77.0000023498536,2|8,1:2|2:0,2:0:0:0:
172,132,62912,1,2,2:0:0:0:
272,143,63080,6,0,B|351:122|313:71|399:56,1,154.000004699707,0|10,1:2|2:0,2:0:0:0:
489,86,63586,2,0,P|468:127|422:140,1,77.0000023498536,2|0,1:2|2:0,2:0:0:0:
338,90,63923,2,0,P|281:40|192:57,1,154.000004699707,2|2,1:2|1:2,2:0:0:0:
112,13,64429,6,0,L|138:171,1,154.000004699707,2|10,1:2|2:0,2:0:0:0:
49,212,64934,2,0,L|36:130,1,77.0000023498536,2|0,2:0|1:2,2:0:0:0:
137,164,65271,2,0,L|149:240,1,77.0000023498536,2|10,1:2|2:0,2:0:0:0:
169,338,65608,1,2,2:0:0:0:
263,370,65777,6,0,B|319:359|319:359|339:339|339:339|413:325,1,154.000004699707,2|10,1:2|2:0,2:0:0:0:
498,365,66283,2,0,P|452:351|439:252,1,154.000004699707,2|2,1:2|1:2,2:0:0:0:
501,182,66788,1,8,2:0:0:0:
266,124,67125,6,0,B|218:111|189:148|201:151|186:205|122:196,1,154.000004699707,6|8,1:2|2:0,2:0:0:0:
324,216,67799,1,2,1:2:0:0:
324,216,67968,1,0,1:2:0:0:
374,131,68136,2,0,P|374:97|334:48,1,77.0000023498536,8|2,2:0|2:0,2:0:0:0:
261,17,68474,6,0,B|202:32|202:32|168:19|168:19|112:31,1,154.000004699707,2|10,1:2|2:0,2:0:0:0:
45,104,68979,2,0,L|37:286,1,154.000004699707,2|0,1:2|1:2,2:0:0:0:
37,362,69485,1,10,2:0:0:0:
37,362,69653,1,2,1:2:0:0:
149,275,69822,6,0,P|186:252|240:255,1,77.0000023498536,6|0,1:2|2:0,2:0:0:0:
273,384,70159,2,0,P|234:363|210:315,1,77.0000023498536,14|0,2:0|2:0,2:0:0:0:
305,222,70496,2,0,P|306:265|276:310,1,77.0000023498536,2|0,1:2|1:2,2:0:0:0:
231,151,70833,6,0,B|292:161|321:93|321:93|354:23|444:60,1,231.000007049561,14|8,2:0|2:0,2:0:0:0:
476,130,71507,2,0,L|483:234,1,77.0000023498536,2|0,1:2|1:2,2:0:0:0:
488,322,71844,2,0,L|491:363,2,38.5000011749268,10|0|0,2:0|1:2|1:2,2:0:0:0:
401,269,72181,1,10,2:0:0:0:
401,269,72265,1,8,2:0:0:0:
401,269,72349,1,8,2:0:0:0:
290,345,72518,6,0,B|223:358|223:358|209:370|209:370|134:384,1,154.000004699707,6|10,1:2|2:0,2:0:0:0:
56,330,73024,2,0,P|91:293|90:238,1,77.0000023498536,2|0,2:0|1:2,2:0:0:0:
194,248,73361,2,0,P|179:199|131:172,1,77.0000023498536,2|8,1:2|2:0,2:0:0:0:
61,172,73698,1,2,2:0:0:0:
28,77,73867,6,0,P|48:30|153:35,1,154.000004699707,0|10,1:2|2:0,2:0:0:0:
219,84,74372,2,0,L|230:170,1,77.0000023498536,2|0,1:2|2:0,2:0:0:0:
326,184,74709,2,0,L|305:26,1,154.000004699707,2|2,1:2|1:2,2:0:0:0:
420,5,75215,6,0,B|445:34|476:62|476:62|457:93|439:135,1,154.000004699707,2|10,1:2|2:0,2:0:0:0:
441,228,75721,2,0,P|476:230|513:206,1,77.0000023498536,2|0,2:0|1:2,2:0:0:0:
442,127,76058,2,0,P|407:125|370:149,1,77.0000023498536,2|8,1:2|2:0,2:0:0:0:
321,232,76395,1,2,2:0:0:0:
241,291,76563,6,0,B|162:272|193:222|105:208,1,154.000004699707,0|8,1:2|2:0,2:0:0:0:
4,41,77238,2,0,L|94:27,1,77.0000023498536,2|0,2:0|1:2,2:0:0:0:
147,118,77575,2,0,L|237:132,1,77.0000023498536,10|0,2:0|1:2,2:0:0:0:
334,145,77912,5,6,1:2:0:0:
492,0,78249,2,0,P|460:4|423:57,1,77.0000023498536,10|0,2:0|2:0,2:0:0:0:
336,73,78586,2,0,P|324:102|350:161,1,77.0000023498536,2|0,1:2|1:2,2:0:0:0:
321,244,78923,2,0,P|340:268|404:275,1,77.0000023498536,10|2,2:0|2:0,2:0:0:0:
471,232,79260,5,0,1:2:0:0:
293,384,79597,2,0,L|202:378,1,77.0000023498536,10|0,2:0|1:2,2:0:0:0:
177,277,79934,2,0,L|253:282,1,77.0000023498536,2|0,2:0|1:2,2:0:0:0:
213,180,80271,2,0,L|136:174,1,77.0000023498536,10|0,2:0|1:2,2:0:0:0:
13,165,80608,5,6,1:2:0:0:
13,165,80777,1,0,2:0:0:0:
105,57,80945,2,0,B|144:20|144:20|190:34|190:34|191:37|191:37|262:60,1,154.000004699707,8|0,2:0|1:2,2:0:0:0:
331,95,81451,1,0,1:2:0:0:
394,21,81620,2,0,P|350:-2|311:3,1,77.0000023498536,8|4,2:0|3:0,2:0:0:0:
237,52,81957,5,10,2:0:0:0:
237,52,82125,2,0,P|245:138|254:231,1,154.000004699707,8|4,2:0|3:0,2:0:0:0:
265,300,82631,2,0,P|228:320|186:314,1,77.0000023498536,2|8,1:2|2:0,2:0:0:0:
251,205,82968,2,0,P|311:212|365:311,1,154.000004699707,4|2,3:0|2:0,2:0:0:0:
13,358,84653,5,2,2:0:0:0:
498,154,86002,5,2,2:0:0:0:
218,26,86507,6,0,L|235:151,1,125.999996154785,4|4,3:0|3:0,2:0:0:0:
262,260,87013,1,8,2:0:0:0:
262,260,87181,1,0,1:2:0:0:
360,208,87350,6,0,P|315:155|225:155,1,154.000004699707,14|10,2:0|2:0,2:0:0:0:
164,227,87856,2,0,B|117:216|92:262|106:264|83:313|29:305,1,154.000004699707,2|2,1:2|1:2,2:0:0:0:
158,336,88361,2,0,P|192:340|240:351,1,77.0000023498536,8|0,2:0|1:2,2:0:0:0:
346,384,88698,5,2,3:2:0:0:
256,192,88783,12,0,91395,2:0:0:0:
