osu file format v14

[General]
AudioFilename: audio.mp3
AudioLeadIn: 0
PreviewTime: 205371
Countdown: 0
SampleSet: Soft
StackLeniency: 0.4
Mode: 0
LetterboxInBreaks: 0
EpilepsyWarning: 1
WidescreenStoryboard: 1

[Editor]
DistanceSpacing: 1
BeatDivisor: 4
GridSize: 32
TimelineZoom: 2

[Metadata]
Title:Colorful -2017-
TitleUnicode:カラフル -2017-
Artist:ClariS
ArtistUnicode:ClariS
Creator:never FC on osu
Version:Collab Insane
Source:劇場版 魔法少女まどか☆マギカ[新編]叛逆の物語
Tags:Gekijouban Puella Magi Madoka*Magica Shinpen Hangyaku no monogatari full album Fairy Castle 10th Anniversary BEST Green Star j-pop pop jpop anime japanese op opening クラリス Clara クララ Karen カレン colourful never_fc_on_osu BladeN climbx3145
BeatmapID:3248860
BeatmapSetID:1589677

[Difficulty]
HPDrainRate:5.3
CircleSize:4
OverallDifficulty:8
ApproachRate:9
SliderMultiplier:1.76
SliderTickRate:1

[Events]
//Background and Video events
Video,0,"Colorful.mp4"
0,0,"Colorful 1.0.jpg",0,0
//Break Periods
2,83632,85529
2,160486,169125
2,176666,177889
2,238014,239911
//Storyboard Layer 0 (Background)
//Storyboard Layer 1 (Fail)
//Storyboard Layer 2 (Pass)
//Storyboard Layer 3 (Foreground)
//Storyboard Layer 4 (Overlay)
//Storyboard Sound Samples

[TimingPoints]
175,337.078651685393,4,2,1,70,1,0
1186,337.078651685393,4,2,1,70,1,0
9275,-200,4,2,1,50,0,0
10624,337.078651685393,4,2,1,60,1,0
20062,-133.333333333333,4,2,1,65,0,0
22758,-113.636363636364,4,2,1,65,0,0
49725,-100,4,2,1,70,0,0
61185,-113.636363636364,4,2,1,70,0,0
61859,-100,4,2,1,75,0,1
82084,-113.636363636364,4,2,1,70,0,1
83432,-113.636363636364,4,2,1,70,0,0
87477,-100,4,2,1,70,0,0
90343,-133.333333333333,4,2,1,70,0,0
92197,-113.636363636364,4,2,1,70,0,0
94219,-113.636363636364,4,2,1,50,0,0
102309,-133.333333333333,4,2,1,50,0,0
105006,-113.636363636364,4,2,1,60,0,0
121185,-100,4,2,1,70,0,0
131298,-153.846153846154,4,2,1,50,0,0
131803,-153.846153846154,4,2,1,5,0,0
131972,-153.846153846154,4,2,1,60,0,0
132477,-153.846153846154,4,2,1,5,0,0
132646,-113.636363636364,4,2,1,70,0,0
133320,-100,4,2,1,75,0,1
160286,-100,4,2,1,70,0,0
171073,-125,4,2,1,60,0,0
178489,-113.636363636364,4,2,1,70,0,0
179163,-100,4,2,1,75,0,1
195343,-111.111111111111,4,2,1,70,0,0
200736,-100,4,2,1,75,0,1
205455,-153.846153846154,4,2,1,50,0,0
205961,-153.846153846154,4,2,1,5,0,0
206129,-153.846153846154,4,2,1,55,0,0
206635,-153.846153846154,4,2,1,5,0,0
206803,-153.846153846154,4,2,1,60,0,0
207309,-153.846153846154,4,2,1,5,0,0
207477,-285.714285714286,4,2,1,50,0,0
207983,-153.846153846154,4,2,1,5,0,0
208152,337.078651685393,4,2,1,75,1,0
208152,-100,4,2,1,75,0,1
227028,-125,4,2,1,70,0,0
231073,-100,4,2,1,75,0,0
232421,-100,4,2,1,75,0,1
237814,-100,4,2,1,70,0,0
243882,-113.636363636364,4,2,1,70,0,0
244556,-100,4,2,1,70,0,0
260736,-125,4,2,1,40,0,0
264528,-125,4,2,1,5,0,0
266129,-125,4,2,2,5,0,0

[Colours]
Combo1 : 235,35,75
Combo2 : 255,136,196
Combo3 : 147,90,165
Combo4 : 143,184,238
Combo5 : 244,234,108

[HitObjects]
45,165,9275,6,0,B|92:141|139:165|139:165|186:188|233:165,1,176,2|2,0:2|0:2,0:0:0:0:
214,172,10624,5,8,0:2:0:0:
248,253,10792,1,0,1:2:0:0:
295,138,10961,1,2,0:2:0:0:
329,219,11129,1,2,0:2:0:0:
349,69,11298,5,8,0:2:0:0:
469,162,11466,1,0,1:2:0:0:
403,0,11635,1,0,1:2:0:0:
381,150,11803,1,0,1:2:0:0:
489,12,11972,5,6,0:2:0:0:
214,172,12646,1,0,0:0:0:0:
469,162,13320,5,2,0:2:0:0:
265,58,13994,1,0,0:0:0:0:
423,295,14668,5,6,0:2:0:0:
349,69,15343,1,0,0:0:0:0:
89,295,16017,5,2,0:2:0:0:
163,69,16692,1,8,0:2:0:0:
232,122,16859,1,0,1:2:0:0:
243,34,17028,1,0,1:2:0:0:
256,352,17365,5,4,0:2:0:0:
384,160,18039,1,0,0:0:0:0:
128,160,18545,1,2,0:2:0:0:
128,160,18629,1,2,0:2:0:0:
128,160,18713,5,2,1:2:0:0:
256,32,19388,1,2,0:2:0:0:
256,352,20062,6,0,L|344:363,1,66.0000025177003,0|2,1:2|0:2,0:0:0:0:
185,298,20399,2,0,L|97:309,1,66.0000025177003,0|2,1:2|0:2,0:0:0:0:
275,199,20736,2,0,L|264:287,1,66.0000025177003,0|2,1:2|0:2,0:0:0:0:
204,145,21073,1,2,1:2:0:0:
386,124,21241,1,2,0:2:0:0:
371,143,21325,1,2,0:2:0:0:
356,164,21410,5,10,0:2:0:0:
295,23,21579,1,8,0:2:0:0:
275,199,21747,1,8,0:2:0:0:
214,57,21916,1,8,0:2:0:0:
193,232,22084,1,8,0:2:0:0:
285,111,22253,1,8,0:2:0:0:
264,286,22421,1,10,0:2:0:0:
426,217,22590,1,8,0:2:0:0:
426,217,22674,1,0,1:2:0:0:
426,217,22758,6,0,P|441:139|380:80,1,154.880004726563,4|0,1:2|1:2,0:0:0:0:
307,73,23264,1,2,0:2:0:0:
225,106,23432,2,0,L|137:94,1,77.4400023632813,2|0,1:2|0:0,0:0:0:0:
78,41,23770,1,2,1:2:0:0:
66,128,23938,6,0,P|90:163|142:182,1,77.4400023632813,2|0,0:2|1:2,0:0:0:0:
108,265,24275,2,0,P|64:269|23:304,1,77.4400023632813,2|0,0:2|1:2,0:0:0:0:
178,317,24612,2,0,P|251:283|319:324,1,154.880004726563,2|0,0:2|0:0,0:0:0:0:
434,297,25118,1,2,1:2:0:0:
381,367,25286,1,2,0:2:0:0:
365,244,25455,6,0,L|377:155,1,77.4400023632813,2|0,1:2|0:0,0:0:0:0:
341,85,25792,1,2,1:2:0:0:
417,19,25961,2,0,L|427:95,1,77.4400023632813,2|0,0:2|1:2,0:0:0:0:
288,155,26298,2,0,P|262:123|253:76,1,77.4400023632813,2|0,0:2|1:2,0:0:0:0:
124,141,26635,1,2,0:2:0:0:
158,221,26803,6,0,P|198:214|243:230,1,77.4400023632813,2|0,1:2|0:0,0:0:0:0:
221,310,27140,2,0,P|180:316|135:300,1,77.4400023632813,0|2,1:2|0:2,0:0:0:0:
122,154,27477,2,0,P|148:186|157:233,1,77.4400023632813,0|0,1:2|0:0,0:0:0:0:
56,310,27815,1,2,1:2:0:0:
68,223,27983,1,2,0:2:0:0:
145,307,28152,6,0,B|175:329|175:329|290:311,1,154.880004726563,2|0,1:2|1:2,0:0:0:0:
344,241,28657,1,2,0:2:0:0:
378,323,28826,2,0,L|439:370,1,77.4400023632813,2|0,1:2|0:0,0:0:0:0:
431,252,29163,1,2,1:2:0:0:
378,323,29331,1,2,0:2:0:0:
397,170,29500,6,0,L|419:6,1,154.880004726563,2|0,1:2|1:2,0:0:0:0:
310,159,30006,2,0,L|330:5,1,154.880004726563,2|0,0:2|0:0,0:0:0:0:
222,147,30511,2,0,L|234:239,1,77.4400023632813,2|0,1:2|0:0,0:0:0:0:
101,302,30848,6,0,L|193:290,1,77.4400023632813,2|0,1:2|0:0,0:0:0:0:
144,211,31185,1,2,1:2:0:0:
24,291,31354,2,0,L|100:301,1,77.4400023632813,2|0,0:2|1:2,0:0:0:0:
133,134,31691,2,0,L|145:226,1,77.4400023632813,2|0,0:2|1:2,0:0:0:0:
45,122,32028,1,10,0:2:0:0:
186,64,32197,6,0,L|278:52,1,77.4400023632813,0|0,1:2|0:0,0:0:0:0:
435,28,32534,1,0,1:2:0:0:
348,40,32702,1,2,0:2:0:0:
401,109,32871,1,0,1:2:0:0:
314,121,33039,1,2,0:2:0:0:
454,178,33208,1,2,1:2:0:0:
488,97,33376,1,2,0:2:0:0:
367,190,33545,6,0,B|348:239|348:239|368:359,1,154.880004726563,6|0,1:2|1:2,0:0:0:0:
446,373,34050,1,2,0:2:0:0:
512,317,34219,2,0,P|480:291|433:282,1,77.4400023632813,2|0,1:2|0:0,0:0:0:0:
364,340,34556,1,2,1:2:0:0:
282,305,34725,6,0,L|294:213,1,77.4400023632813,2|0,0:2|1:2,0:0:0:0:
210,195,35062,2,0,L|198:103,1,77.4400023632813,2|0,0:2|1:2,0:0:0:0:
62,101,35399,2,0,P|122:138|211:107,1,154.880004726563,2|0,0:2|0:0,0:0:0:0:
349,95,35904,1,2,1:2:0:0:
268,62,36073,1,10,0:2:0:0:
211,205,36241,6,0,L|200:281,1,77.4400023632813,0|0,1:2|0:0,0:0:0:0:
130,335,36579,1,2,1:2:0:0:
48,301,36747,2,0,P|72:266|124:247,1,77.4400023632813,2|0,0:2|1:2,0:0:0:0:
196,370,37084,2,0,P|159:359|130:335,1,77.4400023632813,2|0,0:2|1:2,0:0:0:0:
255,229,37421,1,2,0:2:0:0:
265,316,37590,6,0,L|341:305,1,77.4400023632813,0|0,1:2|0:0,0:0:0:0:
422,338,37927,2,0,L|498:349,1,77.4400023632813,0|2,1:2|0:2,0:0:0:0:
498,239,38264,1,0,1:2:0:0:
411,251,38432,1,0,1:2:0:0:
444,169,38601,1,0,1:2:0:0:
444,169,38938,6,0,P|478:99|423:17,1,154.880004726563,2|2,1:2|1:2,0:0:0:0:
390,99,39444,2,0,L|314:110,1,77.4400023632813,2|0,0:2|1:2,0:0:0:0:
182,29,39781,2,0,L|258:40,1,77.4400023632813,2|0,0:2|1:2,0:0:0:0:
367,202,40118,1,2,0:2:0:0:
279,191,40286,6,0,L|102:165,1,154.880004726563,2|0,1:2|1:2,0:0:0:0:
25,243,40792,1,10,0:2:0:0:
37,156,40961,2,0,P|50:117|87:86,2,77.4400023632813,2|2|0,1:2|1:2|1:2,0:0:0:0:
125,168,41466,1,2,0:2:0:0:
114,256,41635,6,0,L|125:332,1,77.4400023632813,2|0,1:2|0:0,0:0:0:0:
217,221,41972,2,0,L|206:297,1,77.4400023632813,2|0,1:2|0:0,0:0:0:0:
298,187,42309,2,0,L|309:263,1,77.4400023632813,2|0,1:2|0:0,0:0:0:0:
379,153,42646,1,2,1:2:0:0:
448,206,42815,1,2,0:2:0:0:
459,118,42983,1,2,1:2:0:0:
367,240,43152,2,0,P|422:291|515:263,1,154.880004726563,8|0,0:2|1:2,0:0:0:0:
379,153,43657,5,10,0:2:0:0:
133,153,43994,1,2,1:2:0:0:
356,0,44331,6,0,L|381:173,1,154.880004726563,2|0,1:2|0:0,0:0:0:0:
278,87,44837,2,0,L|290:173,1,77.4400023632813,2|8,1:2|0:2,0:0:0:0:
189,98,45174,2,0,L|201:184,1,77.4400023632813,2|0,1:2|0:0,0:0:0:0:
101,110,45511,1,2,1:2:0:0:
258,246,45848,6,0,B|311:224|342:246|342:246|385:267|427:246,1,154.880004726563,8|0,0:2|1:2,0:0:0:0:
439,171,46354,1,10,0:2:0:0:
461,322,46691,1,2,0:2:0:0:
258,246,47028,6,0,P|242:162|306:105,1,154.880004726563,14|2,0:2|0:2,0:0:0:0:
398,212,47534,2,0,P|355:208|313:173,1,77.4400023632813,2|8,1:2|0:2,0:0:0:0:
439,73,47871,2,0,P|415:108|363:127,1,77.4400023632813,2|0,1:2|0:0,0:0:0:0:
357,40,48208,1,2,1:2:0:0:
257,246,48545,6,0,B|200:253|200:253|173:277|173:277|101:286,1,154.880004726563,8|0,0:2|0:0,0:0:0:0:
57,214,49050,2,0,L|25:173,2,51.6266682421875,10|2|2,0:2|1:2|1:2,0:0:0:0:
125,158,49388,2,0,L|118:106,2,51.6266682421875,10|2|2,0:2|1:2|1:2,0:0:0:0:
207,189,49725,6,0,P|285:220|363:136,1,176,6|10,1:2|0:2,0:0:0:0:
387,93,50230,2,0,P|360:130|360:195,1,88,2|0,0:2|1:2,0:0:0:0:
493,228,50567,1,2,1:2:0:0:
493,228,50736,2,0,P|474:186|418:153,1,88,10|0,0:2|0:0,0:0:0:0:
322,252,51073,6,0,L|408:238,1,88,2|0,1:2|0:0,0:0:0:0:
421,324,51410,2,0,L|334:337,1,88,8|0,0:2|0:0,0:0:0:0:
239,220,51747,1,2,1:2:0:0:
251,305,51916,1,0,1:2:0:0:
156,188,52084,2,0,L|169:101,1,88,8|0,0:2|0:0,0:0:0:0:
331,52,52421,6,0,B|284:89|284:89|168:101,1,176,2|8,1:2|0:2,0:0:0:0:
67,26,52927,2,0,L|80:112,1,88,0|0,0:0|1:2,0:0:0:0:
0,122,53264,1,0,1:2:0:0:
93,198,53432,2,0,L|79:284,1,88,8|2,0:2|0:2,0:0:0:0:
212,383,53770,6,0,P|178:356|161:316,1,88,2|0,1:2|0:0,0:0:0:0:
243,301,54107,1,10,0:2:0:0:
384,355,54275,2,0,L|470:341,1,88,2|0,0:2|1:2,0:0:0:0:
415,272,54612,1,2,1:2:0:0:
315,200,54781,2,0,L|328:286,1,88,8|0,0:2|0:0,0:0:0:0:
401,186,55118,5,4,1:2:0:0:
259,131,55286,1,0,1:2:0:0:
186,341,55623,5,0,1:2:0:0:
328,286,55791,1,8,0:2:0:0:
154,258,55961,1,0,1:2:0:0:
346,117,56298,5,0,1:2:0:0:
227,213,56467,1,8,0:2:0:0:
204,62,56635,1,8,0:2:0:0:
154,258,56972,5,0,1:2:0:0:
90,92,57140,1,8,0:2:0:0:
65,242,57309,1,0,1:2:0:0:
258,130,57646,5,0,1:2:0:0:
122,175,57815,1,8,0:2:0:0:
289,47,57983,1,8,0:2:0:0:
194,294,58320,5,0,1:2:0:0:
258,130,58488,1,8,0:2:0:0:
368,267,58657,1,8,0:2:0:0:
107,307,58994,5,0,1:2:0:0:
280,280,59163,1,8,0:2:0:0:
51,238,59331,1,8,0:2:0:0:
280,280,59837,5,2,0:2:0:0:
208,262,60006,1,2,0:2:0:0:
226,187,60174,1,2,0:2:0:0:
300,208,60343,1,2,0:2:0:0:
380,236,60511,5,2,0:2:0:0:
431,249,60680,1,2,0:2:0:0:
445,198,60848,1,2,0:2:0:0:
393,184,61017,1,2,0:2:0:0:
336,115,61185,6,0,L|329:64,2,51.6266682421875,10|2|2,0:2|0:2|0:2,0:0:0:0:
267,170,61522,2,0,L|259:221,2,51.6266682421875,2|2|2,0:2|0:2|0:2,0:0:0:0:
211,101,61859,6,0,L|125:67,1,88,6|0,1:2|0:0,0:0:0:0:
45,37,62197,1,10,0:2:0:0:
72,210,62365,2,0,P|113:191|146:135,1,88,2|0,0:2|1:2,0:0:0:0:
163,329,62702,2,0,P|126:301|61:302,1,88,2|10,1:2|0:2,0:0:0:0:
221,189,63039,6,0,P|235:276|336:302,1,176,2|0,0:2|0:0,0:0:0:0:
447,365,63545,1,10,0:2:0:0:
392,297,63713,2,0,P|346:292|290:324,1,88,2|0,1:2|0:0,0:0:0:0:
316,133,64050,2,0,L|302:219,1,88,2|8,1:2|0:2,0:0:0:0:
384,187,64388,1,2,0:2:0:0:
302,46,64556,6,0,L|315:132,1,88,2|0,1:2|0:0,0:0:0:0:
384,77,64893,1,10,0:2:0:0:
233,101,65062,2,0,L|146:114,1,88,2|0,0:2|1:2,0:0:0:0:
13,93,65399,2,0,P|46:121|64:162,1,88,2|8,1:2|0:2,0:0:0:0:
56,327,65736,6,0,P|34:242|80:146,1,176,2|0,0:2|0:0,0:0:0:0:
146,114,66241,1,10,0:2:0:0:
245,213,66410,2,0,L|158:199,1,88,2|0,1:2|0:0,0:0:0:0:
214,58,66747,2,0,L|300:71,1,88,2|8,1:2|0:2,0:0:0:0:
368,15,67084,1,0,0:0:0:0:
390,183,67253,6,0,P|309:158|245:213,1,176,2|8,1:2|0:2,0:0:0:0:
327,244,67758,1,0,0:0:0:0:
226,381,67927,2,0,L|258:295,2,88,2|0|8,1:2|1:2|0:2,0:0:0:0:
170,312,68432,1,0,0:0:0:0:
339,328,68601,6,0,P|380:309|413:253,1,88,2|0,1:2|0:0,0:0:0:0:
436,193,68938,1,10,0:2:0:0:
368,40,69107,2,0,P|363:85|395:141,1,88,2|0,0:2|1:2,0:0:0:0:
450,71,69444,1,0,1:2:0:0:
285,8,69612,1,10,0:2:0:0:
336,122,69781,1,2,1:2:0:0:
138,140,69949,5,14,0:2:0:0:
253,90,70118,1,0,1:2:0:0:
175,288,70286,5,10,0:2:0:0:
220,170,70455,1,0,1:2:0:0:
305,366,70623,5,10,0:2:0:0:
254,251,70792,1,0,1:2:0:0:
462,173,70961,6,0,P|492:250|440:334,1,176,14|2,0:2|1:2,0:0:0:0:
336,282,71466,1,10,0:2:0:0:
222,334,71635,2,0,L|135:348,1,88,2|2,0:2|1:2,0:0:0:0:
166,265,71972,1,10,0:2:0:0:
253,164,72140,1,8,0:2:0:0:
256,185,72224,1,8,0:2:0:0:
259,207,72309,2,0,L|250:261,1,44,10|8,0:2|0:2,0:0:0:0:
308,320,72477,2,0,L|362:311,1,44,8|8,0:2|0:2,0:0:0:0:
408,171,72646,6,0,P|365:189|333:245,1,88,6|0,1:2|0:0,0:0:0:0:
420,257,72983,1,10,0:2:0:0:
477,116,73152,2,0,L|491:29,1,88,2|0,0:2|1:2,0:0:0:0:
327,27,73489,2,0,L|394:82,1,88,2|8,1:2|0:2,0:0:0:0:
257,81,73826,6,0,B|211:58|166:81|166:81|121:103|76:81,1,176,2|0,0:2|0:0,0:0:0:0:
5,52,74331,1,10,0:2:0:0:
98,172,74500,2,0,P|73:204|9:226,1,88,2|0,1:2|0:0,0:0:0:0:
185,159,74837,2,0,P|225:163|276:208,1,88,2|8,1:2|0:2,0:0:0:0:
318,259,75174,1,2,0:2:0:0:
365,90,75343,6,0,L|350:176,1,88,2|0,1:2|0:0,0:0:0:0:
318,259,75680,1,10,0:2:0:0:
483,276,75848,2,0,P|448:251|405:246,1,88,2|0,0:2|1:2,0:0:0:0:
285,340,76185,2,0,P|330:344|386:312,1,88,2|8,1:2|0:2,0:0:0:0:
318,259,76522,1,2,0:2:0:0:
186,348,76691,6,0,B|130:366|97:348|97:348|59:310|-3:328,1,176,2|8,1:2|0:2,0:0:0:0:
6,235,77197,1,0,1:2:0:0:
60,93,77365,2,0,L|74:179,1,88,2|0,0:2|1:2,0:0:0:0:
129,38,77702,1,10,0:2:0:0:
47,5,77871,1,2,0:2:0:0:
141,125,78039,6,0,P|181:108|224:112,1,88,4|0,1:2|0:0,0:0:0:0:
247,260,78376,2,0,P|212:233|194:193,1,88,10|0,0:2|0:0,0:0:0:0:
311,96,78713,1,2,1:2:0:0:
279,178,78882,1,0,1:2:0:0:
256,30,79050,2,0,P|296:13|339:17,1,88,10|0,0:2|0:0,0:0:0:0:
453,178,79388,6,0,L|365:165,1,88,0|0,1:2|0:0,0:0:0:0:
208,231,79725,2,0,L|295:218,1,88,10|0,0:2|0:0,0:0:0:0:
388,337,80062,1,2,1:2:0:0:
376,250,80230,1,0,1:2:0:0:
220,318,80399,2,0,P|176:312|141:287,1,88,10|0,0:2|0:0,0:0:0:0:
194,143,80736,6,0,L|207:230,1,88,0|0,1:2|0:0,0:0:0:0:
263,88,81073,1,10,0:2:0:0:
139,73,81241,1,0,0:0:0:0:
332,33,81410,1,0,1:2:0:0:
208,18,81578,1,0,1:2:0:0:
386,102,81747,1,8,0:2:0:0:
263,88,81916,1,0,1:2:0:0:
440,171,82084,5,8,0:2:0:0:
440,171,82253,2,0,P|472:105|441:35,1,154.880004726563,2|0,1:2|1:2,0:0:0:0:
332,33,82758,1,10,0:2:0:0:
386,102,82927,1,0,1:2:0:0:
263,88,83095,1,10,0:2:0:0:
440,171,83432,5,2,0:2:0:0:
170,150,86129,5,2,0:2:0:0:
170,150,86635,1,0,1:2:0:0:
204,292,86972,1,0,1:2:0:0:
268,127,87140,1,8,0:2:0:0:
291,279,87309,1,0,1:2:0:0:
268,127,87477,6,0,L|255:37,1,88,2|0,1:2|0:0,0:0:0:0:
337,72,87815,1,10,0:2:0:0:
405,203,87983,2,0,B|359:180|314:203|314:203|269:225|224:203,1,176,2|2,1:2|1:2,0:0:0:0:
116,298,88489,2,0,P|141:261|142:196,1,88,8|0,0:2|1:2,0:0:0:0:
180,137,88826,5,2,1:2:0:0:
405,203,89500,5,8,0:2:0:0:
255,39,90174,5,0,1:2:0:0:
334,75,90343,2,0,L|322:153,1,66.0000025177003,8|0,0:2|0:0,0:0:0:0:
311,227,90680,1,0,1:2:0:0:
232,191,90848,2,0,L|243:112,2,66.0000025177003,8|0|0,0:2|1:2|1:2,0:0:0:0:
334,75,91522,5,0,1:2:0:0:
311,227,92197,2,0,L|299:305,1,77.4400023632813,0|2,1:2|1:2,0:0:0:0:
200,213,92534,2,0,L|211:291,1,77.4400023632813,8|2,0:2|1:2,0:0:0:0:
112,200,92871,5,8,0:2:0:0:
167,131,93039,1,8,0:2:0:0:
24,187,93208,1,8,0:2:0:0:
79,118,93376,1,8,0:2:0:0:
144,281,93545,1,8,0:2:0:0:
167,131,93713,1,8,0:2:0:0:
56,268,93882,1,10,0:2:0:0:
79,118,94050,1,10,0:2:0:0:
90,355,94219,6,0,P|164:369|229:312,1,154.880004726563,6|0,1:2|0:0,0:0:0:0:
255,241,94725,1,2,0:2:0:0:
309,309,94893,2,0,P|368:354|442:340,1,154.880004726563,2|2,0:2|0:2,0:0:0:0:
475,258,95399,6,0,L|485:181,1,77.4400023632813,2|2,0:2|0:2,0:0:0:0:
430,113,95736,2,0,L|440:36,1,77.4400023632813,2|0,0:2|0:0,0:0:0:0:
353,48,96073,2,0,L|331:201,1,154.880004726563,2|0,0:2|0:0,0:0:0:0:
475,258,96579,1,2,0:2:0:0:
420,189,96747,1,2,1:2:0:0:
299,282,96916,6,0,B|263:303|263:303|151:286,1,154.880004726563,2|2,0:2|0:2,0:0:0:0:
131,150,97421,2,0,P|120:187|96:217,1,77.4400023632813,2|0,0:2|0:0,0:0:0:0:
0,84,97758,2,0,P|13:120|40:147,1,77.4400023632813,2|0,0:2|0:0,0:0:0:0:
87,63,98095,1,2,0:2:0:0:
233,65,98264,6,0,P|201:135|118:146,1,154.880004726563,2|0,0:2|0:0,0:0:0:0:
42,161,98770,1,2,0:2:0:0:
98,231,98938,2,0,L|109:307,1,77.4400023632813,0|2,0:0|0:2,0:0:0:0:
251,363,99275,1,2,0:2:0:0:
196,294,99444,1,2,0:2:0:0:
75,384,99612,6,0,L|98:230,1,154.880004726563,2|0,1:2|0:0,0:0:0:0:
42,161,100118,1,2,0:2:0:0:
129,149,100286,2,0,P|158:169|184:221,1,77.4400023632813,2|0,0:2|0:0,0:0:0:0:
299,109,100623,1,2,0:2:0:0:
266,191,100792,1,2,0:2:0:0:
244,40,100961,6,0,P|323:25|387:95,1,154.880004726563,2|0,0:2|0:0,0:0:0:0:
419,198,101466,2,0,P|366:137|395:46,1,154.880004726563,2|2,0:2|0:2,0:0:0:0:
506,65,101972,2,0,P|486:94|434:120,1,77.4400023632813,2|0,0:2|0:0,0:0:0:0:
376,68,102309,6,0,B|302:62|333:117|242:105,1,132.000005035401,2|2,0:2|0:2,0:0:0:0:
198,37,102815,1,2,0:2:0:0:
223,188,103152,1,2,0:2:0:0:
111,51,103657,5,2,0:2:0:0:
79,133,103826,1,2,0:2:0:0:
223,188,103994,1,2,0:2:0:0:
165,118,104163,1,2,0:2:0:0:
191,270,104500,1,2,0:2:0:0:
254,105,104837,1,2,0:2:0:0:
254,105,104921,1,0,0:0:0:0:
254,105,105006,6,0,B|293:85|332:105|332:105|371:124|410:105,1,154.880004726563,6|0,1:2|1:2,0:0:0:0:
471,52,105511,1,2,0:2:0:0:
485,139,105680,2,0,L|457:308,1,154.880004726563,2|2,1:2|1:2,0:0:0:0:
370,322,106185,6,0,P|376:287|357:235,1,77.4400023632813,2|0,0:2|1:2,0:0:0:0:
287,290,106522,2,0,P|256:265|219:256,1,77.4400023632813,2|0,0:2|1:2,0:0:0:0:
162,187,106859,2,0,P|131:255|161:324,1,154.880004726563,2|0,0:2|0:0,0:0:0:0:
10,348,107365,1,2,1:2:0:0:
93,380,107534,1,2,0:2:0:0:
0,259,107702,6,0,L|25:106,1,154.880004726563,2|2,1:2|1:2,0:0:0:0:
39,19,108208,1,2,0:2:0:0:
107,74,108376,2,0,L|183:86,1,77.4400023632813,0|2,1:2|0:2,0:0:0:0:
238,17,108713,2,0,L|314:4,1,77.4400023632813,0|2,1:2|0:2,0:0:0:0:
366,142,109050,6,0,L|193:170,1,154.880004726563,2|0,1:2|1:2,0:0:0:0:
182,85,109556,1,2,0:2:0:0:
126,153,109725,2,0,L|138:229,1,77.4400023632813,0|2,1:2|0:2,0:0:0:0:
146,265,109977,1,2,0:2:0:0:
146,265,110062,1,0,1:2:0:0:
213,167,110230,1,8,0:2:0:0:
233,277,110399,6,0,L|325:290,1,77.4400023632813,2|0,1:2|0:0,0:0:0:0:
363,219,110736,1,2,1:2:0:0:
330,137,110904,2,0,L|253:125,1,77.4400023632813,2|0,0:2|1:2,0:0:0:0:
220,43,111241,2,0,L|143:54,1,77.4400023632813,2|0,0:2|1:2,0:0:0:0:
55,66,111579,1,2,0:2:0:0:
155,141,111747,6,0,B|175:187|175:187|160:300,1,154.880004726563,0|0,1:2|1:2,0:0:0:0:
92,345,112253,1,2,0:2:0:0:
216,359,112421,1,2,1:2:0:0:
161,290,112590,1,2,0:2:0:0:
286,299,112758,2,0,L|362:311,1,77.4400023632813,0|2,1:2|0:2,0:0:0:0:
304,140,113095,6,0,L|316:216,1,77.4400023632813,2|0,1:2|0:0,0:0:0:0:
216,127,113432,2,0,L|204:51,1,77.4400023632813,2|0,1:2|0:0,0:0:0:0:
130,141,113770,2,0,L|54:153,1,77.4400023632813,2|2,1:2|0:2,0:0:0:0:
66,240,114107,2,0,L|142:228,1,77.4400023632813,2|2,1:2|0:2,0:0:0:0:
228,214,114444,1,0,1:2:0:0:
267,292,114612,1,10,0:2:0:0:
206,354,114781,1,0,1:2:0:0:
128,313,114949,1,2,1:2:0:0:
228,214,115118,5,10,0:2:0:0:
53,153,115455,1,2,1:2:0:0:
278,50,115792,6,0,L|249:227,1,154.880004726563,2|0,1:2|0:0,0:0:0:0:
416,226,116298,2,0,L|327:211,1,77.4400023632813,2|10,1:2|0:2,0:0:0:0:
314,376,116635,2,0,L|328:287,1,77.4400023632813,2|0,1:2|0:0,0:0:0:0:
230,357,116972,1,2,1:2:0:0:
401,384,117309,6,0,B|411:319|411:319|431:293|431:293|442:231,1,154.880004726563,8|2,0:2|1:2,0:0:0:0:
364,136,117815,1,10,0:2:0:0:
352,224,117983,1,0,1:2:0:0:
452,149,118152,2,0,L|466:60,1,77.4400023632813,2|0,1:2|0:0,0:0:0:0:
214,133,118489,6,0,B|253:113|292:133|292:133|331:152|370:133,1,154.880004726563,6|2,1:2|0:2,0:0:0:0:
352,224,118994,2,0,P|320:247|299:306,1,77.4400023632813,2|8,1:2|0:2,0:0:0:0:
471,316,119331,2,0,P|467:278|447:245,1,77.4400023632813,2|0,1:2|0:0,0:0:0:0:
384,305,119668,1,2,1:2:0:0:
414,163,120006,1,8,0:2:0:0:
414,163,120090,1,8,0:2:0:0:
414,163,120174,5,8,0:2:0:0:
352,224,120343,1,0,1:2:0:0:
319,142,120511,1,2,1:2:0:0:
264,211,120680,1,0,1:2:0:0:
250,86,120848,2,0,L|235:-3,2,51.6266682421875,8|2|2,0:2|1:2|1:2,0:0:0:0:
195,155,121185,6,0,P|118:187|46:134,1,176,6|10,1:2|0:2,0:0:0:0:
141,15,121691,2,0,P|143:59|126:99,1,88,2|0,0:2|1:2,0:0:0:0:
32,221,122028,1,2,1:2:0:0:
32,221,122197,2,0,P|29:177|47:137,1,88,10|0,0:2|0:0,0:0:0:0:
100,276,122534,6,0,L|186:289,1,88,2|0,1:2|0:0,0:0:0:0:
218,371,122871,2,0,L|304:357,1,88,8|0,0:2|0:0,0:0:0:0:
428,265,123208,1,2,1:2:0:0:
397,348,123376,1,0,1:2:0:0:
372,196,123545,2,0,P|411:178|455:180,1,88,8|0,0:2|0:0,0:0:0:0:
340,278,123882,6,0,P|286:217|319:124,1,176,6|8,1:2|0:2,0:0:0:0:
255,20,124388,2,0,P|250:63|226:99,1,88,0|0,0:0|1:2,0:0:0:0:
170,30,124725,1,0,1:2:0:0:
139,116,124893,2,0,P|158:155|194:181,1,88,8|2,0:2|0:2,0:0:0:0:
364,152,125230,6,0,P|320:149|280:167,1,88,2|0,1:2|0:0,0:0:0:0:
335,235,125567,1,8,0:2:0:0:
450,138,125736,2,0,L|436:48,1,88,2|0,0:2|1:2,0:0:0:0:
350,65,126073,1,2,1:2:0:0:
419,220,126241,2,0,L|405:306,1,88,8|0,0:2|0:0,0:0:0:0:
248,248,126579,5,6,1:2:0:0:
364,152,126747,1,0,1:2:0:0:
216,330,127084,5,0,1:2:0:0:
339,232,127253,1,8,0:2:0:0:
164,260,127421,1,0,1:2:0:0:
394,300,127758,5,0,1:2:0:0:
364,152,127927,1,8,0:2:0:0:
248,248,128095,1,0,1:2:0:0:
395,69,128432,5,0,1:2:0:0:
339,232,128601,1,8,0:2:0:0:
225,102,128770,1,0,1:2:0:0:
364,152,128938,2,0,L|450:165,1,88,8|0,0:2|1:2,0:0:0:0:
308,83,129275,5,8,0:2:0:0:
339,232,129444,1,0,1:2:0:0:
225,102,129612,5,8,0:2:0:0:
364,152,129781,1,0,1:2:0:0:
193,184,129949,6,0,L|106:197,2,58.6666666666667,8|8|8,0:2|0:2|0:2,0:0:0:0:
248,252,130286,2,0,L|261:338,2,58.6666666666667,0|0|0,1:2|1:2|1:2,0:0:0:0:
283,163,130623,5,8,0:2:0:0:
394,300,130792,1,8,0:2:0:0:
394,300,131298,6,0,B|306:279|329:374|217:337,1,171.599992144776,2|0,0:2|0:0,0:0:0:0:
105,256,131972,2,0,P|148:204|180:274,1,171.599992144776,2|0,0:2|0:0,0:0:0:0:
148,354,132646,6,0,L|96:361,2,51.6266682421875,10|2|2,0:2|0:2|0:2,0:0:0:0:
236,342,132983,2,0,L|287:349,2,51.6266682421875,2|2|2,0:2|0:2|0:2,0:0:0:0:
180,272,133320,6,0,L|166:182,1,88,6|0,1:2|0:0,0:0:0:0:
153,98,133657,1,10,0:2:0:0:
316,162,133826,2,0,L|245:218,1,88,2|0,0:2|1:2,0:0:0:0:
302,74,134163,2,0,P|344:77|381:101,1,88,2|10,1:2|0:2,0:0:0:0:
401,283,134500,6,0,P|325:245|315:161,1,176,2|0,0:2|0:0,0:0:0:0:
397,194,135006,1,10,0:2:0:0:
488,296,135174,2,0,L|400:282,1,88,2|0,1:2|0:0,0:0:0:0:
244,350,135511,2,0,L|331:336,1,88,2|8,1:2|0:2,0:0:0:0:
276,268,135848,1,2,0:2:0:0:
154,361,136017,6,0,L|66:347,1,88,2|0,1:2|0:0,0:0:0:0:
14,281,136354,1,10,0:2:0:0:
183,282,136522,2,0,P|179:324|155:361,1,88,2|0,0:2|1:2,0:0:0:0:
128,213,136859,2,0,P|167:194|210:196,1,88,2|8,1:2|0:2,0:0:0:0:
247,44,137197,6,0,P|198:103|215:203,1,176,2|0,0:2|0:0,0:0:0:0:
264,264,137702,1,10,0:2:0:0:
128,213,137871,2,0,L|40:226,1,88,2|0,1:2|0:0,0:0:0:0:
59,56,138208,2,0,L|72:143,1,88,2|8,1:2|0:2,0:0:0:0:
140,88,138545,1,0,0:0:0:0:
40,226,138713,6,0,P|90:289|192:275,1,176,2|8,1:2|0:2,0:0:0:0:
128,213,139219,1,0,0:0:0:0:
247,229,139388,2,0,P|265:268|263:312,2,88,2|0|8,1:2|1:2|0:2,0:0:0:0:
196,158,139893,1,0,0:0:0:0:
177,284,140062,6,0,L|163:371,1,88,2|0,1:2|0:0,0:0:0:0:
128,213,140399,1,10,0:2:0:0:
262,312,140567,2,0,L|349:325,1,88,2|0,0:2|1:2,0:0:0:0:
436,338,140904,1,0,1:2:0:0:
362,238,141073,1,10,0:2:0:0:
449,250,141241,1,2,1:2:0:0:
375,150,141410,5,14,0:2:0:0:
274,224,141579,1,0,1:2:0:0:
301,49,141747,5,10,0:2:0:0:
375,150,141916,1,0,1:2:0:0:
200,123,142084,5,10,0:2:0:0:
301,49,142253,1,0,1:2:0:0:
274,224,142421,6,0,P|215:277|93:239,1,176,14|2,0:2|1:2,0:0:0:0:
54,212,142927,1,10,0:2:0:0:
123,92,143095,2,0,L|136:179,1,88,10|2,0:2|1:2,0:0:0:0:
40,124,143432,1,10,0:2:0:0:
204,59,143601,1,8,0:2:0:0:
220,72,143685,1,8,0:2:0:0:
238,85,143770,2,0,L|230:137,1,44,10|8,0:2|0:2,0:0:0:0:
306,225,143938,2,0,L|299:181,1,44,8|8,0:2|0:2,0:0:0:0:
251,294,144107,6,0,P|293:313|351:301,1,88,6|0,1:2|0:0,0:0:0:0:
393,238,144444,1,10,0:2:0:0:
218,213,144612,2,0,P|180:239|161:296,1,88,2|0,0:2|1:2,0:0:0:0:
279,373,144949,2,0,P|274:327|235:282,1,88,2|8,1:2|0:2,0:0:0:0:
110,346,145286,6,0,B|66:366|66:366|0:315|43:234,1,176,2|0,0:2|0:0,0:0:0:0:
88,182,145792,1,10,0:2:0:0:
189,317,145961,2,0,P|143:321|98:360,1,88,2|0,1:2|0:0,0:0:0:0:
88,182,146298,2,0,P|133:177|178:138,1,88,2|8,1:2|0:2,0:0:0:0:
221,83,146635,1,2,0:2:0:0:
344,153,146803,6,0,P|380:177|424:182,1,88,2|0,1:2|0:0,0:0:0:0:
411,94,147140,1,10,0:2:0:0:
331,240,147309,2,0,L|318:327,1,88,2|0,0:2|1:2,0:0:0:0:
400,294,147646,1,2,1:2:0:0:
249,273,147815,2,0,L|162:260,1,88,8|2,0:2|0:2,0:0:0:0:
137,86,148152,6,0,L|161:263,1,176,2|8,1:2|0:2,0:0:0:0:
173,347,148657,1,0,1:2:0:0:
73,272,148826,2,0,L|60:185,1,88,2|0,0:2|1:2,0:0:0:0:
194,178,149163,1,10,0:2:0:0:
161,260,149331,1,2,0:2:0:0:
281,165,149500,6,0,L|268:77,1,88,4|0,1:2|0:0,0:0:0:0:
355,239,149837,2,0,L|367:151,1,88,10|0,0:2|0:0,0:0:0:0:
247,246,150174,1,2,1:2:0:0:
301,315,150343,1,0,1:2:0:0:
161,260,150511,2,0,L|73:272,1,88,10|0,0:2|0:0,0:0:0:0:
181,90,150848,6,0,L|193:177,1,88,0|0,1:2|0:0,0:0:0:0:
99,56,151185,2,0,L|111:143,1,88,10|0,0:2|0:0,0:0:0:0:
250,35,151522,1,2,1:2:0:0:
168,2,151691,1,0,1:2:0:0:
262,122,151859,2,0,L|349:109,1,88,10|0,0:2|0:0,0:0:0:0:
228,203,152197,6,0,P|193:177|174:138,1,88,0|0,1:2|0:0,0:0:0:0:
282,272,152534,2,0,P|242:288|198:285,1,88,8|0,0:2|0:0,0:0:0:0:
369,259,152871,1,0,1:2:0:0:
336,341,153039,1,0,1:2:0:0:
314,189,153208,2,0,L|301:102,1,88,8|0,0:2|0:0,0:0:0:0:
452,75,153545,6,0,P|385:125|281:75,1,176,2|8,1:2|0:2,0:0:0:0:
159,44,154050,1,0,0:0:0:0:
159,44,154219,2,0,L|246:31,1,88,2|0,1:2|1:2,0:0:0:0:
125,125,154556,2,0,L|38:112,1,88,10|0,0:2|0:0,0:0:0:0:
179,194,154893,6,0,P|146:268|219:351,1,176,6|8,0:2|0:2,0:0:0:0:
265,180,155399,1,0,0:0:0:0:
320,250,155567,2,0,L|233:262,1,88,2|2,1:2|1:2,0:0:0:0:
353,168,155904,2,0,L|440:155,1,88,8|0,0:2|0:0,0:0:0:0:
298,98,156241,6,0,L|264:179,1,88,2|0,1:2|0:0,0:0:0:0:
320,250,156579,1,10,0:2:0:0:
386,86,156747,2,0,P|367:42|327:15,1,88,2|0,1:2|0:0,0:0:0:0:
214,107,157084,2,0,P|261:112|304:91,1,88,2|10,1:2|0:2,0:0:0:0:
247,25,157421,1,2,0:2:0:0:
180,188,157590,6,0,L|192:275,1,88,2|0,1:2|0:0,0:0:0:0:
333,331,157927,1,0,1:2:0:0:
246,344,158095,1,2,1:2:0:0:
366,249,158264,1,0,1:2:0:0:
420,318,158432,1,8,0:2:0:0:
278,261,158601,1,8,0:2:0:0:
399,167,158770,1,8,0:2:0:0:
333,331,158938,6,0,L|246:343,1,88,6|0,1:2|0:0,0:0:0:0:
158,355,159275,1,10,0:2:0:0:
265,173,159444,2,0,L|277:260,1,88,2|0,1:2|0:0,0:0:0:0:
195,227,159781,1,2,1:2:0:0:
379,124,159949,2,0,L|345:205,1,88,10|0,0:2|0:0,0:0:0:0:
113,193,160286,5,6,1:2:0:0:
298,91,169725,5,2,0:2:0:0:
227,144,170062,1,2,0:2:0:0:
145,109,170399,1,2,0:2:0:0:
74,162,170736,1,2,0:2:0:0:
80,182,170820,1,2,0:2:0:0:
87,203,170904,1,2,0:2:0:0:
94,224,170988,1,2,0:2:0:0:
100,245,171073,6,0,B|144:261|144:261|168:301|168:301|213:318,1,140.8,6|0,1:2|1:2,0:0:0:0:
412,245,171747,2,0,B|368:261|368:261|344:301|344:301|299:318,1,140.8,2|2,1:2|1:2,0:0:0:0:
290,235,172253,1,2,0:2:0:0:
290,235,172421,6,0,L|327:175,1,70.4,0|0,1:2|0:0,0:0:0:0:
281,106,172758,2,0,L|210:103,1,70.4,0|8,1:2|0:2,0:0:0:0:
174,179,173095,2,0,L|207:241,1,70.4,0|8,1:2|0:2,0:0:0:0:
90,185,173432,1,2,1:2:0:0:
90,185,173601,1,2,0:2:0:0:
156,46,173770,6,0,P|184:110|174:179,1,140.8,6|2,1:2|1:2,0:0:0:0:
28,218,174275,2,0,L|90:185,1,70.4,2|0,0:2|1:2,0:0:0:0:
178,261,174612,2,0,L|54:328,1,140.8,2|2,0:2|0:2,0:0:0:0:
172,179,175118,6,0,P|237:202|260:266,1,140.8,6|0,1:2|1:2,0:0:0:0:
178,261,175623,1,2,0:2:0:0:
178,261,175792,1,10,0:2:0:0:
166,97,176129,1,2,1:2:0:0:
330,85,176466,5,6,1:2:0:0:
330,85,178489,6,0,L|379:69,2,51.6266682421875,2|2|2,0:2|0:2|0:2,0:0:0:0:
380,154,178826,2,0,L|430:164,2,51.6266682421875,2|2|2,0:2|0:2|0:2,0:0:0:0:
388,238,179163,6,0,P|406:278|402:321,1,88,6|0,1:2|0:0,0:0:0:0:
254,337,179500,2,0,P|323:289|401:320,1,176,8|0,0:2|1:2,0:0:0:0:
334,377,180006,1,0,1:2:0:0:
174,297,180174,2,0,L|87:312,1,88,8|2,0:2|0:2,0:0:0:0:
43,319,180427,1,2,0:2:0:0:
43,319,180511,6,0,P|74:240|26:171,1,176,2|10,1:2|0:2,0:0:0:0:
11,84,181017,2,0,L|26:170,1,88,2|0,0:2|1:2,0:0:0:0:
93,113,181354,1,2,1:2:0:0:
174,297,181522,2,0,L|260:312,1,88,10|0,0:2|0:0,0:0:0:0:
433,281,181859,6,0,L|236:316,1,176,2|10,1:2|0:2,0:0:0:0:
274,224,182365,2,0,L|259:138,1,88,2|0,0:2|1:2,0:0:0:0:
341,167,182702,1,2,1:2:0:0:
191,195,182871,2,0,L|104:210,1,88,10|0,0:2|0:0,0:0:0:0:
258,137,183208,6,0,P|320:81|402:103,1,176,2|10,1:2|0:2,0:0:0:0:
356,253,183713,2,0,L|341:167,1,88,2|0,1:2|0:0,0:0:0:0:
402,103,184050,1,2,1:2:0:0:
437,282,184219,2,0,L|445:325,1,44,10|2,0:2|0:2,0:0:0:0:
379,382,184388,2,0,L|371:339,1,44,2|2,0:2|0:2,0:0:0:0:
291,309,184556,6,0,L|205:324,1,88,2|0,1:2|0:0,0:0:0:0:
185,177,184893,2,0,P|235:245|204:324,1,176,8|0,0:2|1:2,0:0:0:0:
148,257,185399,1,0,1:2:0:0:
129,110,185567,2,0,L|195:54,1,88,8|2,0:2|0:2,0:0:0:0:
188,7,185820,1,2,0:2:0:0:
188,7,185904,6,0,P|240:74|324:65,1,176,2|10,1:2|0:2,0:0:0:0:
403,96,186410,2,0,P|367:71|323:66,1,88,2|0,1:2|0:0,0:0:0:0:
338,152,186747,1,2,1:2:0:0:
243,287,186916,2,0,P|248:243|273:208,1,88,10|0,0:2|0:0,0:0:0:0:
411,303,187253,6,0,L|315:267,1,88,2|0,1:2|0:0,0:0:0:0:
427,133,187590,2,0,L|391:229,1,88,10|2,0:2|0:2,0:0:0:0:
272,208,187927,2,0,L|190:239,1,88,2|0,1:2|1:2,0:0:0:0:
174,69,188264,2,0,L|210:165,1,88,10|2,0:2|1:2,0:0:0:0:
175,326,188601,5,10,0:2:0:0:
122,183,188770,1,0,1:2:0:0:
272,208,188938,5,10,0:2:0:0:
129,261,189107,1,2,1:2:0:0:
188,109,189275,6,0,L|204:151,1,44,8|0,0:2|1:2,0:0:0:0:
272,208,189444,2,0,L|287:250,1,44,0|0,1:2|1:2,0:0:0:0:
350,313,189612,1,10,0:2:0:0:
380,301,189696,1,10,0:2:0:0:
411,289,189780,1,10,0:2:0:0:
442,277,189864,1,10,0:2:0:0:
472,265,189949,6,0,L|503:182,1,88,4|0,1:2|0:0,0:0:0:0:
364,134,190286,2,0,P|420:197|503:182,1,176,8|0,0:2|1:2,0:0:0:0:
448,115,190792,1,0,1:2:0:0:
280,153,190961,2,0,L|172:179,1,88,8|2,0:2|0:2,0:0:0:0:
159,144,191213,1,2,0:2:0:0:
159,144,191298,6,0,B|140:206|140:206|164:245|164:245|147:308,1,176,2|10,1:2|0:2,0:0:0:0:
207,371,191803,2,0,L|146:307,1,88,2|0,1:2|0:0,0:0:0:0:
231,286,192140,1,2,1:2:0:0:
377,329,192309,2,0,L|291:349,1,88,8|0,0:2|0:0,0:0:0:0:
255,201,192646,6,0,L|428:242,1,176,2|10,1:2|0:2,0:0:0:0:
400,161,193152,2,0,P|403:204|426:242,1,88,2|0,0:2|1:2,0:0:0:0:
486,178,193489,1,2,1:2:0:0:
372,79,193657,2,0,P|335:103|315:141,1,88,10|2,0:2|0:2,0:0:0:0:
425,241,193994,5,0,1:2:0:0:
460,96,194163,1,8,0:2:0:0:
486,178,194331,1,2,0:2:0:0:
400,161,194500,1,2,0:2:0:0:
369,303,194668,2,0,P|407:324|450:321,1,88,0|0,1:2|0:0,0:0:0:0:
291,348,195006,2,0,L|233:335,2,58.6666666666667,2|2|2,0:2|0:2|0:2,0:0:0:0:
292,258,195343,5,2,1:2:0:0:
71,339,195680,1,2,0:2:0:0:
136,384,195848,2,0,P|147:352|142:308,1,79.1999975830079,2|10,0:2|0:2,0:0:0:0:
157,154,196185,2,0,P|133:222|144:315,1,158.399995166016,2|0,0:2|0:0,0:0:0:0:
233,335,196691,5,2,1:2:0:0:
292,258,196859,1,8,0:2:0:0:
233,49,197197,5,0,1:2:0:0:
292,126,197365,2,0,B|335:110|368:135|368:135|400:161|446:143,1,158.399995166016,10|0,0:2|0:0,0:0:0:0:
219,189,198039,6,0,P|195:116|233:49,1,158.399995166016,4|0,1:2|0:0,0:0:0:0:
291,257,198713,2,0,P|314:268|333:287,2,52.7999983886719,10|2|2,0:2|0:2|0:2,0:0:0:0:
391,236,199050,2,0,P|404:256|412:282,2,52.7999983886719,10|10|10,0:2|0:2|0:2,0:0:0:0:
488,267,199388,2,0,P|489:290|483:317,2,52.7999983886719,10|10|10,0:2|0:2|0:2,0:0:0:0:
466,167,199725,6,0,P|467:143|461:116,2,52.7999983886719,2|2|2,1:2|1:2|1:2,0:0:0:0:
382,149,200062,2,0,P|371:127|352:107,2,52.7999983886719,2|2|2,1:2|1:2|1:2,0:0:0:0:
300,175,200399,2,0,P|280:161|253:153,2,52.7999983886719,2|2|2,1:2|1:2|1:2,0:0:0:0:
241,238,200736,6,0,L|146:246,1,88,6|0,1:2|1:2,0:0:0:0:
14,165,201073,2,0,L|108:173,1,88,0|0,1:2|1:2,0:0:0:0:
241,91,201410,2,0,L|146:99,1,88,0|0,1:2|1:2,0:0:0:0:
14,17,201747,2,0,L|108:25,1,88,0|0,1:2|1:2,0:0:0:0:
241,91,202084,6,0,L|153:99,2,88,0|0|0,1:2|1:2|1:2,0:0:0:0:
380,152,202590,1,8,0:2:0:0:
328,81,202758,1,0,1:2:0:0:
205,170,202927,1,8,0:2:0:0:
241,91,203095,1,0,1:2:0:0:
380,152,203264,5,8,0:2:0:0:
380,152,203348,1,8,0:2:0:0:
380,152,203432,1,8,0:2:0:0:
398,29,203601,1,8,0:2:0:0:
309,203,203770,1,8,0:2:0:0:
449,100,203938,1,8,0:2:0:0:
360,274,204107,1,8,0:2:0:0:
328,81,204275,1,8,0:2:0:0:
432,223,204444,2,0,P|447:263|441:306,1,88,8|8,0:2|0:2,0:0:0:0:
273,282,204781,5,8,0:2:0:0:
380,152,204949,1,8,0:2:0:0:
160,285,205455,6,0,B|79:322|79:322|0:301,1,171.599992144776,2|0,0:2|0:0,0:0:0:0:
40,194,206129,6,0,P|100:196|43:214,1,171.599992144776,2|0,0:2|0:0,0:0:0:0:
58,96,206803,6,0,B|100:88|137:115|137:115|172:145|219:138,1,171.599992144776,2|0,0:2|0:0,0:0:0:0:
293,79,207477,6,0,P|313:122|307:173,1,92.3999971801759,0|0,0:0|0:0,0:0:0:0:
368,234,208152,6,0,L|453:252,1,88,6|0,1:2|0:0,0:0:0:0:
427,168,208489,1,10,0:2:0:0:
308,299,208657,2,0,L|222:317,1,88,2|0,0:2|1:2,0:0:0:0:
74,231,208994,2,0,L|159:249,1,88,2|10,1:2|0:2,0:0:0:0:
186,103,209331,6,0,P|134:170|161:251,1,176,2|0,0:2|0:0,0:0:0:0:
221,186,209837,1,10,0:2:0:0:
245,38,210005,2,0,L|185:103,1,88,2|0,1:2|0:0,0:0:0:0:
306,204,210343,2,0,L|365:138,1,88,2|8,1:2|0:2,0:0:0:0:
424,72,210680,1,2,0:2:0:0:
456,280,210848,6,0,L|391:221,1,88,2|0,1:2|0:0,0:0:0:0:
372,306,211185,1,10,0:2:0:0:
242,187,211354,2,0,L|325:160,1,88,2|0,0:2|1:2,0:0:0:0:
288,332,211691,2,0,L|204:358,1,88,2|8,1:2|0:2,0:0:0:0:
54,324,212028,6,0,P|70:242|149:210,1,176,2|0,0:2|0:0,0:0:0:0:
138,298,212534,1,10,0:2:0:0:
159,121,212702,2,0,L|132:37,1,88,2|0,1:2|0:0,0:0:0:0:
73,102,213039,1,2,1:2:0:0:
244,139,213208,2,0,L|329:157,1,88,8|0,0:2|0:0,0:0:0:0:
467,103,213545,6,0,P|384:92|330:157,1,176,2|8,1:2|0:2,0:0:0:0:
416,175,214050,1,0,0:0:0:0:
384,323,214219,2,0,L|356:239,2,88,2|0|8,1:2|1:2|0:2,0:0:0:0:
470,341,214725,1,0,0:0:0:0:
297,304,214893,6,0,L|213:331,1,88,2|0,1:2|0:0,0:0:0:0:
147,272,215230,1,10,0:2:0:0:
0,185,215399,2,0,L|83:212,1,88,2|0,0:2|1:2,0:0:0:0:
142,148,215736,1,0,1:2:0:0:
213,331,215904,1,10,0:2:0:0:
206,207,216073,1,2,1:2:0:0:
88,337,216241,5,14,0:2:0:0:
83,212,216410,1,0,1:2:0:0:
213,331,216578,5,10,0:2:0:0:
88,337,216747,1,0,1:2:0:0:
206,207,216916,5,10,0:2:0:0:
213,331,217084,1,0,1:2:0:0:
142,146,217253,6,0,P|221:119|287:172,1,176,14|2,0:2|1:2,0:0:0:0:
271,266,217758,1,10,0:2:0:0:
420,297,217927,2,0,L|354:238,1,88,2|2,0:2|1:2,0:0:0:0:
336,324,218264,1,10,0:2:0:0:
372,151,218432,1,8,0:2:0:0:
376,130,218516,1,8,0:2:0:0:
381,107,218601,2,0,L|390:63,1,44,10|8,0:2|0:2,0:0:0:0:
305,43,218769,2,0,L|295:0,1,44,8|8,0:2|0:2,0:0:0:0:
219,64,218938,6,0,L|198:160,1,88,6|0,1:2|0:0,0:0:0:0:
181,234,219275,1,10,0:2:0:0:
50,115,219444,2,0,P|98:113|135:88,1,88,2|0,0:2|1:2,0:0:0:0:
97,260,219781,2,0,P|70:219|30:200,1,88,2|8,1:2|0:2,0:0:0:0:
78,345,220118,6,0,B|119:352|155:327|155:327|264:352,1,176,2|0,0:2|0:0,0:0:0:0:
306,282,220623,1,10,0:2:0:0:
258,136,220792,2,0,L|237:232,1,88,2|0,1:2|0:0,0:0:0:0:
371,341,221129,2,0,P|390:301|388:258,1,88,2|8,1:2|0:2,0:0:0:0:
324,196,221466,1,2,0:2:0:0:
155,247,221635,6,0,L|59:226,1,88,2|0,1:2|0:0,0:0:0:0:
42,144,221972,1,10,0:2:0:0:
180,93,222140,2,0,L|113:165,1,88,2|0,0:2|1:2,0:0:0:0:
152,8,222477,2,0,L|248:29,1,88,2|8,1:2|0:2,0:0:0:0:
322,44,222814,1,2,0:2:0:0:
283,199,222983,6,0,P|202:174|180:93,1,176,2|8,1:2|0:2,0:0:0:0:
265,111,223489,1,0,1:2:0:0:
368,180,223657,2,0,L|283:199,1,88,2|0,0:2|1:2,0:0:0:0:
360,349,223994,1,10,0:2:0:0:
341,262,224163,1,2,0:2:0:0:
454,161,224331,6,0,L|435:246,1,88,4|0,1:2|0:0,0:0:0:0:
264,284,224668,2,0,L|283:199,1,88,10|0,0:2|0:0,0:0:0:0:
180,311,225005,1,2,1:2:0:0:
198,225,225174,1,0,1:2:0:0:
95,336,225343,2,0,P|57:317|31:279,1,88,10|0,0:2|1:2,0:0:0:0:
133,164,225680,5,10,0:2:0:0:
133,164,225848,2,0,P|212:137|279:190,1,176,0|0,1:2|1:2,0:0:0:0:
179,310,226354,2,0,L|198:225,1,88,10|0,0:2|1:2,0:0:0:0:
347,302,226691,2,0,L|262:283,1,88,2|0,0:2|0:0,0:0:0:0:
279,190,227028,6,0,L|485:236,1,211.2,6|0,1:2|0:0,0:0:0:0:
461,136,227702,1,10,0:2:0:0:
461,136,227871,1,2,0:2:0:0:
347,302,228208,1,2,0:2:0:0:
255,278,228376,1,2,1:2:0:0:
255,278,228545,2,0,L|180:295,1,70.4,10|2,0:2|0:2,0:0:0:0:
141,377,228882,1,2,1:2:0:0:
141,377,229050,2,0,L|66:359,1,70.4,8|2,0:2|1:2,0:0:0:0:
0,208,229556,5,2,0:2:0:0:
0,208,229725,2,0,P|43:134|76:213,1,211.2,6|2,1:2|1:2,0:0:0:0:
171,200,230399,1,10,0:2:0:0:
186,293,230567,2,0,L|323:324,1,140.8,10|2,0:2|0:2,0:0:0:0:
406,344,231073,5,6,0:2:0:0:
406,344,231241,1,8,0:2:0:0:
381,262,231410,1,8,0:2:0:0:
381,262,231578,1,8,0:2:0:0:
439,200,231747,2,0,P|392:177|350:182,1,88,2|0,1:2|1:2,0:0:0:0:
249,246,232084,2,0,P|271:199|266:157,1,88,2|0,1:2|1:2,0:0:0:0:
100,170,232421,6,0,L|186:187,1,88,4|0,1:2|0:0,0:0:0:0:
174,16,232758,2,0,L|157:102,1,88,10|0,0:2|0:0,0:0:0:0:
272,204,233095,1,2,1:2:0:0:
243,120,233264,1,0,1:2:0:0:
127,253,233432,2,0,P|84:257|45:238,1,88,10|0,0:2|0:0,0:0:0:0:
186,187,233769,6,0,L|272:204,1,88,0|0,1:2|0:0,0:0:0:0:
415,120,234107,2,0,L|329:137,1,88,10|0,0:2|0:0,0:0:0:0:
403,289,234444,1,2,1:2:0:0:
385,202,234612,1,0,1:2:0:0:
374,372,234781,2,0,P|417:376|457:358,1,88,10|0,0:2|0:0,0:0:0:0:
316,306,235118,6,0,L|230:323,1,88,2|0,1:2|0:0,0:0:0:0:
84,239,235455,2,0,L|170:256,1,88,8|0,0:2|0:0,0:0:0:0:
284,122,235792,1,0,1:2:0:0:
227,189,235960,1,0,1:2:0:0:
217,63,236129,2,0,P|252:39|296:34,1,88,8|0,0:2|0:0,0:0:0:0:
399,189,236466,5,2,1:2:0:0:
399,189,236635,2,0,L|361:380,1,176,8|0,0:2|1:2,0:0:0:0:
315,217,237140,1,8,0:2:0:0:
482,160,237308,1,0,1:2:0:0:
381,275,237477,1,2,1:2:0:0:
433,16,237814,5,2,0:2:0:0:
11,238,240511,5,2,0:2:0:0:
11,238,241017,1,0,1:2:0:0:
11,238,241354,1,2,1:2:0:0:
27,87,241522,1,10,0:2:0:0:
99,247,241691,1,2,1:2:0:0:
114,92,241859,6,0,L|210:101,1,88,6|0,1:2|0:0,0:0:0:0:
288,108,242196,1,10,0:2:0:0:
273,261,242365,2,0,L|200:100,1,176,2|2,1:2|1:2,0:0:0:0:
339,36,242871,2,0,P|368:71|374:130,1,88,8|2,0:2|1:2,0:0:0:0:
273,261,243208,5,2,0:2:0:0:
339,36,243882,6,0,L|397:46,2,51.6266682421875,2|2|2,0:2|0:2|0:2,0:0:0:0:
288,108,244219,2,0,L|230:117,2,51.6266682421875,2|2|2,1:2|0:2|0:2,0:0:0:0:
339,179,244556,6,0,L|425:193,1,88,6|0,1:2|0:0,0:0:0:0:
282,246,244893,2,0,L|108:275,1,176,8|0,0:2|1:2,0:0:0:0:
21,289,245399,1,0,1:2:0:0:
82,123,245567,2,0,P|117:147|136:187,1,88,8|0,0:2|0:0,0:0:0:0:
112,40,245904,6,0,L|285:69,1,176,2|8,1:2|0:2,0:0:0:0:
313,149,246410,2,0,P|289:112|285:69,1,88,0|0,1:2|0:0,0:0:0:0:
372,84,246747,1,0,1:2:0:0:
340,233,246916,2,0,L|325:319,1,88,8|2,0:2|0:2,0:0:0:0:
317,362,247168,1,2,0:2:0:0:
317,362,247253,6,0,P|277:343|233:346,1,88,2|0,1:2|0:0,0:0:0:0:
84,305,247590,2,0,P|127:307|166:288,1,88,8|0,0:2|0:0,0:0:0:0:
136,137,247927,1,0,1:2:0:0:
110,221,248095,1,0,1:2:0:0:
77,73,248264,2,0,P|53:109|49:152,1,88,8|0,0:2|0:0,0:0:0:0:
195,201,248601,6,0,L|366:162,1,176,2|10,1:2|0:2,0:0:0:0:
392,77,249107,2,0,L|366:162,1,88,2|0,1:2|0:0,0:0:0:0:
339,246,249444,1,2,1:2:0:0:
220,115,249612,2,0,P|177:114|138:133,1,88,10|0,0:2|0:0,0:0:0:0:
168,285,249949,6,0,L|195:201,1,88,2|0,1:2|0:0,0:0:0:0:
227,349,250286,2,0,P|145:368|85:308,1,176,8|2,0:2|1:2,0:0:0:0:
168,285,250792,1,0,1:2:0:0:
313,330,250960,2,0,L|399:311,1,88,8|0,0:2|0:0,0:0:0:0:
319,160,251298,6,0,L|338:246,1,88,2|0,1:2|0:0,0:0:0:0:
457,375,251635,2,0,P|484:295|430:230,1,176,8|2,0:2|1:2,0:0:0:0:
337,245,252140,1,0,1:2:0:0:
300,74,252309,2,0,P|359:81|385:102,1,88,8|0,0:2|1:2,0:0:0:0:
235,133,252646,5,10,0:2:0:0:
151,106,252814,1,0,1:2:0:0:
103,251,252983,5,10,0:2:0:0:
169,192,253151,1,0,1:2:0:0:
271,305,253320,5,10,0:2:0:0:
187,278,253489,1,0,1:2:0:0:
337,245,253657,6,0,P|400:190|388:104,1,176,14|2,0:2|1:2,0:0:0:0:
318,158,254163,1,8,0:2:0:0:
271,305,254331,2,0,L|187:332,1,88,2|0,0:2|1:2,0:0:0:0:
103,357,254668,1,8,0:2:0:0:
55,214,254837,1,8,0:2:0:0:
59,192,254921,1,8,0:2:0:0:
64,170,255005,2,0,L|73:126,1,44,10|10,0:2|0:2,0:0:0:0:
131,60,255174,2,0,L|121:16,1,44,10|10,0:2|0:2,0:0:0:0:
188,126,255343,6,0,L|278:106,1,88,6|0,1:2|0:0,0:0:0:0:
446,144,255680,2,0,L|273:107,1,176,8|0,0:2|1:2,0:0:0:0:
418,60,256185,1,0,1:2:0:0:
473,227,256354,2,0,L|500:310,1,88,8|0,0:2|0:0,0:0:0:0:
386,208,256691,6,0,P|335:252|356:358,1,176,2|10,1:2|0:2,0:0:0:0:
413,291,257196,2,0,L|385:207,1,88,2|0,1:2|0:0,0:0:0:0:
357,123,257534,1,2,1:2:0:0:
211,169,257702,2,0,L|124:150,1,88,8|2,0:2|0:2,0:0:0:0:
91,120,257955,1,2,0:2:0:0:
91,120,258039,6,0,L|4:138,1,88,2|0,1:2|0:0,0:0:0:0:
32,301,258376,2,0,P|43:215|4:138,1,176,8|0,0:2|1:2,0:0:0:0:
32,54,258882,1,0,1:2:0:0:
211,169,259050,2,0,L|124:150,1,88,8|0,0:2|0:0,0:0:0:0:
238,252,259387,6,0,L|324:233,1,88,2|0,1:2|0:0,0:0:0:0:
391,127,259725,1,10,0:2:0:0:
305,146,259893,1,2,1:2:0:0:
408,214,260062,2,0,P|442:199|473:158,1,88,2|2,0:2|1:2,0:0:0:0:
328,65,260399,2,0,P|306:102|305:146,1,88,10|0,0:2|0:0,0:0:0:0:
238,252,260736,6,0,L|169:267,2,70.4,2|0|2,0:2|0:0|0:2,0:0:0:0:
222,169,261241,1,0,0:0:0:0:
222,169,261410,2,0,L|153:184,2,70.4,2|0|2,0:2|0:0|0:2,0:0:0:0:
301,196,261916,1,0,0:0:0:0:
301,196,262084,6,0,L|369:211,2,70.4,2|0|2,0:2|0:0|0:2,0:0:0:0:
317,113,262589,1,0,0:0:0:0:
317,113,262758,2,0,L|385:128,2,70.4,2|0|2,0:2|0:0|0:2,0:0:0:0:
253,57,263264,1,0,0:0:0:0:
253,57,263432,5,2,0:2:0:0:
128,256,263938,5,2,0:2:0:0:
384,256,264444,5,2,0:2:0:0:
256,192,264528,12,0,266129,0:0:0:0:
