osu file format v14

[General]
AudioFilename: colorful.mp3
AudioLeadIn: 0
PreviewTime: 59607
Countdown: 0
SampleSet: Normal
StackLeniency: 0.7
Mode: 1
LetterboxInBreaks: 0
WidescreenStoryboard: 0

[Editor]
Bookmarks: 1125,11911,20001,22697,33484,44270,61798,83371,88765,94158,104944,115731,133259,154832,160225,171012,179102,189888,200675,208090,237752,244494,260674
DistanceSpacing: 0.8
BeatDivisor: 1
GridSize: 4
TimelineZoom: 0.3999998

[Metadata]
Title:Colorful -2017-
TitleUnicode:カラフル -2017-
Artist:ClariS
ArtistUnicode:ClariS
Creator:Volta
Version:Kantan
Source:劇場版 魔法少女まどか☆マギカ[新編] 叛逆の物語
Tags:taiko gekijouban mahou shoujo puella magi madoka magica movie rebellion fairy castle clara karen
BeatmapID:1514085
BeatmapSetID:714771

[Difficulty]
HPDrainRate:8
CircleSize:5
OverallDifficulty:3
ApproachRate:5
SliderMultiplier:1.4
SliderTickRate:1

[Events]
//Background and Video events
0,0,"tomoe mami.jpg",0,100
//Break Periods
//Storyboard Layer 0 (Background)
//Storyboard Layer 1 (Fail)
//Storyboard Layer 2 (Pass)
//Storyboard Layer 3 (Foreground)
//Storyboard Sound Samples

[TimingPoints]
1125.36755325375,674.157303370787,4,1,0,40,1,0
11911,-100,4,1,0,50,0,0
20001,337.078651685393,4,1,0,70,1,0
22697,-100,4,1,0,60,0,0
49663,-100,4,1,0,70,0,0
61798,-100,4,1,0,80,0,1
83371,-100,4,1,0,60,0,0
87416,-100,4,1,0,80,0,0
88765,-100,4,1,0,70,0,0
94158,-100,4,1,0,60,0,0
102248,-100,4,1,0,50,0,0
104944,-100,4,1,0,60,0,0
115731,-100,4,1,0,70,0,0
133259,-100,4,1,0,80,0,1
160225,-100,4,1,0,80,0,0
161574,-100,4,1,0,60,0,0
171012,-100,4,1,0,70,0,0
207416,337.078651685393,4,1,0,80,1,8
208090,337.078651685393,4,1,0,80,1,1
237752,-100,4,1,0,60,0,0
241797,-100,4,1,0,80,0,0
243146,-100,4,1,0,60,0,0
244494,-100,4,1,0,70,0,0
260674,-100,4,1,0,40,0,0
264466,-100,4,1,0,20,0,0

[HitObjects]
224,188,1125,5,8,0:0:0:0:
216,156,2473,1,8,0:0:0:0:
216,156,3147,1,0,0:0:0:0:
216,156,3821,1,8,0:0:0:0:
216,156,5170,1,0,0:0:0:0:
216,156,5844,1,0,0:0:0:0:
216,156,6518,1,8,0:0:0:0:
220,144,7866,1,8,0:0:0:0:
220,144,9215,1,0,0:0:0:0:
240,116,10563,1,8,0:0:0:0:
240,116,11237,1,8,0:0:0:0:
232,140,11911,1,4,0:0:0:0:
308,128,13260,1,4,0:0:0:0:
308,152,14608,1,12,0:0:0:0:
112,124,15956,1,8,0:0:0:0:
236,160,17305,1,4,0:0:0:0:
112,112,18653,1,8,0:0:0:0:
232,160,20001,1,0,0:0:0:0:
232,160,20675,1,0,0:0:0:0:
232,164,21012,1,0,0:0:0:0:
236,200,21349,1,8,0:0:0:0:
236,200,22023,1,8,0:0:0:0:
236,200,22360,1,8,0:0:0:0:
216,164,22697,1,0,0:0:0:0:
192,104,23371,1,8,0:0:0:0:
192,104,24045,1,0,0:0:0:0:
192,104,24383,1,8,0:0:0:0:
136,144,24720,1,0,0:0:0:0:
180,168,25394,1,0,0:0:0:0:
72,148,26068,1,8,0:0:0:0:
124,168,26742,1,0,0:0:0:0:
200,76,28090,1,0,0:0:0:0:
196,76,28765,1,8,0:0:0:0:
156,136,29102,5,0,0:0:0:0:
188,104,29439,1,8,0:0:0:0:
156,136,30113,1,8,0:0:0:0:
164,120,30787,1,0,0:0:0:0:
212,104,31461,1,8,0:0:0:0:
160,108,31798,1,8,0:0:0:0:
120,216,32135,1,0,0:0:0:0:
228,136,33484,1,4,0:0:0:0:
192,160,34158,1,8,0:0:0:0:
192,160,34832,1,0,0:0:0:0:
260,156,35169,1,8,0:0:0:0:
264,240,35506,1,0,0:0:0:0:
276,160,36180,1,0,0:0:0:0:
248,104,36854,1,8,0:0:0:0:
144,128,37529,1,8,0:0:0:0:
272,132,38877,1,0,0:0:0:0:
228,120,39551,1,8,0:0:0:0:
272,176,40225,1,0,0:0:0:0:
180,140,40899,1,0,0:0:0:0:
100,128,41236,1,0,0:0:0:0:
132,128,41574,1,8,0:0:0:0:
192,120,42922,1,8,0:0:0:0:
228,148,43596,5,8,0:0:0:0:
292,156,43933,1,8,0:0:0:0:
228,148,44270,1,4,0:0:0:0:
124,192,44944,1,0,0:0:0:0:
204,168,45618,1,8,0:0:0:0:
196,212,46967,1,0,0:0:0:0:
200,216,47641,1,8,0:0:0:0:
228,96,48315,1,0,0:0:0:0:
224,188,49663,1,12,0:0:0:0:
224,140,50338,1,0,0:0:0:0:
224,140,50675,1,8,0:0:0:0:
228,140,51012,1,0,0:0:0:0:
256,116,51686,1,0,0:0:0:0:
112,144,52360,1,8,0:0:0:0:
372,124,53708,1,8,0:0:0:0:
292,96,54383,1,8,0:0:0:0:
224,120,54720,5,8,0:0:0:0:
160,168,55057,5,0,0:0:0:0:
160,168,55731,1,8,0:0:0:0:
160,168,56405,1,0,0:0:0:0:
40,144,56742,1,0,0:0:0:0:
160,168,57079,1,8,0:0:0:0:
160,168,57753,1,8,0:0:0:0:
180,156,58090,1,0,0:0:0:0:
160,168,58427,1,8,0:0:0:0:
160,168,59102,1,12,0:0:0:0:
132,128,60450,1,8,0:0:0:0:
260,184,61124,1,0,0:0:0:0:
192,148,61798,5,12,0:0:0:0:
216,136,62472,1,0,0:0:0:0:
196,156,62809,1,8,0:0:0:0:
208,152,63147,1,0,0:0:0:0:
108,136,63821,1,0,0:0:0:0:
216,180,64495,1,8,0:0:0:0:
128,120,64832,1,8,0:0:0:0:
248,152,65169,1,0,0:0:0:0:
20,156,65506,1,8,0:0:0:0:
248,144,65843,1,0,0:0:0:0:
256,120,66517,1,0,0:0:0:0:
164,80,67192,1,8,0:0:0:0:
216,144,68540,1,8,0:0:0:0:
216,140,69214,1,8,0:0:0:0:
196,104,69551,1,0,0:0:0:0:
216,136,69888,1,0,0:0:0:0:
24,196,70562,1,0,0:0:0:0:
220,160,70899,1,12,0:0:0:0:
176,132,71911,1,8,0:0:0:0:
316,180,72585,1,4,0:0:0:0:
156,136,73259,1,8,0:0:0:0:
232,104,73596,1,8,0:0:0:0:
224,112,73933,1,0,0:0:0:0:
292,160,74607,1,8,0:0:0:0:
392,152,75281,1,0,0:0:0:0:
144,132,75618,1,0,0:0:0:0:
280,96,75956,1,8,0:0:0:0:
280,104,76293,1,8,0:0:0:0:
224,112,76630,1,0,0:0:0:0:
264,128,77304,1,8,0:0:0:0:
196,136,77978,1,0,0:0:0:0:
104,136,78652,1,8,0:0:0:0:
104,136,78989,1,8,0:0:0:0:
76,148,79326,1,8,0:0:0:0:
124,164,80000,1,0,0:0:0:0:
124,164,80675,1,8,0:0:0:0:
136,340,82023,5,8,0:0:0:0:
80,136,82697,1,8,0:0:0:0:
172,124,83034,1,0,0:0:0:0:
256,140,83371,5,8,0:0:0:0:
248,136,84720,1,8,0:0:0:0:
240,136,86068,1,8,0:0:0:0:
368,172,87416,1,12,0:0:0:0:
164,64,87922,1,4,0:0:0:0:
140,236,88765,1,12,0:0:0:0:
12,156,90113,1,0,0:0:0:0:
24,156,90787,1,0,0:0:0:0:
272,144,91461,5,12,0:0:0:0:
88,144,92472,1,8,0:0:0:0:
272,144,92809,1,0,0:0:0:0:
272,148,93484,1,8,0:0:0:0:
272,148,94158,1,4,0:0:0:0:
176,136,94832,1,8,0:0:0:0:
140,144,95506,1,8,0:0:0:0:
140,144,95843,1,8,0:0:0:0:
140,144,96180,1,0,0:0:0:0:
140,144,96854,1,8,0:0:0:0:
140,144,97529,1,8,0:0:0:0:
140,144,98203,1,0,0:0:0:0:
216,100,99551,1,8,0:0:0:0:
216,100,100225,1,8,0:0:0:0:
216,100,100562,1,0,0:0:0:0:
92,136,100899,1,8,0:0:0:0:
164,96,101574,1,8,0:0:0:0:
44,140,102248,1,0,0:0:0:0:
48,120,103596,1,8,0:0:0:0:
184,160,104944,1,4,0:0:0:0:
216,172,105618,1,8,0:0:0:0:
180,136,106293,1,0,0:0:0:0:
84,152,106630,1,8,0:0:0:0:
84,152,106967,1,0,0:0:0:0:
84,152,107641,1,0,0:0:0:0:
124,184,108315,1,0,0:0:0:0:
216,196,108989,1,8,0:0:0:0:
176,128,110338,1,0,0:0:0:0:
176,148,111012,1,0,0:0:0:0:
176,148,111349,1,8,0:0:0:0:
176,148,111686,1,0,0:0:0:0:
176,148,112360,1,0,0:0:0:0:
180,152,113034,1,8,0:0:0:0:
180,156,114383,1,0,0:0:0:0:
180,156,115057,1,8,0:0:0:0:
180,156,115394,1,8,0:0:0:0:
192,156,115731,1,4,0:0:0:0:
204,168,116405,1,0,0:0:0:0:
204,168,117079,1,8,0:0:0:0:
196,212,118427,1,0,0:0:0:0:
200,216,119102,1,8,0:0:0:0:
228,96,119776,1,0,0:0:0:0:
192,108,121124,1,0,0:0:0:0:
224,140,121798,1,8,0:0:0:0:
224,140,122135,1,8,0:0:0:0:
228,140,122472,1,0,0:0:0:0:
256,116,123147,1,0,0:0:0:0:
112,144,123821,1,8,0:0:0:0:
372,124,125169,1,0,0:0:0:0:
292,96,125843,1,8,0:0:0:0:
160,168,126517,5,0,0:0:0:0:
312,212,126854,1,0,0:0:0:0:
312,212,127192,1,8,0:0:0:0:
388,208,127866,1,8,0:0:0:0:
368,184,128203,1,0,0:0:0:0:
368,184,128540,1,8,0:0:0:0:
368,184,129214,1,8,0:0:0:0:
180,140,129551,1,8,0:0:0:0:
172,176,129888,5,0,0:0:0:0:
208,108,130225,1,0,0:0:0:0:
368,184,130562,1,12,0:0:0:0:
312,132,132585,1,0,0:0:0:0:
64,188,133259,1,12,0:0:0:0:
216,136,133933,1,8,0:0:0:0:
208,152,134270,1,8,0:0:0:0:
208,152,134608,1,0,0:0:0:0:
108,136,135282,1,8,0:0:0:0:
216,180,135956,1,0,0:0:0:0:
88,160,136293,1,0,0:0:0:0:
252,136,136630,1,8,0:0:0:0:
256,120,136967,1,8,0:0:0:0:
248,144,137304,1,0,0:0:0:0:
256,120,137978,1,0,0:0:0:0:
164,80,138652,1,8,0:0:0:0:
216,144,140001,1,8,0:0:0:0:
216,140,140675,1,0,0:0:0:0:
216,136,141012,1,8,0:0:0:0:
324,148,141349,1,0,0:0:0:0:
204,140,142023,1,0,0:0:0:0:
220,160,142360,1,12,0:0:0:0:
176,132,143372,1,8,0:0:0:0:
316,180,144046,1,4,0:0:0:0:
216,140,144720,1,8,0:0:0:0:
232,104,145057,1,8,0:0:0:0:
224,112,145394,1,0,0:0:0:0:
292,160,146068,1,8,0:0:0:0:
392,152,146742,1,0,0:0:0:0:
88,120,147079,1,8,0:0:0:0:
280,96,147416,1,0,0:0:0:0:
280,104,147754,1,0,0:0:0:0:
224,112,148091,1,8,0:0:0:0:
264,128,148765,1,8,0:0:0:0:
196,136,149439,1,0,0:0:0:0:
148,172,150113,1,8,0:0:0:0:
148,172,150450,1,8,0:0:0:0:
76,148,150787,1,0,0:0:0:0:
124,164,151461,1,8,0:0:0:0:
124,164,152135,1,0,0:0:0:0:
136,340,153484,5,8,0:0:0:0:
284,112,154158,5,0,0:0:0:0:
48,136,154495,1,0,0:0:0:0:
256,140,154832,5,8,0:0:0:0:
87,156,155506,1,0,0:0:0:0:
89,156,156180,1,8,0:0:0:0:
87,156,156517,5,0,0:0:0:0:
89,156,156854,1,8,0:0:0:0:
48,144,157529,5,4,0:0:0:0:
176,112,158877,1,12,0:0:0:0:
164,144,159383,1,4,0:0:0:0:
268,160,160225,1,12,0:0:0:0:
256,192,160562,12,0,161574,0:0:0:0:
204,124,162922,5,0,0:0:0:0:
200,92,164270,1,8,0:0:0:0:
176,140,164944,1,0,0:0:0:0:
176,140,165618,1,8,0:0:0:0:
132,144,166967,1,8,0:0:0:0:
132,144,167641,1,8,0:0:0:0:
132,144,168315,1,0,0:0:0:0:
132,144,169663,1,0,0:0:0:0:
192,176,170338,5,8,0:0:0:0:
148,164,171012,1,0,0:0:0:0:
92,176,171686,1,0,0:0:0:0:
92,176,172360,1,8,0:0:0:0:
288,148,173708,1,8,0:0:0:0:
104,212,174383,1,0,0:0:0:0:
136,176,174720,1,0,0:0:0:0:
184,132,175057,1,8,0:0:0:0:
512,340,175731,5,8,0:0:0:0:
224,152,176405,1,4,0:0:0:0:
256,192,176742,12,0,177753,0:0:0:0:
244,176,179102,5,4,0:0:0:0:
180,144,180450,1,0,0:0:0:0:
180,124,181124,1,0,0:0:0:0:
180,124,181461,1,8,0:0:0:0:
180,124,181798,1,0,0:0:0:0:
208,164,182472,1,0,0:0:0:0:
168,188,183147,1,8,0:0:0:0:
168,192,183484,1,8,0:0:0:0:
40,168,183821,1,0,0:0:0:0:
40,168,184495,1,8,0:0:0:0:
116,172,185843,1,0,0:0:0:0:
168,184,186517,1,0,0:0:0:0:
136,196,186854,1,8,0:0:0:0:
136,196,187192,1,0,0:0:0:0:
16,184,187866,1,0,0:0:0:0:
184,172,188540,1,8,0:0:0:0:
112,140,188877,1,8,0:0:0:0:
112,140,189214,1,8,0:0:0:0:
56,144,189888,1,4,0:0:0:0:
180,144,191236,1,0,0:0:0:0:
196,152,191911,1,0,0:0:0:0:
180,124,192248,1,8,0:0:0:0:
180,124,192585,1,0,0:0:0:0:
208,164,193259,1,8,0:0:0:0:
168,188,193933,1,0,0:0:0:0:
48,184,194270,1,0,0:0:0:0:
236,176,194607,1,8,0:0:0:0:
40,72,195281,1,8,0:0:0:0:
152,136,196630,1,0,0:0:0:0:
152,136,197304,1,0,0:0:0:0:
196,168,197978,1,12,0:0:0:0:
184,144,198652,1,8,0:0:0:0:
184,144,198989,1,0,0:0:0:0:
60,144,199326,1,0,0:0:0:0:
184,144,199663,1,0,0:0:0:0:
176,132,200000,1,8,0:0:0:0:
176,132,200675,1,0,0:0:0:0:
160,156,201012,1,0,0:0:0:0:
160,168,201349,1,0,0:0:0:0:
160,168,202023,1,8,0:0:0:0:
204,148,202360,1,0,0:0:0:0:
160,168,202697,1,8,0:0:0:0:
96,156,203371,1,8,0:0:0:0:
76,188,203708,1,8,0:0:0:0:
76,188,204045,1,0,0:0:0:0:
220,128,204383,1,0,0:0:0:0:
180,132,204720,1,12,0:0:0:0:
192,148,208090,5,12,0:0:0:0:
216,136,208764,1,0,0:0:0:0:
196,156,209101,1,8,0:0:0:0:
208,152,209439,1,0,0:0:0:0:
108,136,210113,1,0,0:0:0:0:
216,180,210787,1,8,0:0:0:0:
128,120,211124,1,8,0:0:0:0:
248,152,211461,1,0,0:0:0:0:
20,156,211798,1,8,0:0:0:0:
248,144,212135,1,0,0:0:0:0:
256,120,212809,1,0,0:0:0:0:
164,80,213484,1,8,0:0:0:0:
156,128,214157,1,8,0:0:0:0:
156,128,214494,1,0,0:0:0:0:
216,144,214832,1,8,0:0:0:0:
216,140,215506,1,8,0:0:0:0:
196,104,215843,1,0,0:0:0:0:
216,136,216180,1,0,0:0:0:0:
176,112,216854,1,0,0:0:0:0:
220,160,217191,1,12,0:0:0:0:
176,132,218202,1,8,0:0:0:0:
316,180,218876,1,4,0:0:0:0:
216,140,219550,1,8,0:0:0:0:
232,104,219887,1,8,0:0:0:0:
224,112,220224,1,0,0:0:0:0:
292,160,220898,1,8,0:0:0:0:
392,152,221572,1,0,0:0:0:0:
88,120,221909,1,8,0:0:0:0:
280,96,222246,1,0,0:0:0:0:
280,104,222584,1,0,0:0:0:0:
224,112,222921,1,8,0:0:0:0:
264,128,223595,1,8,0:0:0:0:
196,136,224269,1,0,0:0:0:0:
148,172,224943,1,8,0:0:0:0:
148,172,225280,1,8,0:0:0:0:
76,148,225617,1,0,0:0:0:0:
124,164,226291,1,8,0:0:0:0:
124,164,226966,1,4,0:0:0:0:
116,140,228314,5,0,0:0:0:0:
116,140,228988,1,8,0:0:0:0:
116,140,229325,1,0,0:0:0:0:
132,104,229663,1,8,0:0:0:0:
164,184,230337,1,8,0:0:0:0:
164,184,231011,1,0,0:0:0:0:
132,160,231685,1,0,0:0:0:0:
132,160,232022,1,0,0:0:0:0:
144,52,232359,1,12,0:0:0:0:
148,176,233033,1,0,0:0:0:0:
148,176,233370,1,8,0:0:0:0:
148,176,233707,1,0,0:0:0:0:
148,184,234382,1,8,0:0:0:0:
16,136,234719,1,8,0:0:0:0:
116,148,235056,1,0,0:0:0:0:
68,108,235730,1,0,0:0:0:0:
136,164,236404,1,8,0:0:0:0:
216,176,237078,1,8,0:0:0:0:
128,144,237415,1,0,0:0:0:0:
216,176,237752,1,8,0:0:0:0:
448,292,239101,1,8,0:0:0:0:
408,276,240449,1,8,0:0:0:0:
72,152,241797,1,12,0:0:0:0:
128,144,242303,1,4,0:0:0:0:
180,168,243146,1,0,0:0:0:0:
48,188,244494,1,4,0:0:0:0:
152,128,245842,1,0,0:0:0:0:
208,120,246516,1,0,0:0:0:0:
208,120,246854,1,8,0:0:0:0:
160,140,247191,1,0,0:0:0:0:
164,172,247865,1,0,0:0:0:0:
164,172,248539,1,8,0:0:0:0:
56,148,249213,1,0,0:0:0:0:
60,156,249550,1,0,0:0:0:0:
56,148,249887,1,8,0:0:0:0:
232,184,250561,1,8,0:0:0:0:
264,172,251236,1,0,0:0:0:0:
72,164,251910,1,8,0:0:0:0:
72,164,252247,1,8,0:0:0:0:
136,84,252584,1,4,0:0:0:0:
48,164,253258,1,0,0:0:0:0:
68,164,253595,1,12,0:0:0:0:
64,136,254606,1,0,0:0:0:0:
212,124,254943,1,8,0:0:0:0:
80,156,255281,1,0,0:0:0:0:
152,128,256629,1,0,0:0:0:0:
232,176,257303,1,8,0:0:0:0:
232,176,257640,1,8,0:0:0:0:
232,188,257977,1,0,0:0:0:0:
100,112,258651,1,0,0:0:0:0:
100,112,259325,1,8,0:0:0:0:
200,172,259663,1,0,0:0:0:0:
200,172,260000,1,8,0:0:0:0:
128,128,260674,5,0,0:0:0:0:
128,128,262022,1,8,0:0:0:0:
128,128,263370,1,8,0:0:0:0:
128,128,264382,1,8,0:0:0:0:
256,192,264550,12,0,266067,0:0:0:0:
