osu file format v14

[General]
AudioFilename: colorful.mp3
AudioLeadIn: 0
PreviewTime: 59607
Countdown: 0
SampleSet: Normal
StackLeniency: 0.7
Mode: 1
LetterboxInBreaks: 0
WidescreenStoryboard: 0

[Editor]
Bookmarks: 1125,11911,20001,22697,33484,44270,61798,83371,88765,94158,104944,115731,133259,154832,160225,170675,171012,171349,179102,189888,200675,208090,237752,244494,260674
DistanceSpacing: 0.8
BeatDivisor: 4
GridSize: 4
TimelineZoom: 0.8999999

[Metadata]
Title:Colorful -2017-
TitleUnicode:カラフル -2017-
Artist:ClariS
ArtistUnicode:ClariS
Creator:Volta
Version:Futsuu
Source:劇場版 魔法少女まどか☆マギカ[新編] 叛逆の物語
Tags:taiko gekijouban mahou shoujo puella magi madoka magica movie rebellion fairy castle clara karen
BeatmapID:1514084
BeatmapSetID:714771

[Difficulty]
HPDrainRate:7
CircleSize:5
OverallDifficulty:4
ApproachRate:5
SliderMultiplier:1.4
SliderTickRate:1

[Events]
//Background and Video events
0,0,"miki and sakura.jpg",0,10
//Break Periods
//Storyboard Layer 0 (Background)
//Storyboard Layer 1 (Fail)
//Storyboard Layer 2 (Pass)
//Storyboard Layer 3 (Foreground)
//Storyboard Sound Samples

[TimingPoints]
1125.36755325375,674.157303370787,4,1,0,40,1,0
11911,-100,4,1,0,50,0,0
20001,337.078651685393,4,1,0,70,1,0
22697,-100,4,1,0,60,0,0
49663,-100,4,1,0,70,0,0
61798,-100,4,1,0,80,0,1
83371,-100,4,1,0,60,0,0
87416,-100,4,1,0,80,0,0
88765,-100,4,1,0,70,0,0
94158,-100,4,1,0,60,0,0
102248,-100,4,1,0,50,0,0
104944,-100,4,1,0,60,0,0
115731,-100,4,1,0,70,0,0
133259,-100,4,1,0,80,0,1
160225,-100,4,1,0,80,0,0
161574,-100,4,1,0,60,0,0
171012,-100,4,1,0,70,0,0
207416,337.078651685393,4,1,0,80,1,8
208090,337.078651685393,4,1,0,80,1,1
237752,-100,4,1,0,60,0,0
241797,-100,4,1,0,80,0,0
243146,-100,4,1,0,60,0,0
244494,-100,4,1,0,70,0,0
260674,-100,4,1,0,40,0,0
264466,-100,4,1,0,20,0,0

[HitObjects]
224,188,1125,5,8,0:0:0:0:
216,156,2473,1,8,0:0:0:0:
216,156,3147,1,8,0:0:0:0:
216,156,3484,1,0,0:0:0:0:
216,156,3821,1,8,0:0:0:0:
216,156,5170,1,8,0:0:0:0:
216,156,5844,1,0,0:0:0:0:
216,156,6181,1,0,0:0:0:0:
216,156,6518,1,8,0:0:0:0:
220,144,7866,1,8,0:0:0:0:
220,144,8541,1,8,0:0:0:0:
220,144,9215,1,0,0:0:0:0:
136,88,9889,1,8,0:0:0:0:
240,116,10563,1,8,0:0:0:0:
240,116,10900,1,0,0:0:0:0:
240,116,11237,1,8,0:0:0:0:
232,140,11911,1,4,0:0:0:0:
308,128,13260,1,4,0:0:0:0:
308,152,14608,1,12,0:0:0:0:
168,108,15956,1,8,0:0:0:0:
196,88,16630,1,8,0:0:0:0:
236,160,17305,1,4,0:0:0:0:
112,112,18653,1,8,0:0:0:0:
176,60,19327,1,8,0:0:0:0:
232,160,20001,1,0,0:0:0:0:
232,160,20338,1,0,0:0:0:0:
232,160,20506,1,0,0:0:0:0:
232,160,20675,1,0,0:0:0:0:
232,164,21012,1,0,0:0:0:0:
236,200,21349,1,8,0:0:0:0:
236,200,21686,1,8,0:0:0:0:
236,200,21854,1,8,0:0:0:0:
236,200,22023,1,8,0:0:0:0:
236,200,22360,1,8,0:0:0:0:
216,164,22697,1,0,0:0:0:0:
192,104,23371,1,8,0:0:0:0:
80,160,23708,1,0,0:0:0:0:
192,104,23877,1,0,0:0:0:0:
192,104,24214,1,8,0:0:0:0:
120,132,24551,1,8,0:0:0:0:
136,144,24720,1,0,0:0:0:0:
180,168,25057,1,8,0:0:0:0:
180,168,25394,1,0,0:0:0:0:
196,88,26068,1,0,0:0:0:0:
196,88,26405,1,0,0:0:0:0:
124,168,26742,1,8,0:0:0:0:
88,156,27248,1,0,0:0:0:0:
152,120,27585,1,0,0:0:0:0:
192,80,27753,1,8,0:0:0:0:
200,76,28090,1,0,0:0:0:0:
196,76,28765,1,8,0:0:0:0:
200,76,29102,1,0,0:0:0:0:
124,192,29270,1,0,0:0:0:0:
188,104,29439,1,8,0:0:0:0:
188,104,29944,1,8,0:0:0:0:
160,128,30450,1,0,0:0:0:0:
164,120,30787,1,8,0:0:0:0:
164,120,31124,1,0,0:0:0:0:
208,108,31293,1,0,0:0:0:0:
212,104,31630,1,8,0:0:0:0:
160,108,31967,1,8,0:0:0:0:
156,128,32135,1,0,0:0:0:0:
120,364,32809,1,0,0:0:0:0:
8,152,33147,1,8,0:0:0:0:
228,136,33484,1,4,0:0:0:0:
192,160,34158,1,8,0:0:0:0:
180,128,34495,1,0,0:0:0:0:
192,160,34663,1,8,0:0:0:0:
260,156,35000,1,8,0:0:0:0:
256,168,35338,1,8,0:0:0:0:
264,240,35506,1,0,0:0:0:0:
220,172,35843,1,8,0:0:0:0:
276,160,36180,1,0,0:0:0:0:
248,104,36854,1,0,0:0:0:0:
248,104,37192,1,0,0:0:0:0:
144,128,37529,1,8,0:0:0:0:
144,128,38034,1,0,0:0:0:0:
272,132,38371,1,0,0:0:0:0:
144,128,38540,1,8,0:0:0:0:
272,132,38877,1,0,0:0:0:0:
228,120,39551,1,8,0:0:0:0:
228,120,39888,1,8,0:0:0:0:
272,176,40225,1,0,0:0:0:0:
100,128,40562,1,0,0:0:0:0:
240,144,40731,1,8,0:0:0:0:
180,140,40899,1,0,0:0:0:0:
180,140,41236,1,8,0:0:0:0:
132,128,41574,1,0,0:0:0:0:
240,172,42248,1,0,0:0:0:0:
188,128,42585,1,8,0:0:0:0:
188,128,42753,1,0,0:0:0:0:
192,120,42922,1,8,0:0:0:0:
292,156,43259,1,0,0:0:0:0:
228,148,43596,5,8,0:0:0:0:
228,148,43933,1,8,0:0:0:0:
228,148,44270,1,4,0:0:0:0:
124,192,44776,1,0,0:0:0:0:
204,168,45113,1,8,0:0:0:0:
204,168,45450,1,0,0:0:0:0:
260,160,46293,1,8,0:0:0:0:
188,208,46630,1,8,0:0:0:0:
196,212,46967,1,0,0:0:0:0:
196,216,47304,1,0,0:0:0:0:
196,216,47472,1,8,0:0:0:0:
200,216,47809,1,0,0:0:0:0:
228,96,48147,1,0,0:0:0:0:
256,184,48989,1,0,0:0:0:0:
224,188,49326,1,8,0:0:0:0:
224,188,49663,1,12,0:0:0:0:
4,152,50000,1,8,0:0:0:0:
224,132,50169,1,0,0:0:0:0:
224,140,50506,1,0,0:0:0:0:
224,140,50675,1,8,0:0:0:0:
228,140,51012,1,0,0:0:0:0:
256,116,51686,1,0,0:0:0:0:
308,156,52023,1,8,0:0:0:0:
112,144,52360,1,0,0:0:0:0:
376,172,53034,1,0,0:0:0:0:
376,184,53371,1,8,0:0:0:0:
372,132,53540,1,0,0:0:0:0:
372,124,53708,1,8,0:0:0:0:
292,96,54045,1,8,0:0:0:0:
292,96,54214,1,0,0:0:0:0:
32,144,54551,1,0,0:0:0:0:
224,120,54720,5,8,0:0:0:0:
160,168,55057,5,0,0:0:0:0:
152,192,55394,1,0,0:0:0:0:
76,164,55562,1,0,0:0:0:0:
160,168,55731,1,8,0:0:0:0:
160,168,56405,1,0,0:0:0:0:
168,160,56742,1,8,0:0:0:0:
104,160,56911,1,0,0:0:0:0:
160,168,57079,1,8,0:0:0:0:
160,168,57753,1,8,0:0:0:0:
180,156,58090,1,0,0:0:0:0:
132,140,58259,1,0,0:0:0:0:
160,168,58427,1,8,0:0:0:0:
192,156,58765,1,0,0:0:0:0:
160,168,59102,1,12,0:0:0:0:
296,168,60450,1,8,0:0:0:0:
296,168,60787,1,8,0:0:0:0:
296,168,60956,1,8,0:0:0:0:
260,184,61124,1,0,0:0:0:0:
188,144,61461,1,8,0:0:0:0:
192,148,61798,5,12,0:0:0:0:
120,192,62135,1,8,0:0:0:0:
216,136,62304,1,0,0:0:0:0:
208,148,62641,1,0,0:0:0:0:
208,152,62809,1,8,0:0:0:0:
208,152,63147,1,0,0:0:0:0:
196,156,63484,1,8,0:0:0:0:
108,136,63821,1,8,0:0:0:0:
112,144,63989,1,0,0:0:0:0:
120,172,64158,1,8,0:0:0:0:
216,180,64495,1,0,0:0:0:0:
220,120,64832,1,8,0:0:0:0:
252,136,65000,1,8,0:0:0:0:
248,152,65338,1,0,0:0:0:0:
244,136,65506,1,8,0:0:0:0:
248,144,65843,1,0,0:0:0:0:
20,156,66180,1,8,0:0:0:0:
20,156,66349,1,8,0:0:0:0:
256,120,66517,1,0,0:0:0:0:
256,120,66854,1,8,0:0:0:0:
164,80,67192,1,0,0:0:0:0:
224,176,67866,1,8,0:0:0:0:
232,172,68203,1,8,0:0:0:0:
216,140,68371,1,0,0:0:0:0:
216,144,68540,1,8,0:0:0:0:
216,144,68877,1,0,0:0:0:0:
216,140,69214,1,8,0:0:0:0:
216,136,69551,1,0,0:0:0:0:
216,136,69720,1,0,0:0:0:0:
324,148,69888,1,8,0:0:0:0:
296,216,70225,1,8,0:0:0:0:
204,140,70562,1,0,0:0:0:0:
220,160,70899,1,12,0:0:0:0:
176,120,71574,1,0,0:0:0:0:
176,132,71911,1,8,0:0:0:0:
176,132,72079,1,0,0:0:0:0:
316,180,72248,1,8,0:0:0:0:
316,180,72585,1,4,0:0:0:0:
156,136,72922,1,8,0:0:0:0:
216,140,73090,1,0,0:0:0:0:
216,148,73427,1,8,0:0:0:0:
232,104,73596,1,8,0:0:0:0:
224,112,73933,1,0,0:0:0:0:
140,152,74270,1,8,0:0:0:0:
292,160,74607,1,0,0:0:0:0:
292,160,74776,1,0,0:0:0:0:
356,160,74944,1,8,0:0:0:0:
392,152,75281,1,0,0:0:0:0:
264,88,75618,1,8,0:0:0:0:
280,96,75787,1,0,0:0:0:0:
280,104,76124,1,0,0:0:0:0:
280,104,76293,1,8,0:0:0:0:
224,112,76630,1,0,0:0:0:0:
264,128,77304,1,8,0:0:0:0:
192,136,77641,1,8,0:0:0:0:
196,136,77978,1,0,0:0:0:0:
200,136,78315,1,8,0:0:0:0:
200,136,78484,1,0,0:0:0:0:
148,172,78652,1,8,0:0:0:0:
148,172,78989,1,8,0:0:0:0:
76,148,79326,1,0,0:0:0:0:
148,172,79663,1,8,0:0:0:0:
124,164,80000,1,0,0:0:0:0:
148,172,80169,1,0,0:0:0:0:
124,164,80338,1,8,0:0:0:0:
124,164,80675,1,0,0:0:0:0:
56,172,81349,1,0,0:0:0:0:
168,120,81686,1,8,0:0:0:0:
136,340,82023,5,0,0:0:0:0:
284,112,82697,5,8,0:0:0:0:
284,112,83034,1,0,0:0:0:0:
256,140,83371,5,8,0:0:0:0:
248,136,84720,1,8,0:0:0:0:
240,136,86068,1,8,0:0:0:0:
324,176,86574,1,0,0:0:0:0:
36,148,87079,1,0,0:0:0:0:
368,172,87416,1,12,0:0:0:0:
164,64,87922,1,4,0:0:0:0:
192,176,88427,1,8,0:0:0:0:
140,236,88765,1,12,0:0:0:0:
240,136,89439,1,8,0:0:0:0:
192,160,90113,1,0,0:0:0:0:
240,136,90281,1,8,0:0:0:0:
252,248,90787,1,8,0:0:0:0:
260,240,91124,1,0,0:0:0:0:
272,144,91461,1,12,0:0:0:0:
272,144,92135,1,0,0:0:0:0:
272,144,92472,1,8,0:0:0:0:
272,144,92809,1,0,0:0:0:0:
272,144,92978,1,0,0:0:0:0:
272,148,93147,1,8,0:0:0:0:
48,144,93484,5,0,0:0:0:0:
272,148,93821,1,8,0:0:0:0:
272,148,94158,1,4,0:0:0:0:
176,136,94832,1,8,0:0:0:0:
176,136,95169,1,0,0:0:0:0:
140,144,95338,1,8,0:0:0:0:
140,144,95675,1,8,0:0:0:0:
140,144,96012,1,8,0:0:0:0:
140,144,96180,1,0,0:0:0:0:
140,144,96517,1,0,0:0:0:0:
140,144,96854,1,8,0:0:0:0:
140,144,97529,1,8,0:0:0:0:
140,144,97866,1,8,0:0:0:0:
140,144,98203,1,0,0:0:0:0:
92,164,98708,1,8,0:0:0:0:
92,164,99045,1,0,0:0:0:0:
140,144,99214,1,0,0:0:0:0:
216,100,99551,1,8,0:0:0:0:
216,100,100225,1,8,0:0:0:0:
216,100,100562,1,0,0:0:0:0:
192,108,100731,1,0,0:0:0:0:
92,136,100899,1,8,0:0:0:0:
164,96,101405,1,8,0:0:0:0:
164,96,101911,1,8,0:0:0:0:
44,140,102248,1,0,0:0:0:0:
64,160,103090,1,8,0:0:0:0:
48,120,103596,1,0,0:0:0:0:
144,128,104102,1,0,0:0:0:0:
240,120,104439,1,8,0:0:0:0:
184,160,104944,1,4,0:0:0:0:
216,172,105618,1,8,0:0:0:0:
180,136,105956,1,8,0:0:0:0:
180,136,106124,1,0,0:0:0:0:
84,152,106461,1,8,0:0:0:0:
84,152,106798,1,0,0:0:0:0:
84,152,106967,1,0,0:0:0:0:
84,152,107304,1,8,0:0:0:0:
84,152,107641,1,0,0:0:0:0:
124,184,108315,1,0,0:0:0:0:
124,184,108652,1,0,0:0:0:0:
124,184,108989,1,8,0:0:0:0:
216,196,109495,1,0,0:0:0:0:
216,196,109832,1,0,0:0:0:0:
176,128,110000,1,8,0:0:0:0:
176,128,110338,1,0,0:0:0:0:
176,148,111012,1,0,0:0:0:0:
176,148,111349,1,8,0:0:0:0:
176,148,111686,1,0,0:0:0:0:
20,144,112023,1,0,0:0:0:0:
20,144,112192,1,0,0:0:0:0:
176,148,112360,1,8,0:0:0:0:
176,148,112697,1,0,0:0:0:0:
180,152,113034,1,8,0:0:0:0:
180,156,113708,1,8,0:0:0:0:
180,156,114045,1,0,0:0:0:0:
180,156,114214,1,8,0:0:0:0:
180,156,114383,1,0,0:0:0:0:
180,156,114720,1,0,0:0:0:0:
180,156,115057,1,8,0:0:0:0:
180,156,115394,1,8,0:0:0:0:
192,156,115731,1,4,0:0:0:0:
124,192,116236,1,0,0:0:0:0:
204,168,116574,1,8,0:0:0:0:
204,168,116911,1,0,0:0:0:0:
260,160,117753,1,8,0:0:0:0:
188,208,118090,1,8,0:0:0:0:
196,212,118427,1,0,0:0:0:0:
196,216,118765,1,0,0:0:0:0:
196,216,118933,1,8,0:0:0:0:
200,216,119270,1,0,0:0:0:0:
228,96,119607,1,0,0:0:0:0:
184,168,120450,1,0,0:0:0:0:
184,168,120787,1,8,0:0:0:0:
192,108,121124,1,0,0:0:0:0:
4,152,121461,1,8,0:0:0:0:
224,132,121630,1,0,0:0:0:0:
224,140,121967,1,0,0:0:0:0:
224,140,122135,1,8,0:0:0:0:
228,140,122472,1,0,0:0:0:0:
256,116,123147,1,0,0:0:0:0:
308,156,123484,1,8,0:0:0:0:
112,144,123821,1,0,0:0:0:0:
376,172,124495,1,0,0:0:0:0:
376,184,124832,1,8,0:0:0:0:
372,132,125000,1,8,0:0:0:0:
372,124,125169,1,0,0:0:0:0:
292,96,125506,1,8,0:0:0:0:
292,96,125675,1,0,0:0:0:0:
8,108,126012,1,0,0:0:0:0:
224,120,126180,5,8,0:0:0:0:
160,168,126517,5,0,0:0:0:0:
160,168,126686,1,0,0:0:0:0:
312,212,126854,1,0,0:0:0:0:
312,212,127192,1,8,0:0:0:0:
388,208,127866,1,0,0:0:0:0:
388,208,128034,1,0,0:0:0:0:
368,184,128203,1,8,0:0:0:0:
368,184,128540,1,8,0:0:0:0:
368,184,129214,1,0,0:0:0:0:
180,140,129383,1,8,0:0:0:0:
180,140,129551,1,0,0:0:0:0:
172,176,129888,5,8,0:0:0:0:
248,176,130057,1,8,0:0:0:0:
248,176,130225,1,0,0:0:0:0:
368,184,130562,1,12,0:0:0:0:
312,132,131911,1,8,0:0:0:0:
312,132,132585,1,0,0:0:0:0:
64,188,132922,1,0,0:0:0:0:
64,188,133259,1,12,0:0:0:0:
120,192,133596,1,8,0:0:0:0:
216,136,133765,1,0,0:0:0:0:
208,148,134102,1,8,0:0:0:0:
208,152,134270,1,8,0:0:0:0:
208,152,134608,1,0,0:0:0:0:
196,156,134945,1,8,0:0:0:0:
108,136,135282,1,0,0:0:0:0:
112,144,135450,1,0,0:0:0:0:
120,172,135619,1,8,0:0:0:0:
216,180,135956,1,0,0:0:0:0:
220,120,136293,1,8,0:0:0:0:
252,136,136461,1,0,0:0:0:0:
248,152,136798,1,0,0:0:0:0:
244,136,136967,1,8,0:0:0:0:
248,144,137304,1,0,0:0:0:0:
256,120,137641,1,8,0:0:0:0:
256,120,137809,1,0,0:0:0:0:
256,120,137978,1,8,0:0:0:0:
256,120,138315,1,8,0:0:0:0:
164,80,138653,1,0,0:0:0:0:
224,176,139327,1,8,0:0:0:0:
232,172,139663,1,0,0:0:0:0:
216,140,139832,1,0,0:0:0:0:
216,144,140001,1,8,0:0:0:0:
216,144,140338,1,0,0:0:0:0:
216,140,140675,1,8,0:0:0:0:
216,136,141012,1,0,0:0:0:0:
216,136,141180,1,8,0:0:0:0:
324,148,141349,1,0,0:0:0:0:
296,216,141686,1,8,0:0:0:0:
204,140,142023,1,0,0:0:0:0:
220,160,142360,1,12,0:0:0:0:
176,120,143035,1,0,0:0:0:0:
176,132,143372,1,8,0:0:0:0:
176,132,143540,1,0,0:0:0:0:
316,180,143709,1,8,0:0:0:0:
316,180,144046,1,4,0:0:0:0:
156,136,144383,1,8,0:0:0:0:
216,140,144551,1,0,0:0:0:0:
216,148,144888,1,0,0:0:0:0:
232,104,145057,1,8,0:0:0:0:
224,112,145394,1,0,0:0:0:0:
140,152,145731,1,8,0:0:0:0:
292,160,146068,1,8,0:0:0:0:
292,160,146237,1,8,0:0:0:0:
356,160,146405,1,8,0:0:0:0:
392,152,146742,1,0,0:0:0:0:
264,88,147079,1,8,0:0:0:0:
280,96,147248,1,0,0:0:0:0:
280,104,147585,1,0,0:0:0:0:
280,104,147754,1,8,0:0:0:0:
224,112,148091,1,0,0:0:0:0:
264,128,148765,1,8,0:0:0:0:
192,136,149102,1,8,0:0:0:0:
196,136,149439,1,0,0:0:0:0:
200,136,149776,1,8,0:0:0:0:
200,136,149945,1,0,0:0:0:0:
148,172,150113,1,8,0:0:0:0:
148,172,150450,1,8,0:0:0:0:
76,148,150787,1,0,0:0:0:0:
148,172,151124,1,8,0:0:0:0:
124,164,151461,1,0,0:0:0:0:
148,172,151630,1,0,0:0:0:0:
124,164,151799,1,8,0:0:0:0:
124,164,152136,1,0,0:0:0:0:
56,172,152810,1,0,0:0:0:0:
168,120,153147,1,0,0:0:0:0:
136,340,153484,5,8,0:0:0:0:
184,92,153821,1,0,0:0:0:0:
284,112,154158,5,8,0:0:0:0:
184,92,154326,1,8,0:0:0:0:
284,112,154495,1,0,0:0:0:0:
256,140,154832,5,8,0:0:0:0:
87,156,155506,1,0,0:0:0:0:
87,156,155843,1,8,0:0:0:0:
89,156,156180,1,0,0:0:0:0:
87,156,156517,5,0,0:0:0:0:
87,156,156686,1,8,0:0:0:0:
89,156,156854,1,0,0:0:0:0:
91,160,157192,1,8,0:0:0:0:
48,144,157529,5,4,0:0:0:0:
172,136,158203,1,8,0:0:0:0:
176,108,158540,1,0,0:0:0:0:
176,112,158708,1,0,0:0:0:0:
176,112,158877,1,12,0:0:0:0:
164,144,159383,1,4,0:0:0:0:
132,152,159888,1,8,0:0:0:0:
268,160,160225,1,12,0:0:0:0:
256,192,160394,12,0,161574,0:0:0:0:
204,124,162922,5,0,0:0:0:0:
200,180,163596,1,8,0:0:0:0:
200,92,164270,1,0,0:0:0:0:
176,140,164944,1,0,0:0:0:0:
176,140,165281,1,0,0:0:0:0:
176,140,165618,1,8,0:0:0:0:
180,144,166293,1,0,0:0:0:0:
132,144,166967,1,8,0:0:0:0:
132,144,167641,1,8,0:0:0:0:
132,144,167978,1,8,0:0:0:0:
132,144,168315,1,0,0:0:0:0:
132,144,168989,1,0,0:0:0:0:
132,144,169326,1,8,0:0:0:0:
132,144,169663,1,0,0:0:0:0:
192,176,170338,5,8,0:0:0:0:
148,164,170675,1,0,0:0:0:0:
148,164,171012,1,8,0:0:0:0:
92,176,171686,1,0,0:0:0:0:
92,176,172023,1,0,0:0:0:0:
92,176,172360,1,8,0:0:0:0:
152,136,173034,1,8,0:0:0:0:
288,148,173371,1,8,0:0:0:0:
288,148,173708,1,0,0:0:0:0:
188,128,174045,1,8,0:0:0:0:
188,128,174214,1,0,0:0:0:0:
104,212,174551,1,0,0:0:0:0:
136,176,174720,1,0,0:0:0:0:
184,132,175057,1,8,0:0:0:0:
512,340,175731,5,8,0:0:0:0:
184,144,176068,1,8,0:0:0:0:
224,152,176405,1,4,0:0:0:0:
256,192,176574,12,0,177753,0:0:0:0:
244,176,178427,5,0,0:0:0:0:
244,176,178765,1,8,0:0:0:0:
244,176,179102,1,4,0:0:0:0:
40,168,179776,1,0,0:0:0:0:
40,172,180113,1,8,0:0:0:0:
180,144,180450,1,0,0:0:0:0:
24,168,180787,1,8,0:0:0:0:
180,124,180956,1,0,0:0:0:0:
180,124,181293,1,0,0:0:0:0:
180,124,181461,1,8,0:0:0:0:
180,124,181798,1,0,0:0:0:0:
208,164,182472,1,0,0:0:0:0:
168,180,182809,1,8,0:0:0:0:
168,188,183147,1,0,0:0:0:0:
168,192,183484,1,8,0:0:0:0:
168,192,183652,1,8,0:0:0:0:
40,168,183989,1,0,0:0:0:0:
168,128,184326,1,0,0:0:0:0:
40,168,184495,1,8,0:0:0:0:
116,172,185169,1,0,0:0:0:0:
116,172,185506,1,8,0:0:0:0:
116,172,185843,1,0,0:0:0:0:
168,184,186180,1,8,0:0:0:0:
168,184,186349,1,0,0:0:0:0:
136,196,186686,1,0,0:0:0:0:
136,196,186854,1,8,0:0:0:0:
136,196,187192,1,0,0:0:0:0:
16,184,187866,1,0,0:0:0:0:
196,152,188203,1,8,0:0:0:0:
184,172,188540,1,8,0:0:0:0:
112,140,188877,1,8,0:0:0:0:
160,156,189045,1,0,0:0:0:0:
112,140,189214,1,8,0:0:0:0:
100,168,189551,1,8,0:0:0:0:
56,144,189888,1,4,0:0:0:0:
40,168,190562,1,0,0:0:0:0:
40,172,190899,1,8,0:0:0:0:
180,144,191236,1,0,0:0:0:0:
24,168,191574,1,8,0:0:0:0:
196,152,191742,1,0,0:0:0:0:
180,124,192079,1,0,0:0:0:0:
180,124,192248,1,8,0:0:0:0:
180,124,192585,1,0,0:0:0:0:
208,164,193259,1,8,0:0:0:0:
168,180,193596,1,8,0:0:0:0:
168,188,193933,1,0,0:0:0:0:
168,192,194102,1,0,0:0:0:0:
48,184,194270,1,8,0:0:0:0:
236,176,194607,1,0,0:0:0:0:
32,176,194944,1,0,0:0:0:0:
40,72,195281,1,8,0:0:0:0:
64,164,195956,1,8,0:0:0:0:
104,112,196293,1,0,0:0:0:0:
152,136,196630,1,8,0:0:0:0:
152,136,197304,1,8,0:0:0:0:
196,168,197641,1,0,0:0:0:0:
196,168,197978,1,4,0:0:0:0:
100,136,198652,1,8,0:0:0:0:
232,152,198989,1,0,0:0:0:0:
60,144,199326,1,0,0:0:0:0:
232,152,199495,1,0,0:0:0:0:
176,136,199663,1,0,0:0:0:0:
176,136,200000,1,0,0:0:0:0:
176,132,200338,1,8,0:0:0:0:
176,132,200675,1,0,0:0:0:0:
160,156,201012,1,0,0:0:0:0:
160,168,201180,1,0,0:0:0:0:
160,168,201349,1,0,0:0:0:0:
160,168,201686,1,0,0:0:0:0:
160,168,202023,1,8,0:0:0:0:
160,168,202360,1,8,0:0:0:0:
160,168,202529,1,8,0:0:0:0:
160,168,202697,1,8,0:0:0:0:
160,168,203034,1,8,0:0:0:0:
96,156,203371,1,0,0:0:0:0:
76,188,203708,1,8,0:0:0:0:
76,188,203877,1,8,0:0:0:0:
76,188,204045,1,0,0:0:0:0:
76,188,204383,1,0,0:0:0:0:
160,152,204720,1,12,0:0:0:0:
192,148,208090,5,12,0:0:0:0:
120,192,208427,1,8,0:0:0:0:
216,136,208596,1,0,0:0:0:0:
208,148,208933,1,0,0:0:0:0:
208,152,209101,1,8,0:0:0:0:
208,152,209439,1,0,0:0:0:0:
196,156,209776,1,8,0:0:0:0:
108,136,210113,1,8,0:0:0:0:
112,144,210281,1,0,0:0:0:0:
120,172,210450,1,8,0:0:0:0:
216,180,210787,1,0,0:0:0:0:
220,120,211124,1,8,0:0:0:0:
252,136,211292,1,8,0:0:0:0:
248,152,211630,1,0,0:0:0:0:
244,136,211798,1,8,0:0:0:0:
248,144,212135,1,0,0:0:0:0:
256,120,212472,1,8,0:0:0:0:
256,120,212640,1,8,0:0:0:0:
256,120,212809,1,0,0:0:0:0:
256,120,213146,1,8,0:0:0:0:
164,80,213484,1,0,0:0:0:0:
144,152,213820,1,8,0:0:0:0:
144,152,213988,1,0,0:0:0:0:
224,176,214158,1,8,0:0:0:0:
232,172,214495,1,0,0:0:0:0:
216,140,214663,1,0,0:0:0:0:
216,144,214832,1,8,0:0:0:0:
216,144,215169,1,0,0:0:0:0:
216,140,215506,1,8,0:0:0:0:
216,136,215843,1,0,0:0:0:0:
216,136,216012,1,0,0:0:0:0:
324,148,216180,1,0,0:0:0:0:
296,216,216517,1,8,0:0:0:0:
204,140,216854,1,0,0:0:0:0:
220,160,217191,1,12,0:0:0:0:
176,120,217866,1,0,0:0:0:0:
176,132,218203,1,8,0:0:0:0:
176,132,218371,1,0,0:0:0:0:
316,180,218540,1,8,0:0:0:0:
316,180,218877,1,4,0:0:0:0:
156,136,219214,1,8,0:0:0:0:
216,140,219382,1,0,0:0:0:0:
216,148,219719,1,8,0:0:0:0:
232,104,219888,1,8,0:0:0:0:
224,112,220225,1,0,0:0:0:0:
140,152,220562,1,8,0:0:0:0:
292,160,220899,1,0,0:0:0:0:
292,160,221068,1,0,0:0:0:0:
356,160,221236,1,8,0:0:0:0:
392,152,221573,1,0,0:0:0:0:
264,88,221910,1,8,0:0:0:0:
280,96,222078,1,0,0:0:0:0:
280,104,222416,1,0,0:0:0:0:
280,104,222585,1,8,0:0:0:0:
224,112,222922,1,0,0:0:0:0:
68,132,223258,1,8,0:0:0:0:
68,132,223427,1,0,0:0:0:0:
264,128,223596,1,8,0:0:0:0:
192,136,223933,1,8,0:0:0:0:
196,136,224269,1,0,0:0:0:0:
200,136,224607,1,8,0:0:0:0:
148,172,224943,1,0,0:0:0:0:
200,136,225112,1,0,0:0:0:0:
148,172,225281,1,8,0:0:0:0:
76,148,225618,1,0,0:0:0:0:
124,164,226292,1,0,0:0:0:0:
124,164,226630,5,8,0:0:0:0:
124,164,226967,1,4,0:0:0:0:
116,140,227640,5,8,0:0:0:0:
116,140,228314,1,0,0:0:0:0:
116,140,228651,1,8,0:0:0:0:
116,140,228988,1,8,0:0:0:0:
116,140,229157,1,0,0:0:0:0:
116,140,229494,1,0,0:0:0:0:
132,104,229663,1,8,0:0:0:0:
164,184,230000,1,0,0:0:0:0:
164,184,230337,1,8,0:0:0:0:
164,184,230674,1,0,0:0:0:0:
164,184,231011,1,0,0:0:0:0:
144,52,231685,1,0,0:0:0:0:
144,52,232022,1,0,0:0:0:0:
144,52,232359,1,12,0:0:0:0:
404,84,232696,1,8,0:0:0:0:
220,196,232865,1,8,0:0:0:0:
148,176,233033,1,0,0:0:0:0:
148,176,233370,1,8,0:0:0:0:
148,176,233707,1,0,0:0:0:0:
148,184,234045,1,8,0:0:0:0:
148,184,234213,1,0,0:0:0:0:
148,184,234382,1,8,0:0:0:0:
148,184,234719,1,8,0:0:0:0:
116,148,235056,1,0,0:0:0:0:
240,88,235730,1,8,0:0:0:0:
240,92,236067,1,0,0:0:0:0:
136,164,236404,1,8,0:0:0:0:
136,164,236573,1,0,0:0:0:0:
216,176,236910,1,0,0:0:0:0:
216,176,237078,1,8,0:0:0:0:
216,176,237415,1,0,0:0:0:0:
216,176,237752,1,8,0:0:0:0:
448,292,239101,1,8,0:0:0:0:
408,276,240449,1,8,0:0:0:0:
380,252,240955,1,0,0:0:0:0:
376,240,241460,1,8,0:0:0:0:
72,152,241797,1,12,0:0:0:0:
128,144,242303,1,4,0:0:0:0:
224,116,242809,1,8,0:0:0:0:
180,168,243146,1,0,0:0:0:0:
84,200,243820,1,8,0:0:0:0:
48,188,244157,1,8,0:0:0:0:
48,188,244494,1,4,0:0:0:0:
128,104,245168,1,0,0:0:0:0:
128,104,245505,1,8,0:0:0:0:
152,128,245842,1,0,0:0:0:0:
208,120,246516,1,0,0:0:0:0:
208,120,246854,1,8,0:0:0:0:
160,140,247022,1,8,0:0:0:0:
160,140,247191,1,0,0:0:0:0:
164,172,247528,1,8,0:0:0:0:
164,172,247865,1,0,0:0:0:0:
164,172,248539,1,8,0:0:0:0:
56,148,248876,1,8,0:0:0:0:
56,148,249045,1,0,0:0:0:0:
56,148,249382,1,0,0:0:0:0:
56,148,249550,1,8,0:0:0:0:
56,148,249887,1,0,0:0:0:0:
264,176,250561,1,0,0:0:0:0:
264,172,250898,1,8,0:0:0:0:
264,172,251236,1,0,0:0:0:0:
64,164,251573,1,8,0:0:0:0:
64,164,251741,1,0,0:0:0:0:
72,164,251910,1,8,0:0:0:0:
72,164,252247,1,8,0:0:0:0:
136,84,252584,1,4,0:0:0:0:
212,92,252921,1,8,0:0:0:0:
48,164,253258,1,0,0:0:0:0:
68,164,253595,1,12,0:0:0:0:
116,176,254269,1,8,0:0:0:0:
116,176,254606,1,0,0:0:0:0:
184,168,254775,1,0,0:0:0:0:
56,152,254943,1,8,0:0:0:0:
80,156,255281,1,0,0:0:0:0:
128,104,255955,1,0,0:0:0:0:
128,104,256292,1,8,0:0:0:0:
152,128,256629,1,0,0:0:0:0:
232,176,256966,1,8,0:0:0:0:
232,176,257134,1,0,0:0:0:0:
232,176,257472,1,0,0:0:0:0:
232,176,257640,1,8,0:0:0:0:
232,188,257977,1,8,0:0:0:0:
100,112,258651,1,0,0:0:0:0:
100,112,258988,1,8,0:0:0:0:
100,112,259325,1,0,0:0:0:0:
200,172,259663,1,8,0:0:0:0:
200,172,260000,1,8,0:0:0:0:
200,172,260168,1,0,0:0:0:0:
200,172,260337,1,8,0:0:0:0:
128,128,260674,5,0,0:0:0:0:
128,128,262022,1,8,0:0:0:0:
128,128,263370,1,8,0:0:0:0:
128,128,264382,1,8,0:0:0:0:
256,192,264550,12,0,266067,0:0:0:0:
