osu file format v14

[General]
AudioFilename: audio.mp3
AudioLeadIn: 0
PreviewTime: 272293
Countdown: 0
SampleSet: Soft
StackLeniency: 0.7
Mode: 0
LetterboxInBreaks: 0
WidescreenStoryboard: 0

[Editor]
DistanceSpacing: 1
BeatDivisor: 4
GridSize: 4
TimelineZoom: 1.7

[Metadata]
Title:Colorful (tamame's apostate remix)
TitleUnicode:カラフル (tamame's apostate remix)
Artist:ClariS
ArtistUnicode:ClariS
Creator:Bearizm
Version:Tainted
Source:劇場版 魔法少女まどか☆マギカ [新編] 叛逆の物語
Tags:colourful puella magi magical girl gekijouban mahou shoujo madoka magika magica shinpen hangyaku no monogatari rebellion
BeatmapID:1812398
BeatmapSetID:866938

[Difficulty]
HPDrainRate:4
CircleSize:3.4
OverallDifficulty:5
ApproachRate:5.5
SliderMultiplier:1.2
SliderTickRate:2

[Events]
//Background and Video events
0,0,"Colorful.jpg",0,0
//Break Periods
//Storyboard Layer 0 (Background)
//Storyboard Layer 1 (Fail)
//Storyboard Layer 2 (Pass)
//Storyboard Layer 3 (Foreground)
//Storyboard Sound Samples

[TimingPoints]
65,342.857142857143,4,2,1,60,1,0
22007,-100,4,2,1,70,0,0
82350,-100,4,2,1,80,0,1
109779,-100,4,2,1,80,0,0
131722,-100,4,2,1,70,0,0
170122,-100,4,2,1,80,0,1
197550,-100,4,2,1,80,0,0
219493,-100,4,2,1,70,0,0
229950,-100,4,2,1,80,0,0
230465,-90.9090909090909,4,2,1,80,0,1
241436,-100,4,2,1,70,0,0
252407,-100,4,2,1,80,0,1
277007,-100,4,2,1,80,0,0
277093,-90.9090909090909,4,2,1,80,0,1
299036,-100,4,2,2,80,0,0
299122,-100,4,2,1,70,0,0
300407,-100,4,2,2,70,0,0
300493,-100,4,2,1,70,0,0
301779,-100,4,2,2,70,0,0
301865,-100,4,2,1,70,0,0
303150,-100,4,2,2,70,0,0
303236,-100,4,2,1,70,0,0
304522,-100,4,2,2,70,0,0
304607,-100,4,2,1,70,0,0
305893,-100,4,2,2,70,0,0
305979,-100,4,2,1,70,0,0
307265,-100,4,2,2,70,0,0
307350,-100,4,2,1,70,0,0
308636,-100,4,2,2,70,0,0
308722,-100,4,2,1,70,0,0
310007,-100,4,2,2,70,0,0
310093,-100,4,2,1,70,0,0
311379,-100,4,2,2,70,0,0
311465,-100,4,2,1,70,0,0
312750,-100,4,2,2,70,0,0
312836,-100,4,2,1,70,0,0
314122,-100,4,2,2,70,0,0
314207,-100,4,2,1,70,0,0
315493,-100,4,2,2,70,0,0
315579,-100,4,2,1,70,0,0
316865,-100,4,2,2,70,0,0
316950,-100,4,2,1,70,0,0
318236,-100,4,2,2,70,0,0
318322,-100,4,2,1,70,0,0
319607,-100,4,2,2,70,0,0
319693,-100,4,2,1,70,0,0

[Colours]
Combo1 : 143,132,190
Combo2 : 192,192,192
Combo3 : 128,128,128
Combo4 : 255,149,149
Combo5 : 255,0,0
Combo6 : 93,87,135

[HitObjects]
103,243,65,6,0,P|75:238|44:236,2,60,6|2|2,0:0|0:0|0:0,0:0:0:0:
150,205,579,2,0,P|229:201|268:287,1,180,2|0,0:0|0:0,0:0:0:0:
380,326,1436,2,0,P|373:356|375:388,2,60,2|2|2,0:0|0:0|0:0,0:0:0:0:
437,307,1950,2,0,L|420:128,1,180,2|0,0:0|0:0,0:0:0:0:
306,87,2807,6,0,P|306:56|318:26,2,60,2|2|2,0:0|0:0|0:0,0:0:0:0:
255,120,3322,2,0,B|195:109|195:109|139:131|139:131|79:121,1,180,2|0,0:0|0:0,0:0:0:0:
89,241,4179,2,0,P|59:241|30:232,2,60,2|2|2,0:0|0:0|0:0,0:0:0:0:
147,226,4693,2,0,P|190:218|252:328,1,180,2|0,0:0|0:0,0:0:0:0:
366,364,5550,70,0,P|368:334|378:307,1,60,2|2,0:0|0:0,0:0:0:0:
432,279,5893,1,2,0:0:0:0:
432,279,6065,2,0,L|417:100,1,180,2|0,0:0|0:0,0:0:0:0:
303,59,6922,2,0,P|275:72|242:73,1,60,2|2,0:0|0:0,0:0:0:0:
187,60,7265,1,2,0:0:0:0:
187,60,7436,2,0,P|127:53|88:158,1,180,2|0,0:0|0:0,0:0:0:0:
169,231,8293,6,0,P|201:224|228:222,1,60,2|2,0:0|0:0,0:0:0:0:
282,248,8636,1,2,0:0:0:0:
282,248,8807,2,0,B|335:254|363:219|363:219|398:253|452:249,1,180,2|0,0:0|0:0,0:0:0:0:
512,148,9665,2,0,P|502:114|501:89,1,60,2|2,0:0|0:0,0:0:0:0:
459,46,10007,1,2,0:0:0:0:
459,46,10179,2,0,B|372:12|372:91|284:49,1,180,2|0,0:0|0:0,0:0:0:0:
185,115,11036,70,0,P|193:171|198:234,1,120,6|8,0:0|0:0,0:0:0:0:
255,251,11550,2,0,P|252:287|252:322,2,60,2|2|2,0:0|0:0|0:0,0:0:0:0:
310,227,12065,1,8,0:0:0:0:
427,251,12407,2,0,P|463:255|503:187,1,120,2|8,0:0|0:0,0:0:0:0:
465,145,12922,1,2,0:0:0:0:
465,145,13093,2,0,P|458:113|455:81,1,60,2|2,0:0|0:0,0:0:0:0:
448,26,13436,1,8,0:0:0:0:
340,79,13779,6,0,L|221:66,1,120,2|8,0:0|0:0,0:0:0:0:
173,103,14293,1,2,0:0:0:0:
173,103,14465,2,0,P|142:99|111:95,1,60,2|2,0:0|0:0,0:0:0:0:
54,88,14807,1,8,0:0:0:0:
24,204,15150,2,0,B|39:238|39:238|27:322,1,120,2|8,0:0|0:0,0:0:0:0:
75,356,15665,1,2,0:0:0:0:
75,356,15836,2,0,P|106:344|134:339,1,60,2|2,0:0|0:0,0:0:0:0:
192,332,16179,1,8,0:0:0:0:
311,341,16522,70,0,P|352:352|414:299,1,120,2|8,0:0|0:0,0:0:0:0:
385,254,17036,2,0,P|386:223|390:193,1,60,2|2,0:0|0:0,0:0:0:0:
397,134,17379,1,2,0:0:0:0:
397,134,17550,1,8,0:0:0:0:
313,47,17893,2,0,P|274:36|206:83,1,120,2|8,0:0|0:0,0:0:0:0:
149,81,18407,2,0,P|155:111|158:139,1,60,2|2,0:0|0:0,0:0:0:0:
164,199,18750,1,2,0:0:0:0:
164,199,18922,1,8,0:0:0:0:
219,305,19265,6,0,P|252:296|284:296,2,60,2|2|10,0:0|0:0|0:0,0:0:0:0:
179,350,19779,2,0,P|137:364|68:327,1,120,2|0,0:0|0:0,0:0:0:0:
44,278,20293,2,0,P|49:246|52:214,1,60,8|0,0:0|0:0,0:0:0:0:
17,169,20636,2,0,P|11:139|8:109,2,60,2|2|10,0:0|0:0|0:0,0:0:0:0:
76,162,21150,2,0,P|134:151|181:186,1,120,2|0,0:0|0:0,0:0:0:0:
208,239,21665,1,2,0:3:0:0:
300,314,22007,5,4,3:2:0:0:
407,259,22350,2,0,B|422:218|422:218|405:143,1,120,8|0,0:3|0:0,0:0:0:0:
383,86,22865,1,0,3:0:0:0:
383,86,23036,1,8,0:3:0:0:
268,121,23379,1,0,3:0:0:0:
156,76,23722,2,0,P|124:72|64:134,1,120,8|0,0:3|0:0,0:0:0:0:
86,184,24236,1,0,3:0:0:0:
86,184,24407,2,0,P|95:214|99:243,1,60,8|0,0:3|0:0,0:0:0:0:
103,302,24750,5,0,3:0:0:0:
207,360,25093,2,0,L|332:344,1,120,8|0,0:3|0:0,0:0:0:0:
382,365,25607,1,0,3:0:0:0:
382,365,25779,1,8,0:3:0:0:
459,272,26122,1,0,3:0:0:0:
406,163,26465,2,0,P|343:141|293:170,1,120,8|0,0:3|0:0,0:0:0:0:
246,133,26979,1,0,3:0:0:0:
246,133,27150,2,0,P|214:131|178:120,1,60,8|0,0:3|0:0,0:0:0:0:
132,99,27493,69,0,3:0:0:0:
43,180,27836,2,0,P|53:237|62:299,1,120,8|0,0:3|0:0,0:0:0:0:
68,358,28350,1,0,3:0:0:0:
68,358,28522,1,8,0:3:0:0:
167,291,28865,1,0,3:0:0:0:
269,352,29207,1,8,0:3:0:0:
368,285,29550,2,0,P|365:255|360:225,1,60,0|0,0:0|3:0,0:0:0:0:
410,192,29893,2,0,P|412:159|418:132,1,60,8|0,0:3|0:0,0:0:0:0:
429,73,30236,6,0,P|381:39|324:54,1,120,0|8,3:0|0:3,0:0:0:0:
204,40,30922,2,0,L|144:32,2,60,0|0|8,0:0|3:0|0:3,0:0:0:0:
253,152,31607,1,0,3:0:0:0:
192,255,31950,2,0,L|132:263,2,60,8|0|0,0:3|0:0|0:0,0:0:0:0:
237,295,32465,1,0,3:0:0:0:
237,295,32636,2,0,P|266:296|297:300,1,60,8|0,0:3|0:0,0:0:0:0:
342,339,32979,70,0,P|374:352|452:315,1,120,4|8,3:2|0:3,0:0:0:0:
492,208,33665,2,0,P|485:177|490:142,2,60,0|0|8,0:0|3:0|0:3,0:0:0:0:
384,264,34350,1,0,3:0:0:0:
287,192,34693,2,0,P|296:132|303:72,1,120,8|0,0:3|0:0,0:0:0:0:
262,28,35207,1,0,3:0:0:0:
262,28,35379,2,0,P|232:33|202:36,1,60,8|0,0:3|0:0,0:0:0:0:
142,39,35722,5,0,3:0:0:0:
23,21,36065,1,8,0:3:0:0:
37,139,36407,2,0,L|43:198,1,60,0|0,0:0|3:0,0:0:0:0:
51,258,36750,1,8,0:3:0:0:
154,319,37093,2,0,P|208:334|260:291,1,120,0|8,3:0|0:3,0:0:0:0:
359,236,37779,2,0,P|389:240|417:250,2,60,0|0|8,0:0|3:0|0:3,0:0:0:0:
321,189,38293,1,0,0:0:0:0:
321,189,38465,70,0,L|306:67,1,120,0|8,3:0|0:3,0:0:0:0:
187,84,39150,2,0,L|194:143,1,60,0|0,0:0|3:0,0:0:0:0:
201,203,39493,1,8,0:3:0:0:
147,310,39836,2,0,L|26:298,1,120,0|8,3:0|0:3,0:0:0:0:
90,195,40522,2,0,P|82:166|84:137,1,60,0|0,0:0|3:0,0:0:0:0:
95,77,40865,2,0,P|105:48|123:26,1,60,8|0,0:3|0:0,0:0:0:0:
178,48,41207,6,0,L|297:39,1,120,0|8,3:0|0:3,0:0:0:0:
402,98,41893,2,0,L|462:103,2,60,0|0|8,0:0|3:0|0:3,0:0:0:0:
304,167,42579,2,0,L|313:227,1,60,0|0,3:0|3:0,0:0:0:0:
326,284,42922,2,0,L|335:344,1,60,8|0,0:3|3:0,0:0:0:0:
278,363,43265,1,8,0:3:0:0:
278,363,43436,1,0,3:0:0:0:
278,363,43607,2,0,L|219:355,1,60,10|0,0:3|0:0,0:0:0:0:
187,301,43950,70,0,P|133:282|83:312,1,120,6|8,3:2|0:3,0:0:0:0:
23,302,44465,1,2,0:0:0:0:
23,302,44636,2,0,L|14:181,1,120,2|8,0:0|0:3,0:0:0:0:
7,122,45150,1,2,0:0:0:0:
99,45,45493,1,2,0:0:0:0:
197,113,45836,2,0,B|286:79|286:159|372:118,1,180,2|8,0:0|0:3,0:0:0:0:
420,87,46522,1,2,0:0:0:0:
420,87,46693,6,0,L|409:206,1,120,2|8,3:2|0:3,0:0:0:0:
401,266,47207,1,2,0:0:0:0:
290,313,47550,1,2,3:2:0:0:
200,232,47893,1,2,0:0:0:0:
200,232,48065,2,0,P|168:224|86:275,1,120,0|8,3:0|0:3,0:0:0:0:
34,273,48579,2,0,P|28:212|20:148,1,120,2|0,0:0|3:0,0:0:0:0:
70,118,49093,2,0,P|74:83|80:52,1,60,8|2,0:3|0:0,0:0:0:0:
131,29,49436,70,0,P|162:22|231:74,1,120,2|8,3:2|0:3,0:0:0:0:
276,107,49950,1,2,0:0:0:0:
276,107,50122,2,0,L|397:94,1,120,2|8,0:0|0:3,0:0:0:0:
455,87,50636,1,2,0:0:0:0:
455,87,50807,1,0,3:0:0:0:
504,196,51150,1,8,0:3:0:0:
504,196,51322,2,0,L|384:208,1,120,2|0,0:0|3:0,0:0:0:0:
324,215,51836,1,8,0:3:0:0:
237,298,52179,6,0,P|201:307|134:265,1,120,2|8,3:2|0:3,0:0:0:0:
105,212,52693,1,2,0:0:0:0:
123,93,53036,1,2,3:2:0:0:
225,30,53379,1,2,0:0:0:0:
225,30,53550,2,0,P|256:25|319:80,1,120,0|8,3:0|0:3,0:0:0:0:
375,57,54065,2,0,P|361:115|356:175,1,120,2|0,0:0|3:0,0:0:0:0:
406,207,54579,1,10,0:3:0:0:
406,207,54750,1,2,0:0:0:0:
406,207,54922,70,0,P|413:242|359:302,1,120,4|8,3:2|0:3,0:0:0:0:
308,274,55436,1,2,0:0:0:0:
308,274,55607,2,0,L|188:266,1,120,2|8,0:0|0:3,0:0:0:0:
127,263,56122,1,2,0:0:0:0:
57,165,56465,1,2,0:0:0:0:
134,73,56807,2,0,B|187:71|212:108|212:108|249:78|303:86,1,180,2|8,0:0|0:3,0:0:0:0:
349,58,57493,1,2,0:0:0:0:
349,58,57665,6,0,P|336:115|327:175,1,120,2|8,3:2|0:3,0:0:0:0:
314,234,58179,1,2,0:0:0:0:
420,290,58522,1,2,3:2:0:0:
319,355,58865,1,2,0:0:0:0:
319,355,59036,2,0,L|200:346,1,120,0|8,3:0|0:3,0:0:0:0:
164,296,59550,2,0,P|123:282|55:321,1,120,2|0,0:0|3:0,0:0:0:0:
23,265,60065,2,0,P|32:236|37:204,1,60,8|0,0:3|0:0,0:0:0:0:
6,155,60407,70,0,P|5:126|77:78,1,120,2|8,3:2|0:3,0:0:0:0:
131,87,60922,1,2,0:0:0:0:
206,180,61265,1,2,3:2:0:0:
304,111,61607,1,2,0:0:0:0:
304,111,61779,2,0,L|424:104,1,120,0|8,3:0|0:3,0:0:0:0:
470,141,62293,2,0,P|460:171|457:202,1,60,2|2,0:0|0:0,0:0:0:0:
460,259,62636,1,2,3:2:0:0:
363,330,62979,1,2,0:0:0:0:
363,330,63150,6,0,L|243:323,1,120,0|8,3:0|0:3,0:0:0:0:
195,359,63665,2,0,P|157:369|96:318,1,120,2|0,0:0|3:0,0:0:0:0:
128,271,64179,1,8,0:3:0:0:
49,179,64522,1,0,3:0:0:0:
141,100,64865,1,8,0:3:0:0:
220,192,65207,2,0,L|281:182,1,60,8|0,0:3|3:0,0:0:0:0:
338,171,65550,2,0,L|399:161,1,60,10|0,0:3|0:0,0:0:0:0:
423,106,65893,70,0,P|402:53|346:41,1,120,6|8,3:2|0:3,0:0:0:0:
297,78,66407,2,0,L|178:68,1,120,2|2,3:2|3:2,0:0:0:0:
116,65,66922,1,8,0:3:0:0:
116,65,67093,2,0,P|85:117|97:178,1,120,2|0,3:2|3:0,0:0:0:0:
127,223,67607,1,8,0:3:0:0:
231,282,67950,2,0,P|237:310|240:340,2,60,2|0|8,3:2|3:0|0:3,0:0:0:0:
296,181,68636,6,0,P|338:174|401:223,1,120,2|8,3:2|0:3,0:0:0:0:
414,274,69150,1,2,0:0:0:0:
414,274,69322,2,0,P|403:303|398:332,1,60,0|2,3:0|3:2,0:0:0:0:
340,350,69665,1,8,0:3:0:0:
340,350,69836,2,0,L|218:337,1,120,2|0,3:2|3:0,0:0:0:0:
160,331,70350,1,8,0:3:0:0:
81,240,70693,2,0,P|90:211|92:182,1,60,2|0,3:2|3:0,0:0:0:0:
86,121,71036,1,8,0:3:0:0:
170,35,71379,70,0,P|202:30|270:80,1,120,2|8,3:2|0:3,0:0:0:0:
328,67,71893,2,0,P|313:141|308:192,1,120,2|2,0:0|3:2,0:0:0:0:
306,245,72407,1,8,0:3:0:0:
191,208,72750,2,0,P|155:197|91:243,1,120,2|8,3:2|0:3,0:0:0:0:
146,348,73436,2,0,L|205:341,1,60,2|0,0:0|3:0,0:0:0:0:
265,333,73779,1,8,0:3:0:0:
382,358,74122,5,2,3:2:0:0:
439,252,74465,2,0,P|434:218|307:197,1,180,8|0,0:3|3:0,0:0:0:0:
271,232,75150,1,8,0:3:0:0:
170,165,75493,2,0,L|181:42,1,120,2|8,3:2|0:3,0:0:0:0:
132,9,76007,2,0,P|95:4|36:58,1,120,2|2,0:0|3:2,0:0:0:0:
26,115,76522,1,8,0:3:0:0:
77,223,76865,38,0,L|197:209,1,120,2|8,3:2|3:2,0:0:0:0:
258,311,77550,2,0,L|378:297,1,120,0|8,3:0|3:2,0:0:0:0:
481,238,78236,5,0,3:0:0:0:
459,121,78578,1,8,3:2:0:0:
339,106,78921,1,0,3:0:0:0:
289,215,79264,1,8,3:2:0:0:
377,297,79607,70,0,L|385:238,1,60,0|0,3:0|3:0,0:0:0:0:
395,178,79950,2,0,L|403:119,1,60,8|0,3:2|3:0,0:0:0:0:
369,68,80293,2,0,P|341:57|311:58,1,60,2|0,3:2|3:0,0:0:0:0:
258,86,80636,2,0,P|230:97|200:96,1,60,8|0,3:2|3:0,0:0:0:0:
152,59,80979,6,0,P|103:46|41:97,1,120,2|0,3:2|3:0,0:0:0:0:
65,139,81493,1,0,3:0:0:0:
65,139,81665,2,0,P|76:173|79:200,1,60,8|0,0:3|3:0,0:0:0:0:
66,255,82007,1,10,0:3:0:0:
66,255,82179,1,8,0:3:0:0:
66,255,82350,38,0,L|185:242,1,120,4|8,3:2|0:3,0:0:0:0:
215,189,82865,2,0,P|242:178|315:227,1,120,0|0,3:0|3:0,0:0:0:0:
330,280,83379,1,8,0:3:0:0:
445,247,83722,2,0,B|457:211|457:211|439:131,1,120,0|8,3:0|0:3,0:0:0:0:
387,100,84236,2,0,P|348:113|282:65,1,120,0|0,3:0|3:0,0:0:0:0:
263,18,84750,2,0,L|203:27,1,60,8|0,0:3|0:0,0:0:0:0:
144,38,85093,6,0,P|150:98|155:160,1,120,0|8,3:0|0:3,0:0:0:0:
112,200,85607,2,0,P|105:260|101:322,1,120,0|0,3:0|3:0,0:0:0:0:
142,363,86122,1,8,0:3:0:0:
236,289,86465,2,0,P|292:284|338:331,1,120,0|8,3:0|0:3,0:0:0:0:
396,327,86979,2,0,P|399:267|406:206,1,120,0|0,3:0|3:0,0:0:0:0:
456,174,87493,2,0,P|454:138|451:111,1,60,8|0,0:3|0:0,0:0:0:0:
397,87,87836,70,0,P|346:95|297:47,1,120,0|8,3:0|0:3,0:0:0:0:
179,35,88522,2,0,P|186:64|190:93,1,60,0|0,3:0|3:0,0:0:0:0:
198,153,88865,1,8,0:3:0:0:
97,217,89207,2,0,P|90:260|83:337,1,120,0|8,3:0|0:3,0:0:0:0:
143,344,89722,2,0,P|186:333|245:375,1,120,0|0,3:0|3:0,0:0:0:0:
304,368,90236,2,0,L|366:361,1,60,8|0,0:3|0:0,0:0:0:0:
423,353,90579,5,0,3:0:0:0:
345,261,90922,1,8,0:3:0:0:
423,169,91265,2,0,L|429:108,1,60,0|0,3:0|3:0,0:0:0:0:
436,49,91607,1,8,0:3:0:0:
321,85,91950,2,0,P|290:87|261:80,1,60,0|0,3:0|3:0,0:0:0:0:
204,64,92293,2,0,P|173:61|144:68,1,60,8|0,0:3|3:0,0:0:0:0:
106,114,92636,1,8,0:3:0:0:
106,114,92807,1,0,3:0:0:0:
106,114,92979,2,0,L|115:174,1,60,10|0,0:3|0:0,0:0:0:0:
75,218,93322,70,0,P|70:258|124:315,1,120,4|8,3:2|0:3,0:0:0:0:
171,283,93836,2,0,P|230:277|294:275,1,120,0|0,3:0|3:0,0:0:0:0:
336,314,94350,1,8,0:3:0:0:
426,235,94693,2,0,B|439:193|439:193|420:120,1,120,0|8,3:0|0:3,0:0:0:0:
363,139,95207,2,0,P|328:147|267:87,1,120,0|0,3:0|3:0,0:0:0:0:
238,43,95722,2,0,P|210:30|174:25,1,60,8|0,0:3|0:0,0:0:0:0:
133,61,96065,6,0,B|147:180,1,120,0|8,3:0|0:3,0:0:0:0:
205,195,96579,2,0,P|234:210|240:294,1,120,0|0,3:0|3:0,0:0:0:0:
219,344,97093,1,8,0:3:0:0:
338,332,97436,2,0,P|426:324|461:322,1,120,0|8,3:0|0:3,0:0:0:0:
478,265,97950,1,0,3:0:0:0:
478,265,98122,2,0,P|470:235|453:209,1,60,0|0,0:0|3:0,0:0:0:0:
399,189,98465,2,0,P|378:133|400:79,1,120,8|0,0:3|3:0,0:0:0:0:
280,89,99150,70,0,L|220:94,1,60,8|0,0:3|3:0,0:0:0:0:
160,102,99493,2,0,L|100:107,1,60,0|0,0:0|3:0,0:0:0:0:
51,144,99836,2,0,P|33:199|60:251,1,120,8|0,0:3|3:0,0:0:0:0:
180,239,100522,6,0,L|239:233,1,60,8|0,0:3|3:0,0:0:0:0:
300,226,100865,2,0,L|359:220,1,60,0|0,0:0|3:0,0:0:0:0:
404,260,101208,2,0,P|422:315|395:367,1,120,8|0,0:3|3:0,0:0:0:0:
279,337,101893,69,8,0:3:0:0:
163,368,102236,2,0,L|158:309,1,60,0|0,3:0|3:0,0:0:0:0:
150,248,102579,1,8,0:3:0:0:
203,140,102922,2,0,P|236:133|266:131,1,60,0|0,3:0|3:0,0:0:0:0:
310,167,103265,2,0,P|343:174|373:176,1,60,8|0,0:3|3:0,0:0:0:0:
423,150,103607,1,8,0:3:0:0:
423,150,103779,1,0,3:0:0:0:
423,150,103950,1,8,0:3:0:0:
400,32,104293,6,0,L|277:39,1,120,0|8,3:0|3:2,0:0:0:0:
188,117,104979,2,0,P|171:174|197:225,1,120,0|8,3:0|3:2,0:0:0:0:
300,163,105665,69,0,3:0:0:0:
361,264,106007,1,8,3:2:0:0:
260,326,106350,1,0,3:0:0:0:
198,225,106693,1,8,3:2:0:0:
300,163,107036,6,0,P|294:133|279:104,1,60,0|0,3:0|3:0,0:0:0:0:
247,56,107379,2,0,P|226:33|199:15,1,60,8|0,3:2|3:0,0:0:0:0:
142,22,107722,2,0,P|121:44|107:74,1,60,0|0,3:0|3:0,0:0:0:0:
89,129,108065,2,0,P|82:158|85:191,1,60,8|0,3:2|3:0,0:0:0:0:
137,217,108407,70,0,L|258:204,1,120,0|0,3:0|3:0,0:0:0:0:
308,234,108922,1,0,3:0:0:0:
308,234,109093,2,0,P|301:268|298:299,1,60,8|0,0:3|3:0,0:0:0:0:
334,341,109436,1,10,0:3:0:0:
334,341,109607,1,8,0:3:0:0:
334,341,109779,5,4,3:2:0:0:
256,192,109950,12,0,112522,3:0:0:0:
334,341,113893,69,0,3:0:0:0:
241,263,114236,1,8,0:3:0:0:
241,263,114407,2,0,L|117:274,1,120,0|0,3:0|3:0,0:0:0:0:
76,233,114922,2,0,P|66:202|68:174,1,60,8|0,0:3|0:0,0:0:0:0:
104,126,115265,6,0,P|145:130|194:75,1,120,0|8,3:0|0:3,0:0:0:0:
243,40,115779,2,0,L|362:49,1,120,0|0,3:0|3:0,0:0:0:0:
410,86,116293,2,0,B|409:119|392:142|392:142|410:166|410:202,1,120,8|0,0:3|3:0,0:0:0:0:
326,285,116979,2,0,L|267:277,1,60,8|0,0:3|3:0,0:0:0:0:
222,317,117322,2,0,L|163:309,1,60,0|0,0:0|3:0,0:0:0:0:
118,349,117665,2,0,L|59:341,1,60,8|0,0:3|0:0,0:0:0:0:
20,294,118007,70,0,P|14:256|80:213,1,120,0|8,3:0|0:3,0:0:0:0:
114,167,118522,2,0,L|106:46,1,120,0|0,3:0|3:0,0:0:0:0:
151,8,119036,1,8,0:3:0:0:
249,77,119379,2,0,B|290:86|290:86|365:65,1,120,0|8,3:0|0:3,0:0:0:0:
405,20,119893,2,0,P|397:90|393:146,1,120,0|0,3:0|3:0,0:0:0:0:
442,174,120407,2,0,P|445:207|447:235,1,60,8|0,0:3|0:0,0:0:0:0:
452,293,120750,5,0,3:0:0:0:
344,345,121093,1,8,0:3:0:0:
344,345,121265,2,0,P|339:285|334:225,1,120,0|0,3:0|3:0,0:0:0:0:
287,185,121779,2,0,P|230:176|181:208,1,120,8|0,0:3|3:0,0:0:0:0:
70,255,122465,2,0,P|62:226|63:196,1,60,8|0,0:3|3:0,0:0:0:0:
76,137,122807,2,0,P|86:108|104:85,1,60,0|0,0:0|3:0,0:0:0:0:
148,44,123150,2,0,P|172:26|201:18,1,60,8|0,0:3|0:0,0:0:0:0:
250,51,123493,70,0,L|372:58,1,120,0|8,3:0|0:3,0:0:0:0:
417,21,124007,2,0,P|446:22|486:93,1,120,0|0,3:0|3:0,0:0:0:0:
434,125,124522,2,0,L|445:245,1,120,8|0,0:3|3:0,0:0:0:0:
339,301,125207,2,0,P|306:293|279:293,1,60,8|0,0:3|3:0,0:0:0:0:
246,242,125550,2,0,P|214:252|190:265,1,60,0|0,0:0|3:0,0:0:0:0:
136,237,125893,2,0,P|113:261|99:284,1,60,8|0,0:3|0:0,0:0:0:0:
98,343,126236,6,0,L|219:356,1,120,0|8,3:0|0:3,0:0:0:0:
262,316,126750,2,0,P|292:308|365:355,1,120,0|0,3:0|3:0,0:0:0:0:
422,340,127265,2,0,P|416:278|415:209,1,120,8|0,0:3|3:0,0:0:0:0:
415,100,127950,2,0,P|391:81|358:73,1,60,8|0,0:3|3:0,0:0:0:0:
330,123,128293,2,0,P|299:118|267:128,1,60,0|0,0:0|3:0,0:0:0:0:
268,186,128636,2,0,P|239:197|216:221,1,60,8|0,0:3|0:0,0:0:0:0:
158,223,128979,70,0,B|140:183|140:183|158:108,1,120,0|8,3:0|0:3,0:0:0:0:
208,76,129493,2,0,P|197:45|120:22,1,120,0|0,3:0|3:0,0:0:0:0:
64,44,130007,1,8,0:3:0:0:
4,148,130350,2,0,P|10:177|12:208,1,60,0|0,3:0|3:0,0:0:0:0:
59,243,130693,2,0,P|53:272|51:303,1,60,8|0,0:3|3:0,0:0:0:0:
94,343,131036,1,8,0:3:0:0:
94,343,131207,1,0,3:0:0:0:
94,343,131379,2,0,L|153:333,1,60,10|0,0:3|0:0,0:0:0:0:
208,356,131722,22,0,L|326:336,1,120,6|8,0:0|0:0,0:0:0:0:
367,291,132236,1,2,0:0:0:0:
367,291,132407,2,0,P|339:244|360:185,1,120,2|8,0:0|0:0,0:0:0:0:
419,177,132922,2,0,L|430:55,1,120,2|2,0:0|0:0,0:0:0:0:
316,18,133607,2,0,P|270:15|222:76,1,120,2|0,0:0|0:0,0:0:0:0:
164,79,134122,2,0,P|171:108|175:137,1,60,10|2,0:0|0:0,0:0:0:0:
131,179,134465,6,0,L|128:301,1,120,2|10,0:0|0:0,0:0:0:0:
127,359,134979,1,2,0:0:0:0:
230,298,135322,1,2,0:0:0:0:
342,341,135665,1,2,0:0:0:0:
342,341,135836,2,0,L|461:331,1,120,0|8,0:0|0:0,0:0:0:0:
496,215,136522,2,0,L|377:225,1,120,0|10,0:0|0:0,0:0:0:0:
324,194,137036,1,2,0:0:0:0:
324,194,137207,70,0,L|339:74,1,120,2|8,0:0|0:0,0:0:0:0:
291,37,137722,1,2,0:0:0:0:
291,37,137893,2,0,P|236:26|188:62,1,120,2|8,0:0|0:0,0:0:0:0:
174,121,138407,1,2,0:0:0:0:
174,121,138579,2,0,L|52:107,2,120,0|8|0,0:0|0:0|0:0,0:0:0:0:
230,226,139607,1,10,0:0:0:0:
286,331,139950,6,0,L|164:317,1,120,2|8,0:0|0:0,0:0:0:0:
118,353,140465,2,0,P|86:353|46:285,1,120,2|2,0:0|0:0,0:0:0:0:
120,190,141150,1,2,0:0:0:0:
120,190,141322,2,0,P|114:128|106:70,2,120,0|8|0,0:0|0:0|0:0,0:0:0:0:
173,216,142179,1,0,3:0:0:0:
173,216,142350,2,0,L|234:208,1,60,10|0,0:3|3:0,0:0:0:0:
256,152,142693,6,0,P|289:139|358:176,1,120,4|8,3:2|0:3,0:0:0:0:
417,163,143207,1,2,0:0:0:0:
417,163,143379,2,0,P|406:222|398:281,1,120,2|8,0:0|0:3,0:0:0:0:
393,341,143893,1,2,0:0:0:0:
278,378,144236,1,2,0:0:0:0:
187,298,144579,2,0,B|177:240|177:240|202:183|202:183|194:124,1,180,2|8,0:0|0:3,0:0:0:0:
146,88,145265,1,2,0:0:0:0:
146,88,145436,6,0,P|96:73|39:106,1,120,2|8,3:2|0:3,0:0:0:0:
15,159,145950,1,2,0:0:0:0:
45,275,146293,1,2,3:2:0:0:
131,192,146636,1,2,0:0:0:0:
131,192,146807,2,0,L|250:182,1,120,0|8,3:0|0:3,0:0:0:0:
294,139,147322,2,0,P|326:135|377:200,1,120,2|0,0:0|3:0,0:0:0:0:
373,256,147836,1,8,0:3:0:0:
284,336,148179,70,0,L|164:328,1,120,2|8,3:2|0:3,0:0:0:0:
104,324,148693,1,2,0:0:0:0:
183,233,149036,1,2,3:2:0:0:
118,131,149379,1,2,0:0:0:0:
118,131,149550,2,0,P|111:95|170:44,1,120,0|8,3:0|0:3,0:0:0:0:
218,76,150065,2,0,L|277:79,1,60,2|2,0:0|0:0,0:0:0:0:
337,84,150407,1,0,3:0:0:0:
450,45,150750,1,2,0:0:0:0:
450,45,150922,6,0,B|470:82|470:82|452:158,1,120,0|8,3:0|0:3,0:0:0:0:
490,204,151436,2,0,P|456:198|394:251,1,120,2|0,0:0|3:0,0:0:0:0:
387,308,151950,1,8,0:3:0:0:
282,367,152293,2,0,L|163:354,1,120,0|8,3:0|0:3,0:0:0:0:
139,235,152979,2,0,L|198:241,1,60,2|0,0:0|3:0,0:3:0:0:
258,248,153322,2,0,L|317:254,1,60,10|0,0:3|0:0,0:3:0:0:
362,214,153665,70,0,P|362:169|302:130,1,120,6|8,3:2|0:3,0:0:0:0:
247,150,154179,2,0,P|254:89|256:30,1,120,2|2,3:2|3:2,0:0:0:0:
197,22,154693,1,8,0:3:0:0:
197,22,154865,2,0,P|155:29|118:98,1,120,2|0,3:2|3:0,0:0:0:0:
130,150,155379,1,8,0:3:0:0:
58,246,155722,2,0,P|28:240|-2:240,2,60,2|0|8,3:2|3:0|0:3,0:0:0:0:
127,344,156407,6,0,L|248:327,1,120,2|8,3:2|0:3,0:0:0:0:
295,362,156922,1,2,0:0:0:0:
295,362,157093,2,0,L|355:353,1,60,0|2,3:0|3:2,0:0:0:0:
390,305,157436,1,8,0:3:0:0:
390,305,157607,2,0,P|391:270|325:229,1,120,2|0,3:2|3:0,0:0:0:0:
266,242,158122,1,8,0:3:0:0:
282,123,158465,2,0,L|289:57,1,60,2|0,3:2|3:0,0:0:0:0:
293,3,158807,1,8,0:3:0:0:
188,62,159150,70,0,P|150:57|83:108,1,120,2|8,3:2|0:3,0:0:0:0:
30,78,159665,2,0,L|52:202,1,120,2|2,0:0|3:2,0:0:0:0:
63,255,160179,1,8,0:3:0:0:
169,199,160522,2,0,P|205:188|267:233,1,120,2|8,3:2|0:3,0:0:0:0:
384,258,161207,2,0,P|379:289|377:323,2,60,2|0|8,0:0|3:0|0:3,0:0:0:0:
484,190,161893,5,2,3:2:0:0:
417,90,162236,2,0,B|358:84|358:84|305:113|305:113|245:106,1,180,8|0,0:3|3:0,0:0:0:0:
185,100,162922,1,8,0:3:0:0:
82,162,163265,2,0,P|91:230|98:293,1,120,2|8,3:2|0:3,0:0:0:0:
147,314,163779,2,0,P|200:312|240:262,1,120,2|2,0:0|3:2,0:0:0:0:
252,203,164293,1,8,0:3:0:0:
371,213,164636,38,0,L|491:225,1,120,2|8,3:2|3:2,0:0:0:0:
440,115,165322,2,0,L|320:103,1,120,0|8,3:0|3:2,0:0:0:0:
245,7,166007,5,0,3:0:0:0:
133,48,166350,1,8,3:2:0:0:
137,167,166693,1,0,3:0:0:0:
254,202,167036,1,8,3:2:0:0:
320,103,167379,70,0,P|352:106|378:120,1,60,0|0,3:0|3:0,0:0:0:0:
426,152,167722,2,0,P|450:172|463:199,1,60,8|0,3:2|3:0,0:0:0:0:
464,257,168065,2,0,P|443:278|416:291,1,60,2|0,3:2|3:0,0:0:0:0:
360,310,168408,2,0,P|330:316|301:310,1,60,8|0,3:2|3:0,0:0:0:0:
267,261,168750,6,0,P|253:231|171:220,1,120,2|0,3:2|3:0,0:0:0:0:
141,268,169265,1,0,3:0:0:0:
141,268,169436,2,0,L|151:328,1,60,8|0,0:3|3:0,0:0:0:0:
109,370,169779,1,10,0:3:0:0:
109,370,169950,1,8,0:3:0:0:
109,370,170122,38,0,P|63:377|14:326,1,120,4|8,3:2|0:3,0:0:0:0:
47,278,170636,2,0,L|34:159,1,120,0|0,3:0|3:0,0:0:0:0:
25,99,171150,1,8,0:3:0:0:
118,23,171493,2,0,P|166:13|227:68,1,120,0|8,3:0|0:3,0:0:0:0:
189,103,172007,2,0,B|171:144|171:144|187:217,1,120,0|0,3:0|3:0,0:0:0:0:
237,250,172522,2,0,P|267:243|296:241,1,60,8|0,0:3|0:0,0:0:0:0:
335,195,172865,6,0,P|392:206|438:170,1,120,0|8,3:0|0:3,0:0:0:0:
495,189,173379,2,0,P|484:128|478:69,1,120,0|0,3:0|3:0,0:0:0:0:
473,10,173893,1,8,0:3:0:0:
372,75,174236,2,0,P|335:86|271:42,1,120,0|8,3:0|0:3,0:0:0:0:
228,85,174750,2,0,P|195:69|115:109,1,120,0|0,3:0|3:0,0:0:0:0:
61,98,175265,2,0,P|70:129|77:163,1,60,8|0,0:3|0:0,0:0:0:0:
34,199,175607,70,0,P|26:258|21:319,1,120,0|8,3:0|0:3,0:0:0:0:
135,354,176293,2,0,B|135:325|132:295,1,60,0|0,3:0|3:0,0:0:0:0:
125,234,176636,1,8,0:3:0:0:
223,165,176979,2,0,P|282:162|325:206,1,120,0|8,3:0|0:3,0:0:0:0:
288,250,177493,2,0,P|280:302|274:370,1,120,0|0,3:0|3:0,0:0:0:0:
333,361,178007,2,0,L|392:353,1,60,8|0,0:3|0:0,0:0:0:0:
452,346,178350,5,0,3:0:0:0:
505,238,178693,1,8,0:3:0:0:
385,246,179036,2,0,P|379:217|376:187,1,60,0|0,3:0|3:0,0:0:0:0:
375,126,179379,1,8,0:3:0:0:
271,65,179722,2,0,P|275:34|277:5,2,60,0|0|8,3:0|3:0|0:3,0:0:0:0:
221,98,180236,1,0,3:0:0:0:
221,98,180407,2,0,P|192:90|162:91,1,60,8|0,0:3|3:0,0:0:0:0:
102,98,180750,2,0,P|79:113|47:120,1,60,10|0,0:3|0:0,0:0:0:0:
2,80,181093,70,0,P|10:150|12:201,1,120,4|8,3:2|0:3,0:0:0:0:
54,241,181607,2,0,P|101:231|156:271,1,120,0|0,3:0|3:0,0:0:0:0:
175,328,182122,1,8,0:3:0:0:
292,352,182465,2,0,P|330:357|387:305,1,120,0|8,3:0|0:3,0:0:0:0:
398,246,182979,1,0,3:0:0:0:
316,157,183322,2,0,L|257:161,1,60,0|8,3:0|0:3,0:0:0:0:
208,123,183665,1,0,0:0:0:0:
208,123,183836,6,0,P|208:73|264:38,1,120,0|8,3:0|0:3,0:0:0:0:
315,66,184350,2,0,P|374:57|435:51,1,120,0|0,3:0|3:0,0:0:0:0:
494,44,184865,1,8,0:3:0:0:
442,152,185207,1,0,3:0:0:0:
498,257,185550,1,8,0:3:0:0:
498,257,185722,2,0,P|439:250|376:245,1,120,0|0,3:0|3:0,0:0:0:0:
336,287,186236,2,0,P|307:278|276:276,1,60,8|0,0:3|0:0,0:0:0:0:
217,279,186579,1,0,3:0:0:0:
104,237,186922,70,0,P|94:207|95:178,1,60,8|0,0:3|3:0,0:0:0:0:
106,119,187265,2,0,P|116:89|134:66,1,60,0|0,0:0|3:0,0:0:0:0:
190,86,187607,2,0,L|310:73,1,120,8|0,0:3|3:0,0:0:0:0:
419,121,188293,6,0,P|425:150|423:180,1,60,8|0,0:3|3:0,0:0:0:0:
464,223,188636,2,0,P|447:247|425:267,1,60,0|0,0:0|3:0,0:0:0:0:
423,326,188979,2,0,L|301:318,1,120,8|0,0:3|3:0,0:0:0:0:
183,310,189665,69,8,0:3:0:0:
250,211,190007,2,0,L|252:152,1,60,0|0,3:0|3:0,0:0:0:0:
254,90,190350,1,8,0:3:0:0:
145,38,190693,2,0,P|114:44|91:62,1,60,0|0,3:0|3:0,0:0:0:0:
51,106,191036,2,0,P|35:133|33:162,1,60,8|0,0:3|3:0,0:0:0:0:
44,220,191379,1,8,0:3:0:0:
44,220,191550,1,0,3:0:0:0:
44,220,191722,1,8,0:3:0:0:
143,287,192065,6,0,L|265:275,1,120,0|8,3:0|0:3,0:0:0:0:
310,311,192579,2,0,P|343:318|406:249,1,120,0|0,3:0|3:0,0:0:0:0:
414,208,193093,1,8,0:3:0:0:
328,124,193436,2,0,L|208:135,1,120,0|8,3:0|0:3,0:0:0:0:
163,95,193950,2,0,P|130:90|73:150,1,120,0|0,3:0|3:0,0:0:0:0:
113,193,194465,2,0,P|123:224|126:252,1,60,8|0,0:3|0:0,0:0:0:0:
125,311,194807,69,0,3:0:0:0:
233,362,195150,1,8,0:3:0:0:
233,362,195322,2,0,L|352:351,1,120,0|0,3:0|3:0,0:0:0:0:
412,347,195836,1,8,0:3:0:0:
471,242,196179,2,0,P|457:203|385:190,1,120,0|8,3:0|0:3,0:0:0:0:
341,229,196693,2,0,L|281:223,1,60,0|0,3:0|0:0,0:0:0:0:
233,259,197036,1,0,3:0:0:0:
233,259,197207,2,0,L|173:253,1,60,10|0,0:3|0:0,0:0:0:0:
113,248,197550,5,4,3:2:0:0:
49,146,197893,1,8,0:3:0:0:
49,146,198065,2,0,P|53:106|120:71,1,120,0|0,3:0|3:0,0:0:0:0:
177,79,198579,1,8,0:3:0:0:
270,154,198922,2,0,L|389:141,1,120,0|8,3:0|0:3,0:0:0:0:
449,137,199436,1,0,3:0:0:0:
499,245,199779,2,0,L|439:240,1,60,0|8,3:0|0:3,0:0:0:0:
394,280,200122,1,0,0:0:0:0:
394,280,200293,70,0,P|377:320|307:337,1,120,0|8,3:0|0:3,0:0:0:0:
252,313,200807,2,0,L|133:329,1,120,0|0,3:0|3:0,0:0:0:0:
90,285,201322,2,0,L|100:225,1,60,8|0,0:3|0:0,0:0:0:0:
114,167,201665,1,0,3:0:0:0:
52,64,202007,2,0,P|77:45|105:38,1,60,8|0,0:3|3:0,0:0:0:0:
164,29,202350,2,0,P|195:27|222:38,1,60,0|0,0:0|3:0,0:0:0:0:
275,64,202693,2,0,P|301:80|317:104,1,60,8|0,0:3|0:0,0:0:0:0:
371,79,203036,6,0,P|360:137|350:198,1,120,0|8,3:0|0:3,0:0:0:0:
289,197,203550,2,0,P|297:251|305:326,1,120,0|0,3:0|3:0,0:0:0:0:
351,353,204065,1,8,0:3:0:0:
233,376,204407,2,0,P|210:341|136:338,1,120,0|8,3:0|0:3,0:0:0:0:
83,365,204922,2,0,P|78:305|70:245,1,120,0|0,3:0|3:0,0:0:0:0:
27,203,205436,1,8,0:3:0:0:
86,99,205779,70,0,P|94:68|171:42,1,120,0|8,3:0|0:3,0:0:0:0:
219,76,206293,1,0,3:0:0:0:
219,76,206465,2,0,L|279:68,1,60,0|0,0:0|3:0,0:0:0:0:
328,101,206807,2,0,L|388:93,1,60,8|0,0:3|0:0,0:0:0:0:
433,54,207150,2,0,L|417:173,1,120,0|8,3:0|0:3,0:0:0:0:
362,198,207665,1,0,3:0:0:0:
362,198,207836,2,0,P|361:229|353:256,1,60,0|0,0:0|3:0,0:0:0:0:
393,301,208179,2,0,P|370:322|345:335,1,60,8|0,0:3|0:0,0:0:0:0:
285,348,208522,5,0,3:0:0:0:
170,312,208865,1,8,0:3:0:0:
170,312,209036,2,0,L|186:193,1,120,0|0,3:0|3:0,0:0:0:0:
126,200,209550,2,0,L|65:208,1,60,8|0,0:3|0:0,0:0:0:0:
21,168,209893,2,0,P|11:127|58:71,1,120,0|8,3:0|0:3,0:0:0:0:
114,91,210407,2,0,L|234:78,1,120,0|0,3:0|3:0,0:0:0:0:
277,36,210922,1,8,0:3:0:0:
277,36,211093,1,0,0:0:0:0:
277,36,211265,70,0,P|335:22|388:52,1,120,0|8,3:0|0:3,0:0:0:0:
422,97,211779,1,0,3:0:0:0:
420,217,212122,1,0,3:0:0:0:
420,217,212293,2,0,P|413:245|403:277,1,60,8|0,0:3|0:0,0:0:0:0:
344,267,212636,2,0,P|306:255|249:302,1,120,0|8,3:0|0:3,0:0:0:0:
196,330,213150,1,0,3:0:0:0:
196,330,213322,2,0,P|165:321|136:318,1,60,0|0,0:0|3:0,0:0:0:0:
127,258,213665,2,0,P|95:265|69:277,1,60,8|0,0:3|0:0,0:0:0:0:
22,312,214007,5,0,3:0:0:0:
256,192,214179,12,0,218122,3:0:0:0:
22,312,219493,6,0,L|144:318,1,120,4|8,0:0|0:0,0:0:0:0:
185,276,220007,1,0,0:0:0:0:
185,276,220179,2,0,P|204:222|180:165,1,120,2|8,0:0|0:0,0:0:0:0:
142,120,220693,1,0,0:0:0:0:
142,120,220865,2,0,P|122:64|144:10,1,120,2|8,0:0|0:0,0:0:0:0:
249,68,221550,2,0,P|279:61|310:60,1,60,2|0,0:0|0:0,0:0:0:0:
349,103,221893,2,0,P|378:104|408:110,1,60,8|2,0:0|0:0,0:0:0:0:
453,150,222236,6,0,P|443:209|437:274,1,120,0|8,0:0|0:0,0:0:0:0:
330,324,222922,2,0,P|301:325|271:316,1,60,2|0,0:0|0:0,0:0:0:0:
213,330,223265,2,0,P|184:329|154:338,1,60,10|0,0:0|0:0,0:0:0:0:
98,315,223607,1,2,0:0:0:0:
98,315,223779,1,2,0:0:0:0:
98,315,223950,2,0,L|91:253,1,60,10|0,0:0|0:0,0:0:0:0:
51,209,224293,2,0,P|56:175|125:136,1,120,2|8,0:0|0:0,0:0:0:0:
232,80,224979,70,0,P|227:140|223:204,1,120,2|8,0:0|0:0,0:0:0:0:
268,240,225493,1,2,0:0:0:0:
268,240,225665,2,0,P|268:275|260:305,1,60,2|0,0:0|0:0,0:0:0:0:
241,355,226007,1,8,0:0:0:0:
360,344,226350,2,0,L|481:333,1,120,2|8,0:0|0:0,0:0:0:0:
507,216,227036,2,0,L|387:226,1,120,2|8,0:0|0:0,0:0:0:0:
345,184,227550,1,0,0:0:0:0:
345,184,227722,6,0,P|363:129|340:73,1,120,2|8,0:0|0:0,0:0:0:0:
232,20,228407,2,0,L|113:8,1,120,2|8,0:0|0:0,0:0:0:0:
58,35,228922,1,2,0:0:0:0:
58,35,229093,2,0,P|32:87|46:146,1,120,0|8,0:0|0:0,0:0:0:0:
89,185,229607,2,0,L|208:170,1,120,2|0,0:0|3:0,0:0:0:0:
260,200,230122,1,8,0:3:0:0:
260,200,230293,1,0,3:0:0:0:
260,200,230465,6,0,P|326:209|374:166,1,132.00000402832,4|8,3:2|0:3,0:0:0:0:
394,106,230979,1,0,0:0:0:0:
394,106,231150,2,0,P|426:97|459:98,1,66.0000020141602,2|0,0:0|3:0,0:0:0:0:
512,137,231493,2,0,L|497:269,1,132.00000402832,8|2,0:3|3:2,0:0:0:0:
390,346,232179,2,0,L|324:340,1,66.0000020141602,8|0,0:3|0:0,0:0:0:0:
269,303,232522,2,0,P|236:307|206:319,1,66.0000020141602,2|0,0:0|3:0,0:0:0:0:
149,284,232865,2,0,P|126:308|111:336,1,66.0000020141602,8|2,0:3|0:0,0:0:0:0:
47,353,233207,22,0,B|25:309|25:309|44:226,1,132.00000402832,0|8,3:0|0:3,0:0:0:0:
138,136,233893,2,0,B|126:70,2,66.0000020141602,2|0|8,0:0|3:0|0:3,0:0:0:0:
260,189,234579,1,2,3:2:0:0:
260,189,234750,1,2,0:0:0:0:
260,189,234922,2,0,P|291:179|326:180,1,66.0000020141602,8|0,0:3|0:0,0:0:0:0:
390,187,235265,2,0,P|421:194|451:212,1,66.0000020141602,2|0,0:0|3:0,0:0:0:0:
500,253,235607,1,8,0:3:0:0:
404,343,235950,54,0,B|354:337|354:337|318:352|318:352|274:349,1,132.00000402832,0|8,3:0|3:2,0:0:0:0:
238,293,236465,1,0,0:0:0:0:
238,293,236636,2,0,P|194:278|122:330,1,132.00000402832,0|8,3:0|3:2,0:0:0:0:
59,326,237150,1,0,0:0:0:0:
59,326,237322,2,0,P|48:241|41:193,1,132.00000402832,0|8,3:0|3:2,0:0:0:0:
74,137,237836,1,0,0:0:0:0:
74,137,238007,2,0,P|113:141|165:71,1,132.00000402832,0|8,3:0|3:2,0:0:0:0:
228,54,238522,1,0,0:0:0:0:
228,54,238693,22,0,P|259:62|293:65,1,66.0000020141602,0|0,3:0|3:0,0:0:0:0:
298,130,239036,2,0,P|266:138|233:141,1,66.0000020141602,8|0,3:2|3:0,0:0:0:0:
223,206,239379,2,0,P|254:214|288:217,1,66.0000020141602,0|0,3:0|3:0,0:0:0:0:
293,282,239722,2,0,P|261:290|228:293,1,66.0000020141602,8|0,3:2|3:0,0:0:0:0:
162,282,240065,54,0,P|123:266|46:302,1,132.00000402832,0|0,3:0|3:0,0:0:0:0:
7,247,240579,1,0,3:0:0:0:
7,247,240750,2,0,P|16:213|21:182,1,66.0000020141602,8|0,0:3|3:0,0:0:0:0:
31,117,241093,1,10,0:3:0:0:
31,117,241265,1,8,0:3:0:0:
31,117,241436,54,0,L|153:106,1,120,6|2,0:0|0:0,0:0:0:0:
210,102,241950,1,2,0:0:0:0:
305,29,242293,1,2,0:0:0:0:
409,88,242636,2,0,B|386:144|386:144|399:201|399:201|379:260,1,180,2|2,0:0|0:0,0:0:0:0:
362,316,243322,1,2,0:0:0:0:
248,355,243665,1,2,0:0:0:0:
150,285,244007,1,2,0:0:0:0:
150,285,244179,6,0,P|153:239|214:205,1,120,2|2,0:0|0:0,0:0:0:0:
262,239,244693,2,0,P|269:176|280:108,1,120,2|2,0:0|0:0,0:0:0:0:
192,35,245379,2,0,P|145:21|60:105,1,180,2|2,0:0|0:0,0:0:0:0:
58,164,246065,1,2,0:0:0:0:
142,250,246407,2,0,L|262:238,1,120,2|0,0:0|0:0,0:0:0:0:
313,268,246922,70,0,P|343:277|408:216,1,120,2|0,0:0|0:0,0:0:0:0:
338,130,247607,2,0,L|326:10,1,120,2|0,0:0|0:0,0:0:0:0:
205,7,248293,2,0,L|217:127,1,120,2|2,0:0|0:0,0:0:0:0:
168,162,248807,2,0,P|137:157|66:264,1,180,2|2,0:0|0:0,0:0:0:0:
112,300,249493,1,2,0:0:0:0:
112,300,249665,5,2,0:0:0:0:
229,278,250007,1,2,0:0:0:0:
322,353,250350,1,2,0:0:0:0:
439,331,250693,2,0,L|450:212,1,120,2|0,0:0|0:0,0:0:0:0:
344,153,251379,2,0,L|333:34,2,120,2|2|2,0:0|0:0|0:0,0:0:0:0:
240,213,252407,38,0,L|120:200,1,120,4|8,3:2|0:3,0:0:0:0:
81,154,252922,2,0,P|80:124|146:77,1,120,0|0,3:0|3:0,0:0:0:0:
206,84,253436,1,8,0:3:0:0:
320,49,253779,2,0,P|350:48|397:114,1,120,0|8,3:0|0:3,0:0:0:0:
351,154,254293,2,0,P|342:244|339:279,1,120,0|0,3:0|3:0,0:0:0:0:
293,311,254807,2,0,P|261:319|234:319,1,60,8|0,0:3|0:0,0:0:0:0:
183,286,255150,6,0,P|150:278|81:333,1,120,0|8,3:0|0:3,0:0:0:0:
23,321,255665,2,0,P|28:275|30:199,1,120,0|0,3:0|3:0,0:0:0:0:
25,141,256179,1,8,0:3:0:0:
112,58,256522,1,0,3:0:0:0:
212,123,256865,1,8,0:3:0:0:
212,123,257036,2,0,L|272:113,1,60,0|0,3:0|0:0,0:0:0:0:
308,66,257379,1,0,3:0:0:0:
308,66,257550,2,0,L|368:56,1,60,8|0,0:3|0:0,0:0:0:0:
426,44,257893,70,0,L|416:163,1,120,0|8,3:0|0:3,0:0:0:0:
362,190,258407,1,0,3:0:0:0:
362,190,258579,2,0,L|357:249,1,60,0|0,0:0|3:0,0:0:0:0:
305,280,258922,2,0,P|276:269|200:319,1,120,8|0,0:3|3:0,0:0:0:0:
84,294,259607,6,0,P|74:264|75:235,1,60,8|0,0:3|3:0,0:0:0:0:
86,176,259950,2,0,P|96:146|114:123,1,60,0|0,0:0|3:0,0:0:0:0:
90,68,260293,2,0,P|148:75|209:80,1,120,8|0,0:3|3:0,0:0:0:0:
322,37,260979,69,8,0:3:0:0:
301,155,261322,2,0,L|292:215,2,60,0|0|8,3:0|3:0|0:3,0:0:0:0:
414,114,262007,2,0,L|426:233,1,120,0|8,3:0|0:3,0:0:0:0:
475,267,262522,2,0,P|475:297|405:343,1,120,0|0,3:0|3:0,0:0:0:0:
353,315,263036,2,0,L|294:306,1,60,8|0,0:3|0:0,0:0:0:0:
249,347,263379,6,0,P|216:349|186:359,1,60,0|0,3:0|0:0,0:0:0:0:
154,308,263722,2,0,P|121:306|91:296,1,60,8|0,0:3|0:0,0:0:0:0:
49,336,264065,1,0,3:0:0:0:
49,336,264236,1,0,3:0:0:0:
49,336,264407,2,0,L|39:217,1,120,8|0,0:3|3:0,0:0:0:0:
119,126,265093,2,0,P|149:119|221:167,1,120,8|0,0:3|3:0,0:0:0:0:
195,219,265607,1,0,3:0:0:0:
195,219,265779,2,0,L|205:338,1,120,8|0,0:3|3:0,0:0:0:0:
317,381,266465,70,0,P|346:378|373:365,1,60,8|0,0:3|0:0,0:0:0:0:
373,304,266807,2,0,P|344:301|317:288,1,60,0|0,3:0|3:0,0:0:0:0:
310,227,267150,2,0,L|429:215,1,120,8|0,0:3|3:0,0:0:0:0:
512,128,267836,6,0,P|509:99|496:72,1,60,8|0,0:3|0:0,0:0:0:0:
435,72,268178,2,0,P|432:101|419:128,1,60,0|0,3:0|3:0,0:0:0:0:
358,135,268522,2,0,L|346:16,1,120,8|0,0:3|3:0,0:0:0:0:
230,48,269207,70,0,L|242:167,1,120,8|0,0:3|3:0,0:0:0:0:
193,202,269722,1,0,3:0:0:0:
193,202,269893,2,0,L|133:196,1,60,8|0,0:3|0:0,0:0:0:0:
86,233,270236,1,0,3:0:0:0:
86,233,270407,1,0,3:0:0:0:
86,233,270579,2,0,L|92:292,1,60,8|0,0:3|3:0,0:0:0:0:
101,352,270922,1,8,0:3:0:0:
101,352,271093,1,0,3:0:0:0:
101,352,271265,1,8,0:3:0:0:
220,342,271607,6,0,L|339:333,1,120,0|8,3:0|3:2,0:0:0:0:
375,216,272293,2,0,L|255:224,1,120,0|8,3:0|3:2,0:0:0:0:
141,186,272979,69,0,3:0:0:0:
141,66,273321,1,8,3:2:0:0:
255,29,273665,1,0,3:0:0:0:
326,126,274007,1,8,3:2:0:0:
255,224,274350,6,0,P|260:253|274:279,1,60,0|0,3:0|3:0,0:0:0:0:
308,331,274693,2,0,P|327:353|353:368,1,60,8|0,3:2|3:0,0:0:0:0:
413,358,275036,2,0,P|432:335|445:308,1,60,0|0,3:0|3:0,0:0:0:0:
466,251,275379,2,0,P|471:221|469:191,1,60,8|0,3:2|3:0,0:0:0:0:
415,166,275722,70,0,L|296:182,1,120,0|0,3:0|3:0,0:0:0:0:
251,141,276236,1,0,3:0:0:0:
251,141,276407,2,0,P|220:142|190:135,1,60,8|0,0:3|3:0,0:0:0:0:
134,116,276750,1,10,0:3:0:0:
134,116,276922,1,8,0:3:0:0:
134,116,277093,54,0,L|148:250,1,132.00000402832,4|8,3:2|0:3,0:0:0:0:
208,274,277607,1,0,0:0:0:0:
208,274,277779,2,0,L|215:341,1,66.0000020141602,2|0,0:0|3:0,0:0:0:0:
280,346,278122,2,0,P|318:327|391:365,1,132.00000402832,8|2,0:3|3:2,0:0:0:0:
483,271,278807,2,0,P|460:246|451:216,1,66.0000020141602,8|0,0:3|0:0,0:0:0:0:
384,211,279150,2,0,P|376:177|383:147,1,66.0000020141602,2|0,0:0|3:0,0:0:0:0:
328,110,279493,2,0,P|338:77|359:54,1,66.0000020141602,8|2,0:3|0:0,0:0:0:0:
420,28,279836,22,0,L|289:17,1,132.00000402832,0|8,3:0|0:3,0:0:0:0:
176,87,280522,2,0,L|110:93,2,66.0000020141602,2|0|8,0:0|3:0|0:3,0:0:0:0:
292,148,281207,1,2,3:2:0:0:
292,148,281379,1,2,0:0:0:0:
292,148,281550,2,0,P|306:178|308:211,1,66.0000020141602,8|0,0:3|0:0,0:0:0:0:
253,247,281893,2,0,P|239:276|236:309,2,66.0000020141602,2|0|8,0:0|3:0|0:3,0:0:0:0:
194,215,282407,1,2,0:0:0:0:
194,215,282579,54,0,P|146:200|82:250,1,132.00000402832,0|8,3:0|0:3,0:0:0:0:
18,253,283093,1,0,0:0:0:0:
18,253,283265,2,0,L|15:184,1,66.0000020141602,2|0,0:0|3:0,0:0:0:0:
9,121,283607,2,0,L|6:52,1,66.0000020141602,8|2,0:3|0:0,0:0:0:0:
60,17,283950,2,0,P|123:16|161:66,1,132.00000402832,0|8,3:0|0:3,0:0:0:0:
219,100,284465,1,2,0:0:0:0:
219,100,284636,2,0,L|284:91,1,66.0000020141602,2|0,0:0|3:0,0:0:0:0:
344,119,284979,2,0,L|409:110,1,66.0000020141602,8|2,0:3|0:0,0:0:0:0:
456,63,285322,22,0,L|448:195,1,132.00000402832,0|8,3:0|0:3,0:0:0:0:
333,260,286007,2,0,L|337:326,2,66.0000020141602,2|0|8,0:0|3:0|0:3,0:0:0:0:
282,216,286522,1,2,0:0:0:0:
282,216,286693,2,0,P|237:206|174:262,1,132.00000402832,0|8,3:0|0:3,0:0:0:0:
52,206,287379,2,0,P|52:171|45:141,1,66.0000020141602,2|0,0:0|3:0,0:0:0:0:
79,84,287722,1,8,0:3:0:0:
79,84,287893,1,2,0:0:0:0:
79,84,288065,54,0,L|215:70,1,132.00000402832,0|8,3:0|0:3,0:0:0:0:
263,109,288579,1,0,0:0:0:0:
263,109,288750,2,0,L|331:102,1,66.0000020141602,2|0,0:0|3:0,0:0:0:0:
360,44,289093,2,0,P|393:33|460:92,1,132.00000402832,8|2,0:3|3:2,0:0:0:0:
407,212,289779,2,0,L|341:205,1,66.0000020141602,8|0,0:3|0:0,0:0:0:0:
292,250,290122,2,0,L|226:243,1,66.0000020141602,2|0,0:0|3:0,0:0:0:0:
177,288,290465,2,0,L|111:281,1,66.0000020141602,8|2,0:3|0:0,0:0:0:0:
63,326,290807,22,0,L|50:194,1,132.00000402832,0|8,3:0|0:3,0:0:0:0:
147,104,291493,2,0,L|153:37,2,66.0000020141602,2|0|8,0:0|3:0|0:3,0:0:0:0:
258,175,292179,1,2,3:2:0:0:
258,175,292350,1,2,0:0:0:0:
258,175,292522,2,0,L|323:165,1,66.0000020141602,8|0,0:3|0:0,0:0:0:0:
364,113,292865,2,0,P|352:80|352:49,2,66.0000020141602,2|0|8,0:0|3:0|0:3,0:0:0:0:
427,132,293379,1,2,0:0:0:0:
427,132,293550,54,0,L|419:264,1,132.00000402832,0|8,3:0|0:3,0:0:0:0:
367,306,294065,1,0,0:0:0:0:
367,306,294236,2,0,P|336:297|299:300,1,66.0000020141602,2|0,0:0|3:0,0:0:0:0:
237,311,294579,2,0,P|205:318|175:339,1,66.0000020141602,8|2,0:3|0:0,0:0:0:0:
113,322,294922,2,0,P|92:282|135:216,1,132.00000402832,0|8,3:0|0:3,0:0:0:0:
174,162,295436,1,0,0:0:0:0:
174,162,295607,2,0,P|169:125|158:99,2,66.0000020141602,2|0|8,0:0|3:0|0:3,0:0:0:0:
232,193,296122,1,2,0:0:0:0:
232,193,296293,22,0,L|363:178,1,132.00000402832,0|8,3:0|0:3,0:0:0:0:
439,70,296979,2,0,L|430:5,2,66.0000020141602,2|0|8,0:0|3:0|0:3,0:0:0:0:
493,106,297493,1,2,0:0:0:0:
493,106,297665,2,0,P|479:185|472:236,1,132.00000402832,0|8,3:0|0:3,0:0:0:0:
409,257,298179,2,0,P|377:240|289:274,1,132.00000402832,2|0,0:0|3:0,0:0:0:0:
232,241,298693,1,10,0:3:0:0:
232,241,298865,1,0,3:0:0:0:
232,241,299036,54,0,L|243:121,1,120,12|8,3:2|0:3,0:0:0:0:
195,84,299550,1,0,0:0:0:0:
195,84,299722,2,0,L|134:93,1,60,2|0,0:0|3:0,0:0:0:0:
76,103,300065,1,8,0:3:0:0:
21,209,300407,2,0,P|31:261|38:333,1,120,10|8,3:2|0:3,0:0:0:0:
96,343,300922,2,0,P|133:328|203:361,1,120,2|0,0:0|3:0,0:0:0:0:
243,315,301436,2,0,P|276:324|303:324,1,60,8|2,0:3|0:0,0:0:0:0:
348,285,301779,38,0,L|335:165,1,120,8|8,3:2|0:3,0:0:0:0:
285,131,302293,1,0,0:0:0:0:
285,131,302465,2,0,L|288:71,1,60,2|0,0:0|3:0,0:0:0:0:
289,11,302807,1,8,0:3:0:0:
183,67,303150,1,10,3:2:0:0:
183,67,303322,1,2,0:0:0:0:
183,67,303493,2,0,P|147:58|80:104,1,120,8|2,0:3|0:0,0:0:0:0:
121,145,304007,1,0,3:0:0:0:
121,145,304179,2,0,P|128:176|131:208,1,60,8|2,0:3|0:0,0:0:0:0:
131,264,304522,37,8,3:2:0:0:
236,320,304865,2,0,L|296:311,1,60,8|0,0:3|0:0,0:0:0:0:
326,259,305207,2,0,P|354:268|387:268,1,60,2|0,0:0|3:0,0:0:0:0:
444,265,305550,2,0,P|472:258|501:242,1,60,8|2,0:3|0:0,0:0:0:0:
492,184,305893,2,0,L|480:65,1,120,8|8,3:2|0:3,0:0:0:0:
427,35,306407,1,2,0:0:0:0:
427,35,306579,2,0,P|398:44|368:46,1,60,0|0,0:0|3:0,0:0:0:0:
331,93,306922,2,0,P|301:86|274:73,1,60,8|2,0:3|0:0,0:0:0:0:
225,39,307265,38,0,P|193:32|127:93,1,120,8|8,3:2|0:3,0:0:0:0:
73,58,307779,2,0,P|84:117|89:177,1,120,2|0,0:0|3:0,0:0:0:0:
141,205,308293,2,0,P|137:236|138:273,1,60,8|2,0:3|0:0,0:0:0:0:
184,302,308636,2,0,P|223:295|283:353,1,120,8|8,3:2|0:3,0:0:0:0:
388,290,309322,2,0,P|419:291|446:300,2,60,2|0|8,0:0|3:0|0:3,0:0:0:0:
344,248,309836,1,2,0:0:0:0:
344,248,310007,38,0,L|356:128,1,120,8|8,3:2|0:3,0:0:0:0:
250,70,310693,2,0,L|244:10,2,60,2|0|8,0:0|3:0|0:3,0:0:0:0:
142,123,311379,2,0,P|109:117|47:188,1,120,8|8,3:2|0:3,0:0:0:0:
75,223,311893,2,0,L|194:230,1,120,2|0,0:0|3:0,0:0:0:0:
254,235,312407,1,8,0:3:0:0:
354,169,312750,38,0,P|383:173|421:248,1,120,8|8,3:2|0:3,0:0:0:0:
331,326,313436,2,0,P|332:359|341:387,2,60,2|0|8,0:0|3:0|0:3,0:0:0:0:
254,235,314122,1,10,3:2:0:0:
254,235,314293,1,2,0:0:0:0:
254,235,314465,2,0,L|134:246,1,120,8|2,0:3|0:0,0:0:0:0:
96,199,314979,1,0,3:0:0:0:
96,199,315150,2,0,L|105:139,1,60,8|2,0:3|0:0,0:0:0:0:
63,95,315493,38,0,P|74:61|150:42,1,120,8|8,3:2|0:3,0:0:0:0:
192,82,316007,2,0,L|312:71,1,120,2|0,0:0|3:0,0:0:0:0:
371,67,316522,1,8,0:3:0:0:
474,127,316865,2,0,P|503:173|487:235,1,120,10|8,3:2|0:3,0:0:0:0:
382,290,317550,2,0,P|377:321|382:351,2,60,2|0|8,0:0|3:0|0:3,0:0:0:0:
335,251,318065,1,2,0:0:0:0:
335,251,318236,38,0,L|215:259,1,120,8|8,3:2|0:3,0:0:0:0:
188,312,318750,2,0,P|151:320|90:272,1,120,2|0,0:0|3:0,0:0:0:0:
76,214,319265,1,8,0:3:0:0:
142,114,319607,2,0,L|262:122,1,120,8|8,3:2|0:3,0:0:0:0:
371,72,320293,1,2,0:0:0:0:
371,72,320465,2,0,P|364:100|360:130,1,60,2|10,3:2|0:3,0:0:0:0:
403,172,320807,2,0,L|468:166,1,60,2|4,0:0|0:0,0:0:0:0:
