osu file format v14

[General]
AudioFilename: audio.mp3
AudioLeadIn: 0
PreviewTime: 272293
Countdown: 0
SampleSet: Soft
StackLeniency: 0.7
Mode: 0
LetterboxInBreaks: 0
WidescreenStoryboard: 1

[Editor]
DistanceSpacing: 1
BeatDivisor: 4
GridSize: 4
TimelineZoom: 1.3

[Metadata]
Title:Colorful (tamame's apostate remix)
TitleUnicode:カラフル (tamame's apostate remix)
Artist:ClariS
ArtistUnicode:ClariS
Creator:Bearizm
Version:Pure
Source:劇場版 魔法少女まどか☆マギカ [新編] 叛逆の物語
Tags:colourful puella magi magical girl gekijouban mahou shoujo madoka magika magica shinpen hangyaku no monogatari rebellion
BeatmapID:1812397
BeatmapSetID:866938

[Difficulty]
HPDrainRate:3
CircleSize:3
OverallDifficulty:3
ApproachRate:4
SliderMultiplier:1.1
SliderTickRate:2

[Events]
//Background and Video events
0,0,"Colorful.jpg",0,0
//Break Periods
//Storyboard Layer 0 (Background)
//Storyboard Layer 1 (Fail)
//Storyboard Layer 2 (Pass)
//Storyboard Layer 3 (Foreground)
//Storyboard Sound Samples

[TimingPoints]
65,342.857142857143,4,2,1,60,1,0
22007,-100,4,2,1,70,0,0
82350,-100,4,2,1,80,0,1
109779,-100,4,2,1,80,0,0
131722,-100,4,2,1,70,0,0
170122,-100,4,2,1,80,0,1
197550,-100,4,2,1,80,0,0
219493,-100,4,2,1,70,0,0
229950,-100,4,2,1,80,0,0
230465,-100,4,2,1,80,0,1
241436,-100,4,2,1,70,0,0
252407,-100,4,2,1,80,0,1
277007,-100,4,2,1,80,0,0
277093,-100,4,2,1,80,0,1
299036,-100,4,2,2,80,0,0
299122,-100,4,2,1,70,0,0
300407,-100,4,2,2,70,0,0
300493,-100,4,2,1,70,0,0
301779,-100,4,2,2,70,0,0
301865,-100,4,2,1,70,0,0
303150,-100,4,2,2,70,0,0
303236,-100,4,2,1,70,0,0
304522,-100,4,2,2,70,0,0
304607,-100,4,2,1,70,0,0
305893,-100,4,2,2,70,0,0
305979,-100,4,2,1,70,0,0
307265,-100,4,2,2,70,0,0
307350,-100,4,2,1,70,0,0
308636,-100,4,2,2,70,0,0
308722,-100,4,2,1,70,0,0
310007,-100,4,2,2,70,0,0
310093,-100,4,2,1,70,0,0
311379,-100,4,2,2,70,0,0
311465,-100,4,2,1,70,0,0
312750,-100,4,2,2,70,0,0
312836,-100,4,2,1,70,0,0
314122,-100,4,2,2,70,0,0
314207,-100,4,2,1,70,0,0
315493,-100,4,2,2,70,0,0
315579,-100,4,2,1,70,0,0
316865,-100,4,2,2,70,0,0
316950,-100,4,2,1,70,0,0
318236,-100,4,2,2,70,0,0
318322,-100,4,2,1,70,0,0
319607,-100,4,2,2,70,0,0
319693,-100,4,2,1,70,0,0

[Colours]
Combo1 : 143,132,190
Combo2 : 192,192,192
Combo3 : 128,128,128
Combo4 : 255,149,149
Combo5 : 255,0,0
Combo6 : 93,87,135

[HitObjects]
204,177,65,6,0,L|40:189,2,165,6|2|0,0:0|0:0|0:0,0:0:0:0:
308,209,1436,2,0,L|472:197,2,165,2|2|0,0:0|0:0|0:0,0:0:0:0:
204,177,2807,6,0,B|199:225|170:250|170:250|131:246|98:208,2,165,2|2|0,0:0|0:0|0:0,0:0:0:0:
307,209,4179,2,0,B|311:160|340:135|340:135|379:139|412:177,2,165,2|2|0,0:0|0:0|0:0,0:0:0:0:
204,177,5550,70,0,P|168:185|92:97,2,165,2|2|0,0:0|0:0|0:0,0:0:0:0:
308,209,6922,2,0,P|344:201|420:289,2,165,2|2|0,0:0|0:0|0:0,0:0:0:0:
204,177,8293,6,0,L|192:13,2,165,2|2|0,0:0|0:0|0:0,0:0:0:0:
308,209,9664,2,0,L|320:373,2,165,2|2|0,0:0|0:0|0:0,0:0:0:0:
204,177,11036,69,6,0:0:0:0:
247,76,11379,2,0,B|305:47|347:91|347:91|407:70|448:112,1,220,8|8,0:0|0:0,0:0:0:0:
478,218,12407,1,2,0:0:0:0:
399,295,12750,2,0,B|326:281|326:281|258:308|258:308|185:296,1,220,8|8,0:0|0:0,0:0:0:0:
77,276,13779,5,2,0:0:0:0:
31,175,14122,2,0,P|26:119|157:77,1,220,8|8,0:0|0:0,0:0:0:0:
243,144,15150,1,2,0:0:0:0:
305,53,15493,2,0,B|288:132|288:132|307:185|307:185|290:266,1,220,8|8,0:0|0:0,0:0:0:0:
261,372,16522,69,2,0:0:0:0:
184,293,16865,2,0,B|129:285|83:328|83:328|92:269|53:223,1,220,8|8,0:0|0:0,0:0:0:0:
158,186,17893,1,2,0:0:0:0:
258,146,18236,2,0,B|222:103|231:44|231:44|185:87|130:79,1,220,8|8,0:0|0:0,0:0:0:0:
28,35,19265,6,0,P|36:137|36:158,1,110,2|10,0:0|0:0,0:0:0:0:
138,185,19950,2,0,P|130:287|130:308,1,110,0|8,0:0|0:0,0:0:0:0:
221,356,20636,1,2,0:0:0:0:
317,303,20979,2,0,P|373:319|445:201,1,220,10|2,0:0|0:3,0:0:0:0:
335,192,22007,5,4,3:2:0:0:
233,234,22350,2,0,B|177:226|177:226|126:244|126:244|72:237,1,165,8|0,0:3|3:0,0:0:0:0:
17,231,23036,1,8,0:3:0:0:
1,122,23379,1,0,3:0:0:0:
62,31,23722,2,0,P|103:27|173:116,1,165,8|0,0:3|3:0,0:0:0:0:
169,169,24407,1,8,0:3:0:0:
278,158,24750,6,0,L|387:148,1,110,0|8,3:0|0:3,0:0:0:0:
440,244,25436,2,0,L|495:253,2,55,0|0|8,0:0|3:0|0:3,0:0:0:0:
370,329,26122,1,0,3:0:0:0:
261,311,26465,2,0,L|96:284,1,165,8|0,0:3|3:0,0:0:0:0:
43,276,27150,1,8,0:3:0:0:
13,169,27493,69,0,3:0:0:0:
64,71,27836,2,0,B|146:40|146:108|226:75,1,165,8|0,0:3|3:0,0:0:0:0:
269,46,28522,2,0,P|259:101|253:157,1,110,8|0,0:3|3:0,0:0:0:0:
363,152,29207,2,0,B|380:233|385:317,1,165,8|0,0:3|3:0,0:0:0:0:
388,370,29893,1,8,0:3:0:0:
284,331,30236,6,0,B|255:334|233:349|233:349|208:329|184:323,1,110,0|8,3:0|0:3,0:0:0:0:
81,282,30922,2,0,P|74:310|75:338,2,55,0|0|8,0:0|3:0|0:3,0:0:0:0:
170,215,31607,1,0,3:0:0:0:
111,121,31950,2,0,P|119:74|226:59,1,165,8|0,0:3|3:0,0:0:0:0:
261,90,32636,1,8,0:3:0:0:
361,45,32979,69,4,3:2:0:0:
350,154,33322,2,0,L|339:319,1,165,8|0,0:3|3:0,0:0:0:0:
295,352,34007,2,0,P|240:367|194:345,1,110,8|0,0:3|3:0,0:0:0:0:
136,250,34693,2,0,L|147:85,1,165,8|0,0:3|3:0,0:0:0:0:
191,52,35379,2,0,P|246:37|293:60,1,110,8|0,0:3|3:0,0:0:0:0:
350,154,36065,5,8,0:3:0:0:
448,106,36407,2,0,P|449:76|457:49,2,55,0|0|8,0:0|3:0|0:3,0:0:0:0:
441,216,37093,1,0,3:0:0:0:
462,325,37436,2,0,L|297:315,1,165,8|0,0:3|3:0,0:0:0:0:
242,313,38122,1,8,0:3:0:0:
146,367,38465,69,0,3:0:0:0:
92,271,38807,2,0,B|73:222|73:222|105:115,1,165,8|0,0:3|3:0,0:0:0:0:
127,63,39493,2,0,P|182:74|227:49,1,110,8|0,0:3|3:0,0:0:0:0:
336,32,40179,2,0,P|326:141|323:205,1,165,8|0,0:3|3:0,0:0:0:0:
324,251,40865,1,8,0:3:0:0:
230,308,41207,6,0,P|179:287|128:300,1,110,0|8,3:0|0:3,0:0:0:0:
46,225,41893,2,0,L|40:170,2,55,0|0|8,0:0|3:0|0:3,0:0:0:0:
151,193,42579,2,0,L|159:84,1,110,0|8,3:0|0:3,0:0:0:0:
265,54,43265,2,0,P|259:28|262:0,2,55,8|0|10,0:3|3:0|0:3,0:0:0:0:
368,91,43950,70,0,L|390:257,1,165,6|2,3:2|0:0,0:0:0:0:
354,297,44636,2,0,P|280:328|222:278,1,165,2|2,0:0|0:0,0:0:0:0:
248,171,45493,1,2,0:0:0:0:
142,201,45836,2,0,L|156:33,1,165,2|8,0:0|0:3,0:0:0:0:
48,61,46693,6,0,L|34:225,1,165,2|2,3:2|0:0,0:0:0:0:
109,305,47550,2,0,L|223:292,1,110,2|2,3:2|0:0,0:0:0:0:
250,247,48065,2,0,P|292:235|372:313,2,165,0|2|8,3:0|0:0|0:3,0:0:0:0:
161,181,49436,70,0,L|173:71,1,110,2|8,3:2|0:3,0:0:0:0:
275,28,50122,2,0,L|262:137,1,110,2|8,0:0|0:3,0:0:0:0:
250,247,50807,2,0,P|292:235|372:313,2,165,0|2|8,3:0|0:0|0:3,0:0:0:0:
167,319,52179,6,0,B|113:309|113:309|59:324|59:324|2:317,2,165,2|2|8,3:2|0:0|0:3,0:0:0:0:
250,247,53550,2,0,P|241:191|235:138,1,110,0|8,3:0|0:3,0:0:0:0:
344,125,54236,2,0,P|353:181|359:234,1,110,0|10,0:0|0:3,0:0:0:0:
347,343,54922,70,0,P|392:279|469:291,2,165,4|2|8,3:2|0:0|0:3,0:0:0:0:
242,377,56293,2,0,P|188:369|129:364,1,110,0|8,3:0|0:3,0:0:0:0:
120,254,56979,2,0,P|174:245|229:241,1,110,0|8,0:0|0:3,0:0:0:0:
313,169,57665,6,0,P|300:114|190:97,1,165,2|2,3:2|0:0,0:0:0:0:
111,144,58522,2,0,P|116:200|120:259,1,110,2|2,3:2|0:0,0:0:0:0:
162,288,59036,2,0,B|219:281|219:281|267:301|267:301|322:296,1,165,0|2,3:0|0:0,0:0:0:0:
486,279,60065,1,8,0:3:0:0:
508,171,60407,70,0,P|501:132|395:103,1,165,2|2,3:2|0:0,0:0:0:0:
295,151,61265,1,2,3:2:0:0:
194,106,61607,2,0,P|203:185|211:271,1,165,2|8,0:0|0:3,0:0:0:0:
108,311,62465,2,0,P|103:338|103:368,2,55,2|2|8,0:0|3:2|0:3,0:0:0:0:
215,290,63150,5,0,3:0:0:0:
313,338,63493,2,0,P|375:342|419:260,1,165,8|0,0:3|3:0,0:0:0:0:
408,205,64179,1,8,0:3:0:0:
322,136,64522,2,0,B|270:153|270:153|217:135,1,110,0|8,3:0|0:3,0:0:0:0:
117,90,65207,1,8,0:3:0:0:
128,199,65550,1,10,0:3:0:0:
139,308,65893,70,0,L|305:288,1,165,6|2,3:2|3:2,0:0:0:0:
412,277,66750,1,2,3:2:0:0:
347,187,67093,2,0,B|339:145|367:110|367:110|321:121|288:95,1,165,2|8,3:2|0:3,0:0:0:0:
205,23,67950,1,2,3:2:0:0:
184,131,68293,1,8,0:3:0:0:
79,95,68636,6,0,P|86:151|90:204,1,110,2|8,3:2|0:3,0:0:0:0:
180,268,69322,2,0,P|175:296|172:326,2,55,0|2|8,3:0|3:2|0:3,0:0:0:0:
231,247,69836,2,0,P|266:258|346:176,1,165,2|8,3:2|0:3,0:0:0:0:
288,84,70693,2,0,L|179:95,1,110,2|8,3:2|0:3,0:0:0:0:
90,28,71379,70,0,B|64:78|64:78|83:184,1,165,2|2,3:2|0:0,0:0:0:0:
180,236,72236,2,0,P|214:228|276:271,1,110,2|0,3:2|0:0,0:0:0:0:
296,316,72750,2,0,L|409:302,1,110,2|8,3:2|0:3,0:0:0:0:
456,204,73436,2,0,L|343:218,1,110,2|8,0:0|0:3,0:0:0:0:
273,134,74122,6,0,L|382:120,1,110,2|8,3:2|0:3,0:0:0:0:
474,60,74807,2,0,P|481:33|482:6,2,55,0|0|8,0:0|3:0|0:3,0:0:0:0:
371,19,75493,2,0,P|334:14|264:106,1,165,2|2,3:2|0:0,0:0:0:0:
329,192,76350,2,0,B|355:241|355:241|333:348,1,165,2|2,3:2|3:2,0:0:0:0:
256,192,77036,12,2,80979,3:2:0:0:
332,348,82350,6,0,L|224:336,1,110,6|8,3:2|0:3,0:0:0:0:
180,304,82865,2,0,P|172:252|260:208,1,165,2|8,3:2|0:3,0:0:0:0:
364,176,83722,2,0,B|384:136|384:136|364:72,1,110,0|8,3:0|0:3,0:0:0:0:
324,36,84236,2,0,B|244:4|244:72|164:36,1,165,2|8,3:2|0:3,0:0:0:0:
64,84,85093,6,0,P|72:148|76:212,1,110,2|8,3:2|0:3,0:0:0:0:
128,208,85607,2,0,P|180:196|236:280,1,165,2|8,3:2|0:3,0:0:0:0:
145,339,86465,2,0,B|200:328|200:328|251:346|251:346|306:337,2,165,0|2|8,3:0|3:2|0:3,0:0:0:0:
81,249,87836,70,0,P|58:199|70:146,1,110,2|8,3:2|0:3,0:0:0:0:
180,137,88522,2,0,P|202:186|190:239,1,110,2|8,3:2|0:3,0:0:0:0:
145,339,89207,2,0,B|200:328|200:328|251:346|251:346|306:337,2,165,2|2|8,3:2|3:2|0:3,0:0:0:0:
81,249,90579,6,0,L|69:140,1,110,2|8,3:2|0:3,0:0:0:0:
178,130,91265,2,0,L|190:239,1,110,2|8,3:2|0:3,0:0:0:0:
254,328,91950,1,0,3:0:0:0:
359,294,92293,1,8,0:3:0:0:
359,184,92636,1,8,0:3:0:0:
254,150,92979,1,10,0:3:0:0:
190,239,93322,70,0,L|80:228,1,110,6|8,3:2|0:3,0:0:0:0:
48,184,93836,2,0,P|44:124|132:92,1,165,2|8,3:2|0:3,0:0:0:0:
232,132,94693,2,0,L|344:120,1,110,0|8,3:0|0:3,0:0:0:0:
356,68,95207,2,0,P|384:60|452:152,1,165,2|8,3:2|0:3,0:0:0:0:
368,224,96065,6,0,P|376:280|380:336,1,110,2|8,3:2|0:3,0:0:0:0:
336,368,96579,1,2,3:2:0:0:
240,312,96922,1,2,3:2:0:0:
133,338,97265,2,0,B|90:357|53:344|53:344|37:309|54:263,1,165,2|8,0:0|0:3,0:0:0:0:
159,233,98122,1,2,0:0:0:0:
92,144,98465,2,0,P|150:135|203:127,1,110,8|0,0:3|3:0,0:0:0:0:
217,17,99150,69,8,0:3:0:0:
325,3,99493,1,2,0:0:0:0:
375,97,99836,2,0,P|367:164|363:209,1,110,8|0,0:3|3:0,0:0:0:0:
262,250,100522,2,0,P|270:317|274:362,2,110,8|2|8,0:3|0:0|0:3,0:0:0:0:
159,209,101550,6,0,P|107:229|52:213,1,110,0|8,3:0|0:3,0:0:0:0:
51,105,102236,2,0,P|102:84|157:100,1,110,0|8,3:0|0:3,0:0:0:0:
250,149,102922,2,0,P|304:140|359:136,1,110,2|8,3:2|0:3,0:0:0:0:
429,220,103607,2,0,P|457:225|483:228,2,55,8|0|8,0:3|3:0|0:3,0:0:0:0:
361,307,104293,70,0,P|307:323|256:294,1,110,0|8,3:0|3:2,0:0:0:0:
150,302,104979,2,0,P|97:292|51:321,1,110,2|8,3:2|3:2,0:0:0:0:
62,210,105665,2,0,L|74:100,1,110,2|8,3:2|3:2,0:0:0:0:
182,80,106350,2,0,L|170:190,1,110,0|8,3:0|3:2,0:0:0:0:
277,154,107036,5,0,3:0:0:0:
343,242,107379,1,8,3:2:0:0:
282,334,107722,1,0,3:0:0:0:
177,300,108065,1,8,3:2:0:0:
170,190,108407,2,0,L|182:80,1,110,2|2,3:2|3:2,0:0:0:0:
190,25,108922,1,2,3:2:0:0:
83,50,109265,2,0,L|65:215,1,165,2|6,3:2|3:2,0:0:0:0:
256,192,109950,12,0,112522,3:0:0:0:
65,214,113893,69,0,3:0:0:0:
174,227,114236,2,0,L|284:241,2,110,8|0|8,0:3|0:0|0:3,0:0:0:0:
130,125,115265,6,0,P|143:85|218:65,1,110,0|8,3:0|0:3,0:0:0:0:
236,103,115779,2,0,B|292:95|292:95|341:117|341:117|395:109,1,165,0|8,3:0|0:3,0:0:0:0:
504,93,116636,1,0,3:0:0:0:
465,196,116979,2,0,P|460:248|457:306,1,110,8|0,0:3|0:0,0:0:0:0:
356,351,117665,1,8,0:3:0:0:
264,290,118007,70,0,P|208:280|148:360,2,165,0|0|8,3:0|3:0|0:3,0:0:0:0:
356,351,119379,2,0,B|377:299|377:299|352:193,1,165,0|0,3:0|3:0,0:0:0:0:
315,32,120407,1,8,0:3:0:0:
229,101,120750,6,0,P|175:112|127:90,1,110,0|8,3:0|0:3,0:0:0:0:
94,44,121265,2,0,B|101:109|108:210,1,165,0|8,3:0|0:3,0:0:0:0:
121,317,122122,1,0,3:0:0:0:
209,250,122465,2,0,B|261:233|261:233|313:253,1,110,8|0,0:3|0:0,0:0:0:0:
414,294,123150,1,8,0:3:0:0:
403,184,123493,70,0,L|394:73,1,110,0|8,3:0|0:3,0:0:0:0:
353,36,124007,2,0,P|298:22|236:106,1,165,0|8,3:0|0:3,0:0:0:0:
293,190,124865,1,0,3:0:0:0:
204,254,125207,2,0,P|210:288|219:368,2,110,8|0|8,0:3|0:0|0:3,0:0:0:0:
118,184,126236,6,0,P|123:129|132:75,1,110,0|8,3:0|0:3,0:0:0:0:
93,36,126750,2,0,B|148:29|148:29|198:49|198:49|254:43,1,165,0|8,3:0|0:3,0:0:0:0:
362,27,127607,1,0,3:0:0:0:
435,109,127950,2,0,P|423:198|419:231,1,110,8|0,0:3|0:0,0:0:0:0:
431,327,128636,1,8,0:3:0:0:
329,281,128979,70,0,P|277:275|230:308,1,110,0|8,3:0|0:3,0:0:0:0:
204,353,129493,2,0,B|231:268|157:269|192:191,1,165,0|8,3:0|0:3,0:0:0:0:
100,132,130350,1,0,3:0:0:0:
2,182,130693,1,8,0:3:0:0:
8,72,131036,2,0,P|10:44|12:18,2,55,8|0|10,0:3|3:0|0:3,0:0:0:0:
100,132,131722,22,0,P|181:123|264:116,1,165,6|2,0:0|0:0,0:0:0:0:
298,73,132407,2,0,P|336:65|406:152,1,165,2|2,0:0|0:0,0:0:0:0:
380,259,133265,1,2,0:0:0:0:
270,251,133607,2,0,B|216:248|216:248|166:274|166:274|111:268,1,165,2|10,0:0|0:0,0:0:0:0:
49,177,134465,6,0,P|45:118|132:80,1,165,2|2,0:0|0:0,0:0:0:0:
228,130,135322,2,0,L|337:116,1,110,2|2,0:0|0:0,0:0:0:0:
363,67,135836,2,0,P|422:63|460:150,1,165,0|0,0:0|0:0,0:0:0:0:
406,304,136865,1,10,0:0:0:0:
296,296,137207,70,0,L|186:290,1,110,2|8,0:0|0:0,0:0:0:0:
137,191,137893,2,0,L|247:197,1,110,2|8,0:0|0:0,0:0:0:0:
348,154,138579,2,0,B|369:102|369:102|334:-1,2,165,0|0|10,0:0|0:0|0:0,0:0:0:0:
247,197,139950,6,0,L|137:191,1,110,2|8,0:0|0:0,0:0:0:0:
186,290,140636,2,0,L|296:296,1,110,0|8,0:0|0:0,0:0:0:0:
384,229,141322,2,0,P|423:222|490:315,2,165,0|0|10,0:0|0:0|0:3,0:0:0:0:
296,296,142693,6,0,L|186:290,1,110,4|8,3:2|0:3,0:0:0:0:
83,331,143379,2,0,B|72:277|72:277|95:228|95:228|85:171,1,165,2|2,0:0|0:0,0:0:0:0:
64,64,144236,1,2,0:0:0:0:
167,101,144579,2,0,B|246:72|246:143|325:107,1,165,2|8,0:0|0:3,0:0:0:0:
414,42,145436,6,0,B|438:91|438:91|418:204,1,165,2|2,3:2|0:0,0:0:0:0:
318,244,146293,2,0,P|262:235|208:228,1,110,2|2,3:2|0:0,0:0:0:0:
173,186,146807,2,0,P|188:304|194:354,2,165,0|2|8,3:0|0:0|0:3,0:0:0:0:
92,110,148179,70,0,P|128:40|206:43,1,165,2|2,3:2|0:0,0:0:0:0:
303,94,149036,1,2,3:2:0:0:
402,46,149379,2,0,B|390:160|386:218|385:218,1,165,2|8,0:0|0:3,0:0:0:0:
487,261,150236,2,0,P|493:293|496:321,2,55,2|2|8,0:0|3:2|0:3,0:0:0:0:
384,230,150922,5,0,3:0:0:0:
288,284,151265,2,0,B|208:257|208:331|125:293,1,165,8|0,0:3|3:0,0:0:0:0:
78,275,151950,1,8,0:3:0:0:
128,177,152293,2,0,B|145:125|145:125|124:74,1,110,0|8,3:0|0:3,0:0:0:0:
13,80,152979,2,0,B|-4:132|-4:132|17:183,1,110,2|10,0:0|0:3,0:0:0:0:
78,275,153665,70,0,L|243:270,1,165,6|2,3:2|3:2,0:0:0:0:
337,214,154522,1,2,3:2:0:0:
430,272,154865,2,0,P|436:186|445:108,1,165,2|8,3:2|0:3,0:0:0:0:
365,31,155722,1,2,3:2:0:0:
266,80,156065,1,8,0:3:0:0:
289,187,156407,6,0,P|234:179|179:175,1,110,2|8,3:2|0:3,0:0:0:0:
76,136,157093,2,0,P|76:108|70:81,2,55,0|2|8,3:0|3:2|0:3,0:0:0:0:
30,167,157607,2,0,B|5:215|5:215|26:325,1,165,2|8,3:2|0:3,0:0:0:0:
132,350,158465,2,0,P|183:329|235:344,1,110,2|8,3:2|0:3,0:0:0:0:
311,264,159150,70,0,P|356:279|434:191,1,165,2|2,3:2|0:0,0:0:0:0:
390,106,160007,2,0,P|336:111|281:115,1,110,2|0,3:2|0:0,0:0:0:0:
241,75,160522,2,0,P|191:65|142:98,1,110,2|8,3:2|0:3,0:0:0:0:
38,126,161207,2,0,P|35:98|26:73,2,55,2|0|8,0:0|3:0|0:3,0:0:0:0:
116,203,161893,5,2,3:2:0:0:
84,308,162236,2,0,L|249:294,1,165,8|0,0:3|3:0,0:0:0:0:
303,290,162922,1,8,0:3:0:0:
387,220,163265,2,0,P|387:166|296:127,1,165,2|2,3:2|0:0,0:0:0:0:
207,192,164122,2,0,L|42:178,1,165,2|2,3:2|3:2,0:0:0:0:
256,192,164807,12,2,168750,3:2:0:0:
42,178,170122,6,0,L|152:167,1,110,6|8,3:2|0:3,0:0:0:0:
191,204,170636,2,0,L|356:187,1,165,2|8,3:2|0:3,0:0:0:0:
457,226,171493,2,0,P|483:274|472:329,1,110,0|8,3:0|0:3,0:0:0:0:
421,345,172007,2,0,B|338:313|338:382|262:352,1,165,2|8,3:2|0:3,0:0:0:0:
195,264,172865,6,0,L|204:153,1,110,2|8,3:2|0:3,0:0:0:0:
162,117,173379,2,0,P|110:103|44:185,1,165,2|8,3:2|0:3,0:0:0:0:
116,262,174236,2,0,B|172:254|172:254|221:275|221:275|276:269,2,165,0|2|8,3:0|3:2|0:3,0:0:0:0:
44,179,175607,70,0,P|17:130|30:79,1,110,2|8,3:2|0:3,0:0:0:0:
139,59,176293,2,0,P|165:107|152:158,1,110,2|8,3:2|0:3,0:0:0:0:
116,262,176979,2,0,B|172:254|172:254|221:275|221:275|276:269,2,165,2|2|8,3:2|3:2|0:3,0:0:0:0:
44,179,178350,6,0,L|29:68,1,110,2|8,3:2|0:3,0:0:0:0:
137,49,179036,2,0,L|152:159,1,110,2|8,3:2|0:3,0:0:0:0:
116,262,179722,2,0,P|163:289|214:277,1,110,0|8,3:0|0:3,0:0:0:0:
321,303,180407,2,0,P|373:290|419:317,1,110,8|10,0:3|0:3,0:0:0:0:
509,253,181093,70,0,P|502:197|498:143,1,110,6|8,3:2|0:3,0:0:0:0:
454,109,181607,2,0,B|399:101|399:101|349:121|349:121|294:113,1,165,2|8,3:2|0:3,0:0:0:0:
215,35,182465,2,0,P|180:27|97:117,2,165,0|2|8,3:0|3:2|0:3,0:0:0:0:
294,113,183836,6,0,P|286:169|279:222,1,110,2|8,3:2|0:3,0:0:0:0:
323,254,184350,2,0,L|432:237,1,110,2|2,3:2|3:2,0:0:0:0:
484,334,185036,2,0,L|320:359,1,165,2|8,0:0|0:3,0:0:0:0:
225,305,185893,1,2,0:0:0:0:
127,355,186236,2,0,P|119:299|112:246,1,110,8|0,0:3|3:0,0:0:0:0:
22,181,186922,69,8,0:3:0:0:
51,75,187265,1,2,0:0:0:0:
160,76,187607,2,0,L|269:62,1,110,8|0,0:3|3:0,0:0:0:0:
340,145,188293,2,0,L|449:159,2,110,8|2|8,0:3|0:0|0:3,0:0:0:0:
274,233,189322,6,0,P|251:282|263:337,1,110,0|8,3:0|0:3,0:0:0:0:
370,348,190008,2,0,P|392:299|382:246,1,110,0|8,3:0|0:3,0:0:0:0:
340,145,190693,2,0,P|349:91|354:35,1,110,2|8,3:2|0:3,0:0:0:0:
243,26,191379,2,0,L|188:19,2,55,8|0|8,0:3|3:0|0:3,0:0:0:0:
236,136,192065,70,0,L|126:143,1,110,0|8,3:0|0:3,0:0:0:0:
82,109,192579,2,0,P|55:111|16:224,1,165,0|8,3:0|0:3,0:0:0:0:
106,281,193436,2,0,B|161:272|161:272|212:289|212:289|266:280,1,165,2|2,3:2|3:2,0:0:0:0:
342,199,194293,2,0,P|397:204|431:243,1,110,2|2,3:2|0:0,0:0:0:0:
486,244,194807,6,0,P|485:166|490:130,1,110,0|8,3:0|0:3,0:0:0:0:
398,70,195493,2,0,P|395:40|389:15,2,55,0|0|8,0:0|3:0|0:3,0:0:0:0:
296,113,196179,2,0,L|187:100,1,110,2|8,3:2|0:3,0:0:0:0:
151,57,196693,2,0,L|168:222,1,165,2|10,3:2|0:3,0:0:0:0:
264,273,197550,70,0,P|318:261|393:337,2,165,4|0|8,3:2|3:0|0:3,0:0:0:0:
171,332,198922,2,0,B|118:321|118:321|66:339|66:339|8:329,2,165,0|0|8,3:0|3:0|0:3,0:0:0:0:
264,273,200293,6,0,P|270:188|278:104,1,165,2|2,3:2|3:2,0:0:0:0:
192,38,201150,1,2,3:2:0:0:
90,80,201493,1,2,0:0:0:0:
115,242,202007,2,0,P|69:268|14:261,2,110,8|2|8,0:3|0:0|0:3,0:0:0:0:
215,288,203036,70,0,P|269:280|324:277,1,110,2|8,3:2|0:3,0:0:0:0:
371,306,203550,2,0,B|392:253|392:253|368:148,1,165,2|8,3:2|0:3,0:0:0:0:
269,98,204407,2,0,P|214:109|173:79,1,110,2|8,3:2|0:3,0:0:0:0:
136,37,204922,2,0,P|141:94|146:203,1,165,2|8,3:2|0:3,0:0:0:0:
255,213,205779,6,0,P|247:268|241:323,1,110,2|8,3:2|0:3,0:0:0:0:
351,328,206465,2,0,P|356:357|359:383,2,55,2|0|8,0:0|3:0|0:3,0:0:0:0:
438,260,207150,2,0,B|443:230|461:210|461:210|444:188|442:158,1,110,0|8,3:0|0:3,0:0:0:0:
458,50,207836,1,2,0:0:0:0:
356,91,208179,1,8,0:3:0:0:
251,57,208522,70,0,P|247:29|245:3,2,55,2|0|8,3:2|0:0|0:3,0:0:0:0:
207,90,209036,2,0,P|201:170|194:256,1,165,0|8,3:0|0:3,0:0:0:0:
300,281,209893,2,0,P|332:273|402:364,2,165,0|0|8,3:0|3:0|0:3,0:0:0:0:
219,356,211265,6,0,L|109:341,1,110,2|8,3:2|0:3,0:0:0:0:
55,335,211779,1,2,3:2:0:0:
27,228,212122,2,0,P|36:194|98:161,1,110,2|0,3:2|0:0,0:0:0:0:
142,195,212636,2,0,B|133:140|133:140|150:86|150:86|143:31,2,165,2|2|8,3:2|3:2|0:3,0:0:0:0:
246,230,214007,69,2,3:2:0:0:
256,192,214179,12,0,218122,3:0:0:0:
246,230,219493,21,4,0:0:0:0:
168,152,219836,2,0,P|174:127|176:98,2,55,8|0|2,0:0|0:0|0:0,0:0:0:0:
140,258,220522,1,8,0:0:0:0:
246,230,220865,2,0,L|356:240,1,110,2|10,0:0|0:0,0:0:0:0:
408,144,221550,2,0,L|298:134,1,110,2|10,0:0|0:0,0:0:0:0:
196,92,222236,6,0,L|216:312,1,220,2|2,0:0|0:0,0:0:0:0:
308,370,223265,1,10,0:0:0:0:
403,315,223607,2,0,P|434:316|460:322,2,55,2|2|10,0:0|0:0|0:0,0:0:0:0:
327,235,224293,2,0,P|331:183|427:155,1,165,2|0,0:0|0:0,0:0:0:0:
476,179,224979,70,0,P|468:123|462:65,1,110,2|8,0:0|0:0,0:0:0:0:
354,45,225665,2,0,P|301:57|258:26,1,110,2|10,0:0|0:0,0:0:0:0:
177,100,226350,2,0,P|187:164|192:209,1,110,2|8,0:0|0:0,0:0:0:0:
296,243,227036,2,0,P|286:307|281:352,1,110,2|10,0:0|0:0,0:0:0:0:
171,367,227722,6,0,P|132:372|75:274,1,165,2|2,0:0|0:0,0:0:0:0:
94,227,228407,1,0,0:0:0:0:
12,152,228750,2,0,P|22:121|27:97,1,55,10|2,0:0|0:0,0:0:0:0:
35,44,229093,1,2,0:0:0:0:
134,91,229436,2,0,P|186:78|252:162,1,165,8|0,0:0|3:0,0:0:0:0:
250,208,230122,1,8,0:3:0:0:
155,264,230465,5,4,3:2:0:0:
250,318,230807,2,0,L|414:305,1,165,8|0,0:3|3:0,0:0:0:0:
469,300,231493,1,8,0:3:0:0:
398,215,231836,1,2,3:2:0:0:
485,148,232179,1,8,0:3:0:0:
419,59,232522,2,0,P|420:32|429:5,2,55,2|0|8,0:0|3:0|0:3,0:0:0:0:
332,127,233207,22,0,L|222:113,1,110,0|8,3:0|0:3,0:0:0:0:
140,186,233893,2,0,L|85:195,2,55,2|0|8,0:0|3:0|0:3,0:0:0:0:
228,251,234579,2,0,P|238:276|239:304,1,55,2|2,3:2|0:0,0:0:0:0:
236,358,234922,1,8,0:3:0:0:
126,352,235265,1,2,0:0:0:0:
16,346,235607,1,8,0:3:0:0:
76,254,235950,54,0,P|68:198|64:143,1,110,0|8,3:0|3:2,0:0:0:0:
174,135,236636,2,0,P|181:189|185:244,1,110,0|8,3:0|3:2,0:0:0:0:
287,288,237322,2,0,P|341:299|390:279,1,110,0|8,3:0|3:2,0:0:0:0:
378,169,238007,2,0,P|324:158|275:178,1,110,0|8,3:0|3:2,0:0:0:0:
185,244,238693,21,0,3:0:0:0:
95,173,239036,1,8,3:2:0:0:
133,69,239379,1,0,3:0:0:0:
242,73,239722,1,8,3:2:0:0:
274,178,240065,2,0,L|260:344,1,165,0|0,3:0|3:0,0:0:0:0:
215,308,240750,2,0,P|164:294|116:320,1,110,8|10,0:3|0:3,0:0:0:0:
44,236,241436,21,6,0:0:0:0:
44,236,244179,5,2,0:0:0:0:
44,236,246922,69,2,0:0:0:0:
44,236,249665,5,2,0:0:0:0:
44,236,252407,38,0,L|153:226,1,110,6|8,3:2|0:3,0:0:0:0:
187,269,252922,2,0,P|233:285|299:202,1,165,2|8,3:2|0:3,0:0:0:0:
409,203,253779,2,0,P|399:148|391:92,1,110,0|8,3:0|0:3,0:0:0:0:
423,49,254293,2,0,B|368:42|368:42|317:60|317:60|261:54,1,165,2|8,3:2|0:3,0:0:0:0:
161,100,255150,6,0,P|139:149|153:201,1,110,2|8,3:2|0:3,0:0:0:0:
190,242,255665,1,2,3:2:0:0:
298,224,256007,1,2,3:2:0:0:
406,206,256350,2,0,B|435:253|435:253|406:359|406:358,1,165,2|8,0:0|0:3,0:0:0:0:
295,353,257207,1,2,0:0:0:0:
185,347,257550,2,0,L|74:341,1,110,8|0,0:3|3:0,0:0:0:0:
19,245,258236,69,8,0:3:0:0:
84,156,258579,1,2,0:0:0:0:
182,205,258922,2,0,L|291:194,1,110,8|0,0:3|3:0,0:0:0:0:
365,112,259607,2,0,P|367:58|335:14,2,110,8|2|8,0:3|0:0|0:3,0:0:0:0:
398,217,260636,6,0,P|388:272|379:328,1,110,0|8,3:0|0:3,0:0:0:0:
269,329,261322,2,0,P|274:356|276:387,2,55,2|2|8,3:2|3:2|0:3,0:0:0:0:
170,280,262007,2,0,P|117:293|67:264,1,110,0|8,3:0|0:3,0:0:0:0:
35,224,262522,1,2,3:2:0:0:
70,119,262865,2,0,L|179:108,1,110,2|0,3:2|0:0,0:0:0:0:
210,62,263379,70,0,P|260:52|314:90,1,110,2|8,3:2|0:3,0:0:0:0:
337,128,263893,1,2,0:0:0:0:
439,87,264236,1,2,3:2:0:0:
424,196,264579,2,0,B|404:362,1,165,2|8,0:0|0:3,0:0:0:0:
301,320,265436,1,2,3:2:0:0:
198,359,265779,2,0,P|142:369|98:342,1,110,8|0,0:3|3:0,0:0:0:0:
45,245,266465,5,8,0:3:0:0:
63,136,266807,1,2,3:2:0:0:
83,28,267150,2,0,L|194:20,1,110,8|0,0:3|3:0,0:0:0:0:
253,112,267836,2,0,L|364:120,2,110,8|2|8,0:3|3:2|0:3,0:0:0:0:
190,202,268865,70,0,P|166:251|178:303,1,110,0|8,3:0|0:3,0:0:0:0:
287,314,269550,2,0,P|310:264|298:212,1,110,0|8,3:0|0:3,0:0:0:0:
253,112,270236,2,0,P|256:49|262:2,1,110,2|8,3:2|0:3,0:0:0:0:
372,9,270922,2,0,L|426:0,2,55,8|0|8,0:3|3:0|0:3,0:0:0:0:
364,118,271607,6,0,L|473:138,1,110,0|8,3:0|3:2,0:0:0:0:
435,241,272293,2,0,L|326:221,1,110,2|8,3:2|3:2,0:0:0:0:
236,284,272979,2,0,P|239:338|210:383,1,110,2|8,3:2|3:2,0:0:0:0:
102,354,273665,2,0,P|98:299|127:254,1,110,0|8,3:0|3:2,0:0:0:0:
202,173,274350,69,0,3:0:0:0:
141,77,274693,1,8,3:2:0:0:
34,100,275037,1,0,3:0:0:0:
25,211,275379,1,8,3:2:0:0:
127,254,275722,2,0,L|236:240,1,110,2|2,3:2|3:2,0:0:0:0:
290,233,276236,1,2,3:2:0:0:
353,143,276579,2,0,P|393:138|452:171,1,110,2|8,3:2|0:3,0:0:0:0:
507,166,277093,54,0,P|496:220|488:278,1,110,4|8,3:2|0:3,0:0:0:0:
385,313,277779,2,0,P|389:341|391:369,2,55,2|0|8,0:0|3:0|0:3,0:0:0:0:
294,249,278465,1,2,3:2:0:0:
209,318,278807,1,8,0:3:0:0:
137,234,279150,2,0,L|80:227,2,55,2|0|8,0:0|3:0|0:3,0:0:0:0:
224,166,279836,22,0,P|195:118|202:65,1,110,0|8,3:0|0:3,0:0:0:0:
310,47,280522,2,0,P|338:94|331:147,1,110,2|8,0:0|0:3,0:0:0:0:
294,249,281207,2,0,L|300:306,1,55,2|2,3:2|0:0,0:0:0:0:
337,344,281550,2,0,B|283:339|283:339|232:360|232:360|177:355,1,165,8|0,0:3|3:0,0:0:0:0:
121,350,282236,1,8,0:3:0:0:
11,339,282579,53,0,3:0:0:0:
75,249,282922,2,0,L|60:84,1,165,8|0,0:3|3:0,0:0:0:0:
53,30,283607,1,8,0:3:0:0:
151,78,283950,1,0,3:0:0:0:
241,15,284293,1,8,0:3:0:0:
252,124,284636,2,0,P|247:145|245:178,2,55,2|0|8,0:0|3:0|0:3,0:0:0:0:
340,58,285322,22,0,P|390:79|441:62,1,110,0|8,3:0|0:3,0:0:0:0:
511,146,286007,1,2,0:0:0:0:
432,223,286350,2,0,P|438:248|439:278,1,55,8|2,0:3|0:0,0:0:0:0:
441,332,286693,1,0,3:0:0:0:
332,351,287036,2,0,B|278:344|278:344|227:364|227:364|172:357,1,165,8|0,0:3|3:0,0:0:0:0:
117,347,287722,1,8,0:3:0:0:
36,272,288065,53,0,3:0:0:0:
72,168,288407,2,0,P|120:142|211:189,1,165,8|0,0:3|3:0,0:0:0:0:
231,239,289093,1,8,0:3:0:0:
314,310,289436,2,0,P|369:303|423:299,1,110,2|8,3:2|0:3,0:0:0:0:
427,188,290122,2,0,P|454:192|482:193,2,55,2|0|8,0:0|3:0|0:3,0:0:0:0:
356,103,290807,22,0,P|305:83|254:105,1,110,0|8,3:0|0:3,0:0:0:0:
159,155,291493,2,0,L|105:144,2,55,2|0|8,0:0|3:0|0:3,0:0:0:0:
252,214,292179,2,0,P|263:242|267:267,1,55,2|2,3:2|0:0,0:0:0:0:
272,321,292522,2,0,B|217:313|217:313|165:333|165:333|110:327,1,165,8|0,0:3|3:0,0:0:0:0:
61,350,293207,1,8,0:3:0:0:
3,255,293550,54,0,P|13:205|21:145,1,110,0|8,3:0|0:3,0:0:0:0:
131,141,294236,2,0,P|121:91|113:31,1,110,2|8,0:0|0:3,0:0:0:0:
222,18,294922,1,0,3:0:0:0:
306,89,295265,2,0,P|365:75|418:152,1,165,8|0,0:3|3:0,0:0:0:0:
472,159,295950,2,0,P|459:212|451:267,1,110,8|0,0:3|3:0,0:0:0:0:
342,288,296636,22,0,P|349:317|352:342,2,55,8|0|2,0:3|0:0|0:0,0:0:0:0:
255,219,297322,2,0,P|258:191|264:165,1,55,8|2,0:3|0:0,0:0:0:0:
287,114,297665,1,0,3:0:0:0:
212,33,298007,2,0,P|158:20|80:98,1,165,8|0,0:3|3:0,0:0:0:0:
27,95,298693,2,0,P|35:124|38:151,1,55,10|0,0:3|3:0,0:0:0:0:
43,203,299036,53,12,3:2:0:0:
25,311,299379,2,0,B|79:302|79:302|131:320|131:320|187:311,1,165,8|0,0:3|3:0,0:0:0:0:
240,302,300065,1,8,0:3:0:0:
333,359,300407,1,10,3:2:0:0:
337,249,300750,2,0,L|348:85,1,165,8|0,0:3|3:0,0:0:0:0:
352,29,301436,1,8,0:3:0:0:
253,77,301779,38,0,P|200:57|154:77,1,110,8|8,3:2|0:3,0:0:0:0:
74,153,302465,2,0,L|19:147,2,55,2|0|8,0:0|3:0|0:3,0:0:0:0:
147,235,303150,2,0,L|202:229,1,55,10|2,3:2|0:0,0:0:0:0:
238,187,303493,2,0,L|402:204,1,165,8|0,0:3|3:0,0:0:0:0:
456,211,304179,1,8,0:3:0:0:
439,319,304522,37,8,3:2:0:0:
330,335,304865,2,0,B|276:324|276:324|223:339|223:339|170:329,1,165,8|0,0:3|3:0,0:0:0:0:
115,318,305550,1,8,0:3:0:0:
51,228,305893,2,0,P|69:174|119:156,1,110,8|8,3:2|0:3,0:0:0:0:
200,83,306579,2,0,L|191:29,2,55,0|0|8,0:0|3:0|0:3,0:0:0:0:
223,190,307265,37,8,3:2:0:0:
329,162,307607,2,0,L|315:326,1,165,8|0,0:3|3:0,0:0:0:0:
309,381,308293,1,8,0:3:0:0:
214,323,308636,2,0,P|159:314|118:344,1,110,8|8,3:2|0:3,0:0:0:0:
29,277,309322,2,0,P|26:249|22:220,2,55,2|0|8,0:0|3:0|0:3,0:0:0:0:
129,232,310007,38,0,P|132:176|140:122,2,110,8|8|2,3:2|0:3|0:0,0:0:0:0:
165,273,310865,2,0,P|190:268|219:267,1,55,0|8,3:0|0:3,0:0:0:0:
308,202,311379,2,0,P|352:207|391:255,2,110,8|8|0,3:2|0:3|0:0,0:0:0:0:
317,147,312236,2,0,L|326:93,1,55,0|8,3:0|0:3,0:0:0:0:
217,111,312750,38,0,P|212:56|206:2,2,110,8|8|2,3:2|0:3|0:0,0:0:0:0:
173,145,313607,2,0,P|146:141|119:139,1,55,0|8,3:0|0:3,0:0:0:0:
27,201,314122,2,0,L|32:255,1,55,10|2,3:2|0:0,0:0:0:0:
37,310,314465,2,0,B|92:300|92:300|143:317|143:317|199:308,1,165,8|0,0:3|3:0,0:0:0:0:
234,267,315150,1,8,0:3:0:0:
294,361,315493,38,0,P|355:352|410:347,1,110,8|8,3:2|0:3,0:0:0:0:
362,244,316179,2,0,P|366:212|369:182,2,55,2|0|8,0:0|3:0|0:3,0:0:0:0:
471,259,316865,2,0,P|461:205|454:148,1,110,10|8,3:2|0:3,0:0:0:0:
444,40,317550,2,0,P|398:72|344:63,1,110,2|8,0:0|0:3,0:0:0:0:
241,34,318236,38,0,P|201:26|136:58,1,110,8|8,3:2|0:3,0:0:0:0:
86,38,318750,2,0,P|91:99|94:150,1,110,2|0,0:0|3:0,0:0:0:0:
98,203,319265,1,8,0:3:0:0:
192,259,319607,2,0,B|219:256|243:241|243:241|265:257|296:260,1,110,8|8,3:2|0:3,0:0:0:0:
354,166,320293,2,0,P|381:157|407:155,2,55,2|2|10,0:0|3:2|0:3,0:0:0:0:
308,135,320807,2,0,L|314:81,1,55,2|4,0:0|0:0,0:0:0:0:
