osu file format v14

[General]
AudioFilename: audio.mp3
AudioLeadIn: 0
PreviewTime: 272293
Countdown: 0
SampleSet: Soft
StackLeniency: 0.7
Mode: 0
LetterboxInBreaks: 0
WidescreenStoryboard: 0

[Editor]
DistanceSpacing: 1.4
BeatDivisor: 4
GridSize: 4
TimelineZoom: 2.2

[Metadata]
Title:Colorful (tamame's apostate remix)
TitleUnicode:カラフル (tamame's apostate remix)
Artist:ClariS
ArtistUnicode:ClariS
Creator:Bearizm
Version:Darkened
Source:劇場版 魔法少女まどか☆マギカ [新編] 叛逆の物語
Tags:colourful puella magi magical girl gekijouban mahou shoujo madoka magika magica shinpen hangyaku no monogatari rebellion
BeatmapID:1812394
BeatmapSetID:866938

[Difficulty]
HPDrainRate:5
CircleSize:3.8
OverallDifficulty:7
ApproachRate:8
SliderMultiplier:1.44
SliderTickRate:2

[Events]
//Background and Video events
0,0,"Colorful.jpg",0,0
//Break Periods
//Storyboard Layer 0 (Background)
//Storyboard Layer 1 (Fail)
//Storyboard Layer 2 (Pass)
//Storyboard Layer 3 (Foreground)
//Storyboard Sound Samples

[TimingPoints]
65,342.857142857143,4,2,1,60,1,0
65,-133.333333333333,4,2,1,60,0,0
21922,-133.333333333333,4,2,1,5,0,0
22007,-100,4,2,1,70,0,0
71293,-100,4,2,1,5,0,0
71379,-100,4,2,1,70,0,0
76779,-100,4,2,1,5,0,0
76865,-100,4,2,1,70,0,0
82350,-100,4,2,1,80,0,1
109779,-100,4,2,1,80,0,0
120665,-100,4,2,1,5,0,0
120750,-100,4,2,1,80,0,0
131722,-133.333333333333,4,2,1,70,0,0
142350,-100,4,2,1,70,0,0
159065,-100,4,2,1,5,0,0
159150,-100,4,2,1,70,0,0
164550,-100,4,2,1,5,0,0
164636,-100,4,2,1,70,0,0
170122,-100,4,2,1,80,0,1
191979,-100,4,2,1,5,0,1
192065,-100,4,2,1,80,0,1
197550,-100,4,2,1,80,0,0
212550,-100,4,2,1,5,0,0
212636,-100,4,2,1,80,0,0
219493,-100,4,2,1,70,0,0
229950,-100,4,2,1,80,0,0
230465,-90.9090909090909,4,2,1,80,0,1
241436,-133.333333333333,4,2,1,70,0,0
252407,-100,4,2,1,80,0,1
277007,-100,4,2,1,80,0,0
277093,-90.9090909090909,4,2,1,80,0,1
299036,-100,4,2,2,80,0,0
299122,-100,4,2,1,70,0,0
300407,-100,4,2,2,70,0,0
300493,-100,4,2,1,70,0,0
301779,-100,4,2,2,70,0,0
301865,-100,4,2,1,70,0,0
303150,-100,4,2,2,70,0,0
303236,-100,4,2,1,70,0,0
304522,-100,4,2,2,70,0,0
304607,-100,4,2,1,70,0,0
305893,-100,4,2,2,70,0,0
305979,-100,4,2,1,70,0,0
307265,-100,4,2,2,70,0,0
307350,-100,4,2,1,70,0,0
308636,-100,4,2,2,70,0,0
308722,-100,4,2,1,70,0,0
310007,-100,4,2,2,70,0,0
310093,-100,4,2,1,70,0,0
311379,-100,4,2,2,70,0,0
311465,-100,4,2,1,70,0,0
312750,-100,4,2,2,70,0,0
312836,-100,4,2,1,70,0,0
314122,-100,4,2,2,70,0,0
314207,-100,4,2,1,70,0,0
315493,-100,4,2,2,70,0,0
315579,-100,4,2,1,70,0,0
316865,-100,4,2,2,70,0,0
316950,-100,4,2,1,70,0,0
318236,-100,4,2,2,70,0,0
318322,-100,4,2,1,70,0,0
319607,-100,4,2,2,70,0,0
319693,-100,4,2,1,70,0,0

[Colours]
Combo1 : 143,132,190
Combo2 : 192,192,192
Combo3 : 128,128,128
Combo4 : 255,149,149
Combo5 : 255,0,0
Combo6 : 93,87,135

[HitObjects]
354,189,65,5,2,0:0:0:0:
331,203,236,1,2,0:0:0:0:
305,209,407,1,2,0:0:0:0:
301,133,579,5,2,0:0:0:0:
305,209,1436,69,2,0:0:0:0:
278,205,1607,1,2,0:0:0:0:
255,192,1778,1,2,0:0:0:0:
301,133,1950,5,2,0:0:0:0:
255,192,2807,69,2,0:0:0:0:
232,177,2978,1,2,0:0:0:0:
205,172,3149,1,2,0:0:0:0:
201,247,3321,5,2,0:0:0:0:
205,172,4180,69,2,0:0:0:0:
179,175,4351,1,2,0:0:0:0:
155,189,4522,1,2,0:0:0:0:
201,247,4694,5,2,0:0:0:0:
155,189,5550,69,2,0:0:0:0:
179,175,5721,1,2,0:0:0:0:
205,172,5892,1,2,0:0:0:0:
201,247,6064,5,2,0:0:0:0:
205,172,6923,69,2,0:0:0:0:
232,177,7094,1,2,0:0:0:0:
255,192,7265,1,2,0:0:0:0:
201,247,7437,5,2,0:0:0:0:
255,192,8294,69,2,0:0:0:0:
278,205,8465,1,2,0:0:0:0:
305,209,8636,1,2,0:0:0:0:
301,133,8808,5,2,0:0:0:0:
305,209,9665,69,2,0:0:0:0:
331,203,9836,1,2,0:0:0:0:
354,189,10007,1,2,0:0:0:0:
301,133,10179,5,2,0:0:0:0:
301,133,11036,70,0,L|194:143,1,108.000004119873,4|8,0:0|0:0,0:0:0:0:
147,203,11550,2,0,L|94:199,2,54.0000020599366,0|0|0,0:0|0:0|0:0,0:0:0:0:
198,259,12065,2,0,P|205:289|200:317,1,54.0000020599366,8|0,0:0|0:0,0:0:0:0:
152,368,12407,6,0,L|259:358,1,108.000004119873,0|8,0:0|0:0,0:0:0:0:
316,307,12922,2,0,L|369:314,2,54.0000020599366,0|0|0,0:0|0:0|0:0,0:0:0:0:
276,242,13436,2,0,L|272:188,1,54.0000020599366,8|0,0:0|0:0,0:0:0:0:
337,149,13779,70,0,P|300:154|253:108,1,108.000004119873,0|8,0:0|0:0,0:0:0:0:
182,78,14293,2,0,P|188:50|189:24,2,54.0000020599366,0|0|0,0:0|0:0|0:0,0:0:0:0:
119,120,14807,2,0,P|120:146|126:173,1,54.0000020599366,8|0,0:0|0:0,0:0:0:0:
60,212,15150,6,0,P|113:218|142:261,1,108.000004119873,0|8,0:0|0:0,0:0:0:0:
213,289,15665,2,0,B|204:315|205:347|204:347,2,54.0000020599366,0|0|0,0:0|0:0|0:0,0:0:0:0:
273,242,16179,2,0,P|286:269|290:293,1,54.0000020599366,8|0,0:0|0:0,0:0:0:0:
364,303,16522,70,0,P|375:249|381:196,1,108.000004119873,0|8,0:0|0:0,0:0:0:0:
309,172,17036,1,0,0:0:0:0:
309,172,17207,2,0,P|305:146|303:114,1,54.0000020599366,0|0,0:0|0:0,0:0:0:0:
377,99,17550,2,0,L|432:102,1,54.0000020599366,8|0,0:0|0:0,0:0:0:0:
458,31,17893,6,0,L|350:25,1,108.000004119873,0|8,0:0|0:0,0:0:0:0:
278,48,18407,1,0,0:0:0:0:
278,48,18579,2,0,L|221:54,1,54.0000020599366,0|0,0:0|0:0,0:0:0:0:
149,63,18922,2,0,L|92:69,1,54.0000020599366,8|0,0:0|0:0,0:0:0:0:
57,134,19265,70,0,P|70:186|82:238,1,108.000004119873,0|8,0:0|0:0,0:0:0:0:
152,269,19779,1,0,0:0:0:0:
152,269,19950,2,0,P|184:265|211:258,1,54.0000020599366,0|0,0:0|0:0,0:0:0:0:
280,259,20293,2,0,P|312:263|339:270,1,54.0000020599366,8|0,0:0|0:0,0:0:0:0:
388,216,20636,6,0,P|374:165|326:144,1,108.000004119873,0|8,0:0|0:0,0:0:0:0:
273,90,21150,1,0,0:0:0:0:
273,90,21322,2,0,L|281:35,1,54.0000020599366,0|0,0:0|0:0,0:0:0:0:
209,10,21665,2,0,L|195:89,1,81.0000030899049,2|0,0:3|0:0,0:0:0:0:
194,89,22007,6,0,L|51:82,1,144,4|8,3:2|0:3,0:0:0:0:
11,176,22522,2,0,P|30:206|36:241,1,72,0|0,0:0|0:0,0:0:0:0:
17,341,22865,1,0,3:0:0:0:
113,314,23036,2,0,L|183:299,1,72,8|0,0:3|0:0,0:0:0:0:
232,210,23379,6,0,P|267:200|332:273,1,144,0|8,3:0|0:3,0:0:0:0:
270,349,23893,1,0,0:0:0:0:
183,299,24065,2,0,L|113:314,1,72,0|0,0:0|3:0,0:0:0:0:
21,271,24407,2,0,P|8:237|15:200,1,72,8|0,0:3|0:0,0:0:0:0:
122,170,24750,70,0,L|112:315,1,144,0|8,3:0|0:3,0:0:0:0:
201,362,25265,1,0,0:0:0:0:
201,362,25436,2,0,L|271:349,1,72,0|0,0:0|3:0,0:0:0:0:
321,260,25779,2,0,L|251:247,1,72,8|0,0:3|0:0,0:0:0:0:
213,152,26122,6,0,P|227:108|313:100,1,144,0|8,3:0|0:3,0:0:0:0:
353,193,26636,2,0,L|325:335,1,144,0|0,0:0|3:0,0:0:0:0:
416,378,27150,1,8,0:3:0:0:
416,378,27236,1,0,0:0:0:0:
416,378,27322,1,0,0:0:0:0:
486,306,27493,70,0,P|489:269|478:237,1,72,0|0,3:0|0:0,0:0:0:0:
425,149,27836,1,8,0:3:0:0:
334,192,28007,1,0,0:0:0:0:
334,192,28179,2,0,L|263:184,1,72,0|0,0:0|3:0,0:0:0:0:
229,88,28522,2,0,L|300:96,1,72,8|0,0:3|0:0,0:0:0:0:
375,28,28865,6,0,P|415:25|461:111,1,144,0|8,3:0|0:3,0:0:0:0:
427,199,29379,2,0,L|437:271,1,72,0|0,0:0|0:0,0:0:0:0:
452,370,29722,1,0,3:0:0:0:
356,337,29893,2,0,P|316:327|285:335,1,72,8|0,0:3|0:0,0:0:0:0:
189,361,30236,70,0,B|169:313|169:313|190:222,1,144,0|8,3:0|0:3,0:0:0:0:
126,144,30750,1,0,0:0:0:0:
126,144,30922,2,0,L|54:154,1,72,0|0,0:0|3:0,0:0:0:0:
70,53,31265,2,0,L|142:43,1,72,8|0,0:3|0:0,0:0:0:0:
222,102,31607,6,0,B|268:110|268:110|314:93|314:93|361:102,1,144,0|8,3:0|0:3,0:0:0:0:
417,186,32122,2,0,P|398:217|395:251,1,72,0|0,0:0|0:0,0:0:0:0:
409,300,32379,1,0,0:0:0:0:
409,300,32465,1,0,3:0:0:0:
322,350,32636,2,0,L|250:342,1,72,8|0,0:3|0:0,0:0:0:0:
205,364,32893,1,0,0:0:0:0:
205,364,32979,70,0,L|61:348,1,144,4|8,3:2|0:3,0:0:0:0:
12,259,33493,1,0,0:0:0:0:
89,194,33665,2,0,P|100:160|95:125,1,72,0|0,0:0|3:0,0:0:0:0:
48,36,34007,2,0,L|119:27,1,72,8|0,0:3|0:0,0:0:0:0:
189,99,34350,6,0,L|331:81,1,144,0|8,3:0|0:3,0:0:0:0:
410,145,34865,2,0,L|395:215,1,72,0|0,0:0|0:0,0:0:0:0:
421,312,35207,1,0,3:0:0:0:
323,286,35379,2,0,P|286:283|254:298,1,72,8|0,0:3|0:0,0:0:0:0:
170,353,35722,70,0,P|126:361|76:283,1,144,0|8,3:0|0:3,0:0:0:0:
149,219,36236,2,0,P|158:185|147:149,2,72,0|0|0,0:0|0:0|3:0,0:0:0:0:
52,187,36750,1,8,0:3:0:0:
64,86,36922,1,0,0:0:0:0:
157,49,37093,6,0,L|229:59,1,72,0|0,3:0|0:0,0:0:0:0:
306,148,37436,2,0,L|234:158,1,72,8|0,0:3|0:0,0:0:0:0:
241,257,37779,1,0,0:0:0:0:
241,257,37865,1,0,0:0:0:0:
241,257,37950,1,0,3:0:0:0:
248,357,38122,1,8,0:3:0:0:
248,357,38465,70,0,L|393:342,1,144,0|8,3:0|0:3,0:0:0:0:
431,249,38979,2,0,P|436:212|423:177,1,72,0|0,0:0|0:0,0:0:0:0:
324,192,39322,1,0,3:0:0:0:
324,192,39493,2,0,P|319:229|332:264,1,72,8|0,0:3|0:0,0:0:0:0:
391,342,39836,6,0,L|248:357,1,144,0|8,3:0|0:3,0:0:0:0:
147,369,40350,1,0,0:0:0:0:
192,278,40522,2,0,P|189:242|172:211,1,72,0|0,0:0|3:0,0:0:0:0:
123,122,40865,2,0,P|126:86|143:55,1,72,8|0,0:3|0:0,0:0:0:0:
240,81,41207,70,0,B|290:74|290:74|336:87|336:87|380:82,1,144,0|8,3:0|0:3,0:0:0:0:
454,153,41722,1,0,0:0:0:0:
454,153,41893,2,0,P|446:189|439:226,1,72,0|0,0:0|3:0,0:0:0:0:
339,236,42236,2,0,P|347:272|354:309,1,72,8|0,0:3|0:0,0:0:0:0:
275,370,42579,5,0,3:0:0:0:
275,370,42750,1,0,3:0:0:0:
191,314,42922,1,8,0:3:0:0:
217,218,43094,1,0,3:0:0:0:
318,212,43265,1,8,0:3:0:0:
318,212,43350,1,8,0:3:0:0:
318,212,43436,1,0,3:0:0:0:
307,112,43607,2,0,L|299:39,1,72,10|0,0:3|0:0,0:0:0:0:
401,40,43950,70,0,L|416:185,1,144,4|8,3:2|0:3,0:0:0:0:
427,284,44465,1,0,0:0:0:0:
339,236,44636,2,0,P|302:231|267:246,1,72,0|0,0:0|3:0,0:0:0:0:
183,295,44979,1,8,0:3:0:0:
134,207,45150,6,0,P|138:171|158:143,1,72,0|0,0:0|3:0,0:0:0:0:
109,53,45493,2,0,P|142:38|176:41,1,72,0|8,0:0|0:3,0:0:0:0:
273,11,45836,2,0,L|256:155,1,144,0|0,0:0|3:0,0:0:0:0:
330,223,46350,2,0,L|401:213,1,72,8|0,0:3|0:0,0:0:0:0:
454,298,46693,70,0,L|312:318,1,144,0|8,3:0|0:3,0:0:0:0:
220,274,47207,2,0,L|208:344,1,72,0|0,0:0|0:0,0:0:0:0:
101,273,47550,2,0,L|113:343,1,72,0|8,3:0|0:3,0:0:0:0:
161,197,47893,1,0,0:0:0:0:
161,197,48065,6,0,L|156:53,2,144,0|8|0,3:0|0:3|0:0,0:0:0:0:
220,274,48922,1,0,3:0:0:0:
293,205,49093,1,8,0:3:0:0:
388,239,49265,1,0,0:0:0:0:
388,239,49436,70,0,L|459:231,1,72,0|0,3:0|0:0,0:0:0:0:
497,137,49779,1,8,0:3:0:0:
427,64,49950,1,0,0:0:0:0:
427,64,50122,2,0,P|389:58|358:69,1,72,0|0,0:0|3:0,0:0:0:0:
281,135,50465,1,8,0:3:0:0:
263,36,50636,1,0,0:0:0:0:
281,135,50807,6,0,L|301:282,1,144,0|8,3:0|0:3,0:0:0:0:
209,323,51322,2,0,L|189:180,1,144,0|0,0:0|3:0,0:0:0:0:
97,139,51836,2,0,P|63:143|25:132,1,72,8|0,0:3|0:0,0:0:0:0:
6,33,52179,70,0,L|149:27,1,144,0|8,3:0|0:3,0:0:0:0:
229,89,52693,2,0,P|219:123|228:162,1,72,0|0,0:0|0:0,0:0:0:0:
327,162,53036,2,0,P|337:128|328:89,1,72,0|8,3:0|0:3,0:0:0:0:
282,3,53379,1,0,0:0:0:0:
330,93,53550,6,0,L|473:79,2,144,0|8|0,3:0|0:3|0:0,0:0:0:0:
260,166,54407,1,0,3:0:0:0:
350,211,54579,1,8,0:3:0:0:
300,298,54750,1,0,0:0:0:0:
300,298,54922,70,0,B|250:291|250:291|206:306|206:306|159:299,1,144,4|8,3:2|0:3,0:0:0:0:
70,250,55436,1,0,0:0:0:0:
70,250,55607,2,0,P|56:286|61:322,1,72,0|0,0:0|3:0,0:0:0:0:
159,299,55950,1,8,0:3:0:0:
155,197,56122,6,0,L|151:126,1,72,0|0,0:0|3:0,0:0:0:0:
246,92,56465,2,0,L|250:163,1,72,0|8,0:0|0:3,0:0:0:0:
332,221,56807,2,0,L|479:204,1,144,0|0,0:0|3:0,0:0:0:0:
408,127,57322,1,8,0:3:0:0:
464,43,57493,1,0,0:0:0:0:
363,36,57665,70,0,L|291:44,1,72,0|0,3:0|0:0,0:0:0:0:
221,116,58007,1,8,0:3:0:0:
221,116,58179,2,0,L|149:107,1,72,0|0,0:0|0:0,0:0:0:0:
61,158,58522,2,0,P|50:193|56:228,1,72,0|8,3:0|0:3,0:0:0:0:
141,281,58865,1,0,0:0:0:0:
229,232,59036,6,0,P|265:227|319:307,1,144,0|8,3:0|0:3,0:0:0:0:
239,368,59550,2,0,B|190:357|190:357|145:369|145:369|96:361,1,144,0|0,0:0|3:0,0:0:0:0:
33,282,60065,2,0,P|35:246|51:215,1,72,8|0,0:3|0:0,0:0:0:0:
2,127,60407,70,0,L|145:118,1,144,0|8,3:0|0:3,0:0:0:0:
223,52,60922,2,0,P|261:56|290:78,1,72,0|0,0:0|0:0,0:0:0:0:
375,25,61265,2,0,P|390:59|385:96,1,72,0|8,3:0|0:3,0:0:0:0:
464,174,61607,1,0,0:0:0:0:
464,174,61779,6,0,L|321:165,1,144,0|8,3:0|0:3,0:0:0:0:
243,230,62293,1,0,0:0:0:0:
318,297,62465,1,0,0:0:0:0:
318,297,62636,2,0,L|391:292,1,72,0|8,3:0|0:3,0:0:0:0:
243,369,62979,1,0,0:0:0:0:
243,369,63150,70,0,L|170:364,1,72,0|0,3:0|0:0,0:0:0:0:
103,288,63493,2,0,L|127:147,1,144,8|0,0:3|0:0,0:0:0:0:
66,64,64007,1,0,3:0:0:0:
166,53,64179,2,0,P|203:62|236:55,1,72,8|0,0:3|0:0,0:0:0:0:
273,149,64522,6,0,P|258:181|260:220,1,72,0|0,3:0|0:0,0:0:0:0:
358,236,64865,2,0,P|372:203|371:165,1,72,8|0,0:3|0:0,0:0:0:0:
340,72,65207,1,8,0:3:0:0:
340,72,65293,1,8,0:3:0:0:
340,72,65379,1,0,3:0:0:0:
273,149,65550,2,0,L|201:136,1,72,10|0,0:3|0:0,0:0:0:0:
191,276,65893,70,0,L|177:132,1,144,4|8,3:2|0:3,0:0:0:0:
85,176,66407,2,0,L|92:248,1,72,0|0,3:0|0:0,0:0:0:0:
102,346,66750,1,0,3:0:0:0:
199,384,66922,1,8,0:3:0:0:
280,325,67093,6,0,B|328:320|328:320|373:341|373:341|420:337,1,144,0|0,3:0|3:0,0:0:0:0:
495,269,67607,2,0,P|502:235|492:201,1,72,8|0,0:3|0:0,0:0:0:0:
409,143,67950,1,0,3:0:0:0:
409,143,68122,1,0,3:0:0:0:
317,184,68293,2,0,L|246:179,1,72,8|0,0:3|0:0,0:0:0:0:
177,104,68636,70,0,P|179:69|272:41,1,144,0|8,3:0|0:3,0:0:0:0:
335,114,69150,2,0,P|324:147|316:186,1,72,0|0,0:0|3:0,0:0:0:0:
242,252,69493,2,0,P|253:284|261:323,1,72,0|8,3:0|0:3,0:0:0:0:
354,360,69836,6,0,P|394:364|434:280,1,144,0|0,3:0|3:0,0:0:0:0:
447,182,70350,2,0,L|457:110,1,72,8|0,0:3|0:0,0:0:0:0:
373,52,70693,2,0,L|363:124,1,72,0|0,3:0|3:0,0:0:0:0:
271,167,71036,2,0,L|164:152,1,108,8|0,0:3|0:0,0:0:0:0:
164,152,71379,70,0,L|176:295,1,144,0|8,3:0|0:3,0:0:0:0:
81,332,71893,2,0,L|69:189,1,144,0|0,0:0|3:0,0:0:0:0:
19,100,72407,2,0,P|45:76|80:69,1,72,8|0,0:3|0:0,0:0:0:0:
170,22,72750,6,0,B|206:43|206:43|307:28,1,144,0|8,3:0|0:3,0:0:0:0:
389,88,73265,1,0,0:0:0:0:
389,88,73436,2,0,P|377:121|378:159,1,72,0|0,0:0|3:0,0:0:0:0:
277,167,73779,2,0,P|286:200|308:231,1,72,8|0,0:3|0:0,0:0:0:0:
400,312,74122,70,0,L|393:166,2,144,0|8|0,3:0|0:3|0:0,0:0:0:0:
319,373,74979,1,0,3:0:0:0:
240,310,75150,2,0,P|204:305|168:318,1,72,8|0,0:3|0:0,0:0:0:0:
77,278,75493,6,0,L|97:132,1,144,0|8,3:0|0:3,0:0:0:0:
34,55,76007,2,0,P|61:17|155:28,1,144,0|0,0:0|3:0,0:0:0:0:
195,114,76522,2,0,L|301:94,1,108,8|0,0:3|0:0,0:0:0:0:
301,93,76865,37,0,3:0:0:0:
301,93,77207,1,8,3:2:0:0:
355,237,77550,5,0,3:0:0:0:
355,237,77892,1,8,3:2:0:0:
211,291,78236,69,0,3:0:0:0:
211,291,78578,1,8,3:2:0:0:
157,147,78922,5,0,3:0:0:0:
157,147,79264,1,8,3:2:0:0:
301,93,79607,70,0,L|372:101,1,72,0|0,3:0|3:0,0:0:0:0:
389,200,79950,2,0,L|318:192,1,72,8|0,3:2|3:0,0:0:0:0:
317,294,80293,5,0,3:0:0:0:
221,323,80465,1,0,3:0:0:0:
161,242,80636,1,8,3:2:0:0:
221,160,80807,1,0,3:0:0:0:
161,79,80979,70,0,L|168:44,3,36,0|0|0|0,3:0|3:0|3:0|3:0,0:0:0:0:
96,124,81322,2,0,L|76:94,3,36,0|0|0|0,3:0|3:0|3:0|3:0,0:0:0:0:
81,201,81665,2,0,L|46:193,3,36,8|8|0|0,0:3|0:3|3:0|3:0,0:0:0:0:
108,284,82007,1,10,0:3:0:0:
108,284,82093,1,0,3:0:0:0:
108,284,82179,1,8,0:3:0:0:
207,269,82350,54,0,L|350:253,1,144,4|8,3:2|0:3,0:0:0:0:
376,156,82865,2,0,L|388:84,1,72,0|0,3:0|0:0,0:0:0:0:
276,32,83207,2,0,L|288:104,1,72,0|8,3:0|0:3,0:0:0:0:
208,166,83550,1,0,0:0:0:0:
116,120,83722,6,0,P|72:112|28:196,1,144,0|8,3:0|0:3,0:0:0:0:
72,276,84236,2,0,B|120:270|120:270|164:288|164:288|212:281,1,144,0|2,3:0|3:2,0:0:0:0:
300,332,84750,1,8,0:3:0:0:
300,332,84836,1,0,0:0:0:0:
300,332,84922,1,0,0:0:0:0:
372,260,85093,70,0,P|377:222|363:188,1,72,0|0,3:0|0:0,0:0:0:0:
284,128,85436,1,8,0:3:0:0:
200,188,85607,2,0,L|128:180,1,72,0|0,3:0|0:0,0:0:0:0:
81,285,85950,2,0,L|153:277,1,72,0|8,3:0|0:3,0:0:0:0:
236,334,86293,1,0,0:0:0:0:
281,243,86465,6,0,B|299:195|299:195|273:107,1,144,0|8,3:0|0:3,0:0:0:0:
339,30,86979,2,0,P|374:21|414:32,1,72,0|0,3:0|0:0,0:0:0:0:
472,106,87322,1,0,3:0:0:0:
472,106,87407,1,2,0:0:0:0:
472,106,87493,2,0,L|461:177,1,72,8|2,0:3|0:0,0:0:0:0:
365,210,87836,70,0,B|295:180|295:240|227:208,1,144,0|8,3:0|0:3,0:0:0:0:
227,208,88522,1,0,3:0:0:0:
143,264,88693,1,0,3:0:0:0:
135,163,88865,2,0,L|129:91,1,72,8|0,0:3|0:0,0:0:0:0:
238,64,89207,6,0,L|226:208,1,144,0|8,3:0|0:3,0:0:0:0:
304,273,89722,2,0,B|352:266|352:266|396:281|396:281|444:274,1,144,0|0,3:0|3:0,0:0:0:0:
499,188,90236,1,8,0:3:0:0:
499,188,90407,1,0,0:0:0:0:
420,123,90579,70,0,L|430:51,1,72,0|0,3:0|0:0,0:0:0:0:
331,73,90922,2,0,L|321:145,1,72,8|0,0:3|0:0,0:0:0:0:
198,102,91265,6,0,L|208:30,1,72,0|0,3:0|3:0,0:0:0:0:
109,52,91608,2,0,L|99:124,1,72,8|0,0:3|0:0,0:0:0:0:
166,197,91950,69,0,3:0:0:0:
166,197,92122,1,0,3:0:0:0:
75,239,92293,1,8,0:3:0:0:
88,339,92465,1,0,3:0:0:0:
186,359,92636,1,8,0:3:0:0:
186,359,92722,1,8,0:3:0:0:
186,359,92807,1,0,3:0:0:0:
236,271,92979,2,0,B|309:279|308:279,1,72,10|0,0:3|0:0,0:0:0:0:
389,219,93322,6,0,P|382:158|311:131,1,144,4|8,3:2|0:3,0:0:0:0:
222,178,93836,2,0,B|172:173|172:173|128:188|128:188|79:182,1,144,0|0,3:0|3:0,0:0:0:0:
13,107,94350,1,8,0:3:0:0:
57,16,94522,1,0,0:0:0:0:
152,46,94693,70,0,L|294:27,1,144,0|8,3:0|0:3,0:0:0:0:
383,76,95207,2,0,P|397:109|394:144,1,72,0|2,3:0|0:0,0:0:0:0:
321,215,95550,1,2,3:2:0:0:
221,196,95722,1,8,0:3:0:0:
221,196,95807,1,0,0:0:0:0:
221,196,95893,1,0,0:0:0:0:
142,259,96065,6,0,P|133:295|140:328,1,72,0|0,3:0|0:0,0:0:0:0:
233,365,96407,1,8,0:3:0:0:
233,365,96579,2,0,L|305:357,1,72,0|0,3:0|0:0,0:0:0:0:
365,276,96922,2,0,L|293:268,1,72,0|8,3:0|0:3,0:0:0:0:
221,196,97265,1,0,0:0:0:0:
295,128,97436,70,0,P|293:88|205:51,1,144,0|8,3:0|0:3,0:0:0:0:
131,115,97950,2,0,P|134:186|137:258,1,144,0|2,3:2|3:2,0:0:0:0:
140,360,98465,1,8,0:3:0:0:
140,360,98550,1,2,0:0:0:0:
140,360,98636,1,0,0:0:0:0:
226,308,98807,6,0,B|276:303|276:303|320:318|320:318|369:312,1,144,0|8,3:0|0:3,0:0:0:0:
468,302,99322,1,0,3:0:0:0:
405,223,99493,2,0,P|409:188|426:156,1,72,0|0,0:0|3:0,0:0:0:0:
350,87,99836,2,0,P|378:65|412:55,1,72,8|0,0:3|0:0,0:0:0:0:
249,79,100179,70,0,L|103:61,1,144,0|8,3:0|0:3,0:0:0:0:
5,50,100693,1,0,3:0:0:0:
45,142,100865,2,0,P|44:178|26:210,1,72,0|0,0:0|3:0,0:0:0:0:
102,279,101208,2,0,P|74:303|39:315,1,72,8|0,0:3|0:0,0:0:0:0:
191,231,101550,6,0,L|335:244,2,144,0|8|0,3:0|0:3|3:0,0:0:0:0:
127,152,102407,1,0,3:0:0:0:
183,68,102579,2,0,P|219:63|253:74,1,72,8|0,0:3|0:0,0:0:0:0:
323,145,102922,69,0,3:0:0:0:
323,145,103093,1,0,3:0:0:0:
421,116,103265,1,8,0:3:0:0:
479,199,103436,1,0,3:0:0:0:
419,279,103608,1,8,0:3:0:0:
419,279,103693,1,8,0:3:0:0:
419,279,103779,1,0,3:0:0:0:
323,247,103951,1,8,0:3:0:0:
174,96,104293,5,0,3:0:0:0:
174,96,104636,1,8,3:2:0:0:
352,110,104979,69,0,3:0:0:0:
352,110,105322,1,8,3:2:0:0:
338,288,105665,5,0,3:0:0:0:
338,288,106008,1,8,3:2:0:0:
160,274,106350,69,0,3:0:0:0:
160,274,106693,1,8,3:2:0:0:
174,96,107036,6,0,P|209:87|244:91,1,72,0|0,3:0|3:0,0:0:0:0:
253,191,107379,2,0,P|218:200|183:196,1,72,8|0,3:2|3:0,0:0:0:0:
90,154,107722,69,0,3:0:0:0:
22,227,107893,1,0,3:0:0:0:
71,317,108065,1,8,3:2:0:0:
169,296,108236,1,0,3:0:0:0:
249,356,108407,6,0,L|284:362,3,36,0|0|0|0,3:0|3:0|3:0|3:0,0:0:0:0:
273,282,108750,2,0,L|308:288,3,36,0|0|0|0,3:0|3:0|3:0|3:0,0:0:0:0:
226,217,109093,2,0,L|191:221,3,36,8|8|0|0,0:3|0:3|3:0|3:0,0:0:0:0:
262,149,109436,1,10,0:3:0:0:
262,149,109522,1,0,3:0:0:0:
262,149,109608,1,8,0:3:0:0:
362,154,109779,70,0,L|349:299,1,144,4|8,3:2|0:3,0:0:0:0:
446,269,110293,2,0,L|458:125,1,144,0|0,3:0|3:0,0:0:0:0:
379,62,110807,2,0,B|327:52|327:52|285:65|285:65|237:54,1,144,8|0,0:3|3:0,0:0:0:0:
238,54,111493,6,0,P|253:86|255:122,1,72,8|0,0:3|3:0,0:0:0:0:
354,140,111836,2,0,P|341:173|317:200,1,72,0|0,0:0|3:0,0:0:0:0:
376,282,112179,2,0,P|344:297|308:298,1,72,8|0,0:3|0:0,0:0:0:0:
224,241,112522,70,0,B|154:215|154:277|83:244,1,144,0|8,3:0|0:3,0:0:0:0:
26,162,113036,2,0,P|25:120|121:83,1,144,0|0,3:0|3:0,0:0:0:0:
192,128,113550,2,0,L|263:117,1,72,8|0,0:3|0:0,0:0:0:0:
339,182,113893,6,0,L|314:324,1,144,0|8,3:0|0:3,0:0:0:0:
213,308,114407,2,0,P|177:302|145:313,1,72,0|0,3:0|0:0,0:0:0:0:
56,363,114750,1,0,3:0:0:0:
64,262,114922,2,0,L|70:188,1,72,8|0,0:3|0:0,0:0:0:0:
26,98,115265,70,0,P|36:63|132:42,1,144,0|8,3:0|0:3,0:0:0:0:
178,129,115779,2,0,L|321:111,1,144,0|0,3:0|3:0,0:0:0:0:
414,148,116293,2,0,P|430:180|429:215,1,72,8|0,0:3|0:0,0:0:0:0:
361,290,116636,5,0,3:0:0:0:
261,279,116807,1,0,0:0:0:0:
192,353,116979,1,8,0:3:0:0:
92,342,117150,2,0,L|85:199,1,144,0|0,3:0|3:0,0:0:0:0:
38,107,117665,2,0,P|73:95|107:99,1,72,8|0,0:3|0:0,0:0:0:0:
180,167,118007,70,0,B|226:157|226:157|273:168|273:168|322:160,1,144,0|8,3:0|0:3,0:0:0:0:
393,88,118522,2,0,P|460:100|477:166,1,144,0|0,3:0|3:0,0:0:0:0:
406,238,119036,2,0,L|414:310,1,72,8|0,0:3|0:0,0:0:0:0:
326,360,119379,2,0,L|310:216,1,144,0|8,3:0|0:3,0:0:0:0:
213,188,119893,2,0,P|179:197|121:119,1,144,0|0,3:0|3:0,0:0:0:0:
216,97,120407,2,0,L|320:69,1,108,8|0,0:3|0:0,0:0:0:0:
324,73,120750,6,0,L|308:218,1,144,0|8,3:0|0:3,0:0:0:0:
389,278,121265,2,0,P|423:269|461:277,1,72,0|0,3:0|0:0,0:0:0:0:
427,371,121607,1,0,3:0:0:0:
326,357,121779,2,0,L|181:333,1,144,8|0,0:3|3:0,0:0:0:0:
183,333,122465,70,0,P|170:298|172:262,1,72,8|0,0:3|3:0,0:0:0:0:
74,238,122807,2,0,P|89:204|116:180,1,72,0|0,0:0|3:0,0:0:0:0:
64,93,123150,2,0,P|99:80|135:82,1,72,8|0,0:3|0:0,0:0:0:0:
208,148,123493,6,0,L|353:135,1,144,0|8,3:0|0:3,0:0:0:0:
373,36,124007,2,0,L|229:48,1,144,0|0,3:0|3:0,0:0:0:0:
133,81,124522,1,8,0:3:0:0:
133,81,124693,1,0,0:0:0:0:
208,148,124865,70,0,P|219:182|215:217,1,72,0|0,3:0|0:0,0:0:0:0:
152,296,125207,1,8,0:3:0:0:
152,296,125379,2,0,L|165:370,1,72,0|0,3:0|0:0,0:0:0:0:
265,377,125722,1,0,3:0:0:0:
354,327,125893,2,0,P|366:294|368:254,1,72,8|0,0:3|0:0,0:0:0:0:
293,188,126236,6,0,L|283:42,1,144,0|8,3:0|0:3,0:0:0:0:
381,20,126750,2,0,L|390:163,1,144,0|0,3:0|3:0,0:0:0:0:
480,211,127265,2,0,L|476:284,1,72,8|0,0:3|0:0,0:0:0:0:
388,332,127607,1,0,3:0:0:0:
387,331,127950,70,0,P|352:325|318:334,1,72,8|0,0:3|3:0,0:0:0:0:
295,236,128293,2,0,P|261:248|235:273,1,72,0|0,0:0|3:0,0:0:0:0:
164,201,128636,2,0,P|141:228|131:262,1,72,8|0,0:3|0:0,0:0:0:0:
195,338,128979,6,0,L|187:192,1,144,0|8,3:0|0:3,0:0:0:0:
303,157,129493,2,0,L|295:300,1,144,0|0,3:0|3:0,0:0:0:0:
393,277,130007,2,0,L|396:205,1,72,8|0,0:3|0:0,0:0:0:0:
483,153,130350,69,0,3:0:0:0:
483,153,130522,1,0,3:0:0:0:
462,55,130693,1,8,0:3:0:0:
361,44,130865,1,0,3:0:0:0:
321,136,131036,1,8,0:3:0:0:
321,136,131122,1,8,0:3:0:0:
321,136,131207,1,0,3:0:0:0:
220,124,131379,2,0,L|148:116,1,72,10|0,0:3|0:0,0:0:0:0:
67,177,131722,22,0,L|78:284,1,108.000004119873,6|8,0:0|0:0,0:0:0:0:
88,359,132236,1,2,0:0:0:0:
148,312,132407,2,0,P|201:305|256:301,1,108.000004119873,2|8,0:0|0:0,0:0:0:0:
307,245,132922,2,0,P|340:240|402:293,2,108.000004119873,2|2|2,0:0|0:0|0:0,0:0:0:0:
307,245,134122,1,10,0:0:0:0:
314,169,134293,1,2,0:0:0:0:
322,93,134465,6,0,L|215:77,1,108.000004119873,2|10,0:0|0:0,0:0:0:0:
162,131,134979,2,0,L|179:239,1,108.000004119873,2|2,0:0|0:0,0:0:0:0:
138,302,135493,2,0,L|85:292,1,54.0000020599366,8|2,0:0|0:0,0:0:0:0:
186,363,135836,2,0,L|294:349,1,108.000004119873,0|8,0:0|0:0,0:0:0:0:
442,324,136522,1,0,0:0:0:0:
345,207,136865,1,10,0:0:0:0:
345,207,137036,1,2,0:0:0:0:
354,132,137207,70,0,L|368:25,1,108.000004119873,2|8,0:0|0:0,0:0:0:0:
291,24,137722,1,2,0:0:0:0:
291,24,137893,2,0,L|277:131,1,108.000004119873,2|10,0:0|0:0,0:0:0:0:
202,146,138407,1,2,0:0:0:0:
202,146,138579,2,0,P|158:123|98:140,1,108.000004119873,0|8,0:0|0:0,0:0:0:0:
53,192,139093,2,0,L|66:299,1,108.000004119873
77,374,139607,1,10,0:0:0:0:
215,312,139950,6,0,P|249:309|304:357,1,108.000004119873,2|10,0:0|0:0,0:0:0:0:
368,315,140465,2,0,P|359:260|352:204,1,108.000004119873,2|2,0:0|0:0,0:0:0:0:
309,145,140979,2,0,L|310:92,1,54.0000020599366,8|2,0:0|0:0,0:0:0:0:
254,39,141322,2,0,P|200:31|144:70,1,108.000004119873,0|8,0:0|0:0,0:0:0:0:
216,111,141836,2,0,B|231:220,1,108.000004119873,0|0,0:0|3:0,0:0:0:0:
247,317,142350,1,10,0:3:0:0:
324,252,142522,1,0,3:0:0:0:
414,295,142693,6,0,L|488:288,1,72,4|0,3:2|0:0,0:0:0:0:
503,188,143036,1,8,0:3:0:0:
439,109,143207,1,0,0:0:0:0:
439,109,143379,2,0,L|367:102,1,72,0|0,0:0|3:0,0:0:0:0:
274,62,143722,1,8,0:3:0:0:
200,130,143893,6,0,P|186:162|189:200,1,72,0|0,0:0|3:0,0:0:0:0:
91,225,144236,2,0,P|103:257|132:282,1,72,0|8,0:0|0:3,0:0:0:0:
231,289,144579,2,0,L|375:275,1,144,0|0,0:0|3:0,0:0:0:0:
426,188,145093,1,8,0:3:0:0:
426,188,145265,1,0,0:0:0:0:
348,123,145436,70,0,P|311:118|278:128,1,72,0|0,3:0|0:0,0:0:0:0:
187,174,145779,1,8,0:3:0:0:
198,74,145950,2,0,L|203:2,1,72,0|0,0:0|0:0,0:0:0:0:
110,42,146293,2,0,L|105:114,1,72,0|8,3:0|0:3,0:0:0:0:
187,174,146636,1,0,0:0:0:0:
98,220,146807,6,0,B|148:214|148:214|189:234|189:234|238:229,1,144,0|8,3:0|0:3,0:0:0:0:
327,275,147322,2,0,P|374:284|426:207,1,144,0|0,0:0|3:0,0:0:0:0:
357,142,147836,2,0,L|286:148,1,72,8|0,0:3|0:0,0:0:0:0:
240,57,148179,70,0,L|386:45,1,144,0|8,3:0|0:3,0:0:0:0:
463,107,148693,2,0,P|473:141|466:177,1,72,0|0,0:0|0:0,0:0:0:0:
421,266,149036,2,0,P|396:291|361:303,1,72,0|8,3:0|0:3,0:0:0:0:
262,289,149379,1,0,0:0:0:0:
211,202,149550,6,0,P|142:193|93:244,1,144,0|8,3:0|0:3,0:0:0:0:
122,340,150065,1,0,0:0:0:0:
217,308,150236,1,0,0:0:0:0:
217,308,150407,2,0,P|212:343|219:378,1,72,0|8,3:0|0:3,0:0:0:0:
320,372,150750,1,0,0:0:0:0:
320,372,150921,70,0,P|325:337|318:302,1,72,0|0,3:0|0:0,0:0:0:0:
368,213,151265,2,0,L|512:222,1,144,8|0,0:3|0:0,0:0:0:0:
480,125,151779,1,0,3:0:0:0:
480,125,151950,2,0,L|408:120,1,72,8|0,0:3|0:0,0:0:0:0:
335,50,152293,6,0,P|300:39|232:110,2,144,0|8|0,3:0|0:3|0:0,0:0:0:0:
408,120,153150,1,0,3:0:0:0:
368,213,153322,2,0,L|297:204,1,72,10|0,0:3|0:0,0:0:0:0:
291,345,153665,70,0,L|274:201,1,144,4|8,3:2|0:3,0:0:0:0:
283,101,154179,2,0,P|245:101|215:118,1,72,0|0,3:0|0:0,0:0:0:0:
153,38,154522,2,0,P|126:64|116:98,1,72,0|8,3:0|0:3,0:0:0:0:
12,187,154865,6,0,B|64:177|64:177|106:190|106:190|154:179,1,144,0|0,3:0|3:0,0:0:0:0:
240,228,155379,2,0,L|228:298,1,72,8|0,0:3|0:0,0:0:0:0:
303,366,155722,1,0,3:0:0:0:
303,366,155893,1,0,3:0:0:0:
374,294,156065,2,0,P|412:288|443:301,1,72,8|0,0:3|0:0,0:0:0:0:
435,200,156407,70,0,L|424:55,1,144,0|8,3:0|0:3,0:0:0:0:
323,70,156922,2,0,P|284:72|254:59,1,72,0|0,0:0|3:0,0:0:0:0:
173,119,157265,2,0,P|178:149|182:190,1,72,0|8,3:0|0:3,0:0:0:0:
282,186,157607,6,0,P|269:256|259:329,1,144,0|0,3:0|3:0,0:0:0:0:
162,360,158122,2,0,P|126:361|92:348,1,72,8|0,0:3|0:0,0:0:0:0:
38,262,158465,1,0,3:0:0:0:
38,262,158636,1,0,3:0:0:0:
99,182,158807,2,0,P|91:128|83:74,1,108,8|0,0:3|0:0,0:0:0:0:
83,75,159150,70,0,P|135:86|195:26,1,144,0|8,3:0|0:3,0:0:0:0:
296,22,159665,2,0,P|288:94|283:169,1,144,0|0,0:0|3:0,0:0:0:0:
356,234,160179,2,0,L|428:224,1,72,8|0,0:3|0:0,0:0:0:0:
303,316,160522,6,0,L|159:306,1,144,0|8,3:0|0:3,0:0:0:0:
68,350,161036,1,0,0:0:0:0:
14,264,161207,2,0,P|44:246|81:244,1,72,0|0,0:0|3:0,0:0:0:0:
146,167,161550,2,0,L|136:96,1,72,8|0,0:3|0:0,0:0:0:0:
225,48,161893,70,0,L|245:190,2,144,0|8|0,3:0|0:3|0:0,0:0:0:0:
317,6,162750,1,0,3:0:0:0:
411,41,162922,2,0,P|425:75|421:115,1,72,8|0,0:3|0:0,0:0:0:0:
496,196,163265,6,0,L|350:183,1,144,0|8,3:0|0:3,0:0:0:0:
292,264,163779,2,0,P|262:325|194:323,1,144,0|0,0:0|3:0,0:0:0:0:
140,240,164293,2,0,P|150:186|160:132,1,108,8|0,0:3|0:0,0:0:0:0:
159,133,164636,37,0,3:0:0:0:
159,133,164979,1,8,3:2:0:0:
314,95,165322,5,0,3:0:0:0:
314,95,165665,1,8,3:2:0:0:
352,250,166007,69,0,3:0:0:0:
352,250,166350,1,8,3:2:0:0:
197,288,166693,5,0,3:0:0:0:
197,288,167036,1,8,3:2:0:0:
159,133,167379,70,0,L|230:126,1,72,0|0,3:0|3:0,0:0:0:0:
310,188,167722,2,0,L|381:181,1,72,8|0,3:2|3:0,0:0:0:0:
479,203,168065,5,0,3:0:0:0:
487,306,168236,1,0,3:0:0:0:
393,342,168407,1,8,3:2:0:0:
328,265,168579,1,0,3:0:0:0:
234,301,168750,70,0,L|197:316,3,36,0|0|0|0,3:0|3:0|3:0|3:0,0:0:0:0:
185,236,169093,2,0,L|145:230,3,36,0|0|0|0,3:0|3:0|3:0|3:0,0:0:0:0:
175,155,169436,2,0,L|143:130,3,36,8|8|0|0,0:3|0:3|3:0|3:0,0:0:0:0:
206,79,169779,1,10,0:3:0:0:
206,79,169865,1,0,3:0:0:0:
206,79,169950,1,8,0:3:0:0:
299,117,170122,54,0,L|443:103,1,144,4|8,3:2|0:3,0:0:0:0:
429,203,170636,2,0,L|420:274,1,72,0|0,3:0|0:0,0:0:0:0:
330,332,170979,2,0,L|321:260,1,72,0|8,3:0|0:3,0:0:0:0:
234,207,171322,1,0,0:0:0:0:
165,280,171493,6,0,B|115:271|115:271|72:285|72:285|22:275,1,144,0|8,3:0|0:3,0:0:0:0:
2,177,172007,2,0,P|17:135|108:127,1,144,0|2,3:0|3:2,0:0:0:0:
185,62,172522,1,8,0:3:0:0:
185,62,172607,1,0,0:0:0:0:
185,62,172693,1,0,0:0:0:0:
270,115,172865,70,0,P|261:188|253:262,1,144,0|8,3:0|0:3,0:0:0:0:
331,322,173379,2,0,L|402:311,1,72,0|0,3:0|0:0,0:0:0:0:
475,241,173722,2,0,P|476:205|461:172,1,72,0|8,3:0|0:3,0:0:0:0:
369,131,174065,1,0,0:0:0:0:
282,182,174236,6,0,L|139:173,1,144,0|8,3:0|0:3,0:0:0:0:
58,234,174750,2,0,P|46:268|48:304,1,72,0|0,3:0|0:0,0:0:0:0:
133,356,175093,1,0,3:0:0:0:
133,356,175179,1,2,0:0:0:0:
133,356,175265,1,8,0:3:0:0:
198,279,175436,1,2,0:0:0:0:
285,328,175607,70,0,B|353:296|353:356|423:326,1,144,0|8,3:0|0:3,0:0:0:0:
423,325,176293,1,0,3:0:0:0:
479,242,176464,1,0,3:0:0:0:
400,178,176636,2,0,L|406:106,1,72,8|0,0:3|0:0,0:0:0:0:
294,73,176979,6,0,L|305:217,1,144,0|8,3:0|0:3,0:0:0:0:
211,255,177493,2,0,P|161:243|99:307,1,144,0|0,3:0|3:0,0:0:0:0:
168,376,178007,1,8,0:3:0:0:
168,376,178179,1,0,0:0:0:0:
267,360,178350,70,0,L|338:351,1,72,0|0,3:0|0:0,0:0:0:0:
359,252,178693,2,0,L|288:261,1,72,8|0,0:3|0:0,0:0:0:0:
188,176,179036,6,0,L|259:167,1,72,0|0,3:0|3:0,0:0:0:0:
280,68,179379,2,0,L|209:77,1,72,8|0,0:3|0:0,0:0:0:0:
130,12,179722,69,0,3:0:0:0:
130,12,179893,1,0,3:0:0:0:
44,68,180065,1,8,0:3:0:0:
71,166,180236,1,0,3:0:0:0:
173,173,180407,1,8,0:3:0:0:
173,173,180493,1,8,0:3:0:0:
173,173,180579,1,0,3:0:0:0:
200,271,180750,2,0,L|219:340,1,72,10|0,0:3|0:0,0:0:0:0:
320,344,181093,6,0,L|332:199,1,144,4|8,3:2|0:3,0:0:0:0:
414,142,181607,2,0,P|449:154|482:149,1,72,0|0,3:0|0:0,0:0:0:0:
490,47,181950,2,0,P|454:34|421:39,1,72,0|8,3:0|0:3,0:0:0:0:
330,84,182293,1,0,0:0:0:0:
239,39,182465,70,0,L|252:182,1,144,0|8,3:0|0:3,0:0:0:0:
162,228,182979,2,0,P|130:211|94:211,1,72,0|2,3:0|0:0,0:0:0:0:
21,280,183322,1,2,3:2:0:0:
75,364,183493,1,8,0:3:0:0:
74,363,183579,1,0,0:0:0:0:
74,363,183665,1,0,0:0:0:0:
173,348,183836,6,0,L|317:333,1,144,0|8,3:0|0:3,0:0:0:0:
340,234,184350,2,0,L|268:241,1,72,0|0,3:0|0:0,0:0:0:0:
183,186,184693,2,0,P|171:151|176:116,1,72,0|8,3:0|0:3,0:0:0:0:
215,24,185036,1,0,0:0:0:0:
283,96,185207,70,0,L|268:240,1,144,0|8,3:0|0:3,0:0:0:0:
363,274,185722,2,0,L|378:130,1,144,0|2,3:0|3:2,0:0:0:0:
361,31,186236,1,8,0:3:0:0:
361,31,186322,1,2,0:0:0:0:
361,31,186407,1,2,0:0:0:0:
283,96,186579,6,0,L|140:80,1,144,0|8,3:0|0:3,0:0:0:0:
38,73,187093,1,0,3:0:0:0:
84,162,187265,2,0,P|92:198|87:235,1,72,0|0,0:0|3:0,0:0:0:0:
180,267,187607,2,0,P|161:297|133:319,1,72,8|0,0:3|0:0,0:0:0:0:
281,260,187950,70,0,L|426:254,1,144,0|8,3:0|0:3,0:0:0:0:
481,169,188465,1,0,3:0:0:0:
410,96,188636,2,0,P|370:89|339:98,1,72,0|0,0:0|3:0,0:0:0:0:
293,7,188979,2,0,P|259:30|244:58,1,72,8|0,0:3|0:0,0:0:0:0:
118,12,189322,6,0,L|136:158,1,144,0|8,3:0|0:3,0:0:0:0:
135,154,190007,1,0,3:0:0:0:
150,253,190179,1,0,3:0:0:0:
229,192,190350,2,0,L|301:200,1,72,8|0,0:3|0:0,0:0:0:0:
400,180,190693,69,0,3:0:0:0:
400,180,190865,1,0,3:0:0:0:
449,268,191036,1,8,0:3:0:0:
380,342,191207,1,0,3:0:0:0:
288,301,191379,1,8,0:3:0:0:
288,301,191465,1,8,0:3:0:0:
288,301,191550,1,0,3:0:0:0:
300,199,191722,2,0,L|313:90,1,108,8|0,0:3|0:0,0:0:0:0:
313,92,192065,6,0,B|262:84|262:84|220:100|220:100|169:91,1,144,0|8,3:0|0:3,0:0:0:0:
92,31,192579,2,0,P|54:29|12:121,1,144,0|0,3:0|3:0,0:0:0:0:
95,161,193093,2,0,P|106:195|101:233,1,72,8|0,0:3|0:0,0:0:0:0:
3,255,193436,70,0,L|146:241,1,144,0|8,3:0|0:3,0:0:0:0:
235,291,193950,2,0,L|227:364,1,72,0|0,3:0|0:0,0:0:0:0:
326,346,194293,2,0,L|333:274,1,72,0|8,3:0|0:3,0:0:0:0:
269,196,194636,1,0,0:0:0:0:
308,103,194807,6,0,B|261:96|261:96|215:113|215:113|165:107,1,144,0|8,3:0|0:3,0:0:0:0:
74,146,195322,2,0,P|60:179|61:215,1,72,0|0,3:0|0:0,0:0:0:0:
140,277,195665,1,0,3:0:0:0:
223,221,195836,2,0,L|294:211,1,72,8|0,0:3|0:0,0:0:0:0:
378,154,196179,70,0,P|416:151|470:233,1,144,0|8,3:0|0:3,0:0:0:0:
412,312,196693,2,0,L|341:302,1,72,0|0,3:0|0:0,0:0:0:0:
256,357,197036,1,0,3:0:0:0:
193,277,197207,2,0,P|194:240|210:208,1,72,10|0,0:3|0:0,0:0:0:0:
128,127,197550,6,0,L|271:115,1,144,4|8,3:2|0:3,0:0:0:0:
222,26,198065,2,0,L|78:37,1,144,0|0,3:0|3:0,0:0:0:0:
27,125,198579,2,0,P|35:162|39:197,1,72,8|0,0:3|0:0,0:0:0:0:
16,294,198922,69,0,3:0:0:0:
78,370,199093,1,0,0:0:0:0:
175,369,199265,1,8,0:3:0:0:
249,301,199436,2,0,L|392:315,1,144,0|0,3:0|3:0,0:0:0:0:
460,240,199950,1,8,0:3:0:0:
419,147,200122,1,0,0:0:0:0:
419,147,200293,6,0,B|350:123|350:178|280:143,1,144,0|8,3:0|0:3,0:0:0:0:
193,90,200807,2,0,P|178:122|179:161,1,72,0|0,3:0|0:0,0:0:0:0:
79,181,201150,2,0,P|91:214|119:241,1,72,0|8,3:0|0:3,0:0:0:0:
217,252,201493,1,0,0:0:0:0:
217,252,201665,70,0,P|259:239|322:308,1,144,0|8,3:0|0:3,0:0:0:0:
256,380,202179,1,0,3:0:0:0:
256,380,202350,2,0,L|185:373,1,72,0|0,0:0|3:0,0:0:0:0:
92,330,202693,2,0,P|56:336|28:360,1,72,8|0,0:3|0:0,0:0:0:0:
5,259,203036,6,0,P|15:214|34:116,1,144,0|8,3:0|0:3,0:0:0:0:
120,66,203550,2,0,P|166:60|223:131,1,144,0|0,3:0|3:0,0:0:0:0:
160,209,204065,1,8,0:3:0:0:
210,295,204236,1,0,0:0:0:0:
310,284,204407,70,0,L|453:270,1,144,0|8,3:0|0:3,0:0:0:0:
483,172,204922,2,0,L|340:186,1,144,0|0,3:0|3:0,0:0:0:0:
246,145,205436,2,0,P|236:111|242:74,1,72,8|0,0:3|0:0,0:0:0:0:
352,42,205779,6,0,L|338:194,1,144,0|8,3:0|0:3,0:0:0:0:
256,243,206293,1,0,3:0:0:0:
256,243,206465,2,0,L|264:315,1,72,0|0,0:0|3:0,0:0:0:0:
172,356,206807,2,0,L|164:284,1,72,8|0,0:3|0:0,0:0:0:0:
84,221,207150,70,0,P|75:186|151:131,1,144,0|8,3:0|0:3,0:0:0:0:
250,151,207665,1,0,3:0:0:0:
250,151,207836,2,0,L|321:139,1,72,0|0,0:0|3:0,0:0:0:0:
380,244,208179,2,0,L|309:232,1,72,8|0,0:3|0:0,0:0:0:0:
250,314,208522,5,0,3:0:0:0:
154,283,208693,1,0,0:0:0:0:
154,182,208865,1,8,0:3:0:0:
250,151,209036,2,0,L|321:139,1,72,0|0,3:0|0:0,0:0:0:0:
416,105,209379,1,0,3:0:0:0:
340,40,209550,2,0,L|269:52,1,72,8|0,0:3|0:0,0:0:0:0:
173,85,209893,70,0,P|139:76|67:148,1,144,0|8,3:0|0:3,0:0:0:0:
136,216,210407,2,0,P|141:254|150:362,1,144,0|0,3:0|3:0,0:0:0:0:
248,383,210922,1,8,0:3:0:0:
325,319,211093,1,0,0:0:0:0:
315,218,211265,6,0,P|317:181|416:147,1,144,0|8,3:0|0:3,0:0:0:0:
476,210,211779,2,0,P|468:280|463:356,1,144,0|0,3:0|3:0,0:0:0:0:
364,374,212293,2,0,P|286:358|254:353,1,108,8|0,0:3|0:0,0:0:0:0:
257,353,212636,70,0,P|246:313|320:257,1,144,0|8,3:0|0:3,0:0:0:0:
325,155,213150,1,0,3:0:0:0:
325,155,213322,2,0,L|307:83,1,72,0|0,0:0|3:0,0:0:0:0:
210,56,213665,2,0,L|226:125,1,72,8|0,0:3|0:0,0:0:0:0:
130,157,214007,5,0,3:0:0:0:
256,192,214179,12,10,219150,0:3:0:0:
130,157,219493,5,4,0:0:0:0:
209,94,219665,2,0,P|210:59|214:20,2,72,2|8|0,0:0|0:0|0:0,0:0:0:0:
295,146,220179,2,0,P|330:136|366:139,1,72,2|0,0:0|0:0,0:0:0:0:
463,164,220522,1,10,0:0:0:0:
396,239,220693,1,0,0:0:0:0:
396,239,220779,1,2,0:0:0:0:
396,239,220865,6,0,L|403:313,1,72,0|2,0:0|0:0,0:0:0:0:
302,319,221207,2,0,L|267:325,3,36,10|2|0|0,0:0|0:0|0:0|0:0,0:0:0:0:
300,242,221550,2,0,L|228:235,1,72,2|2,0:0|0:0,0:0:0:0:
141,286,221893,1,10,0:0:0:0:
65,218,222065,1,2,0:0:0:0:
152,169,222236,70,0,L|158:94,2,72,0|0|10,0:0|0:0|0:0,0:0:0:0:
65,218,222750,1,2,0:0:0:0:
141,286,222922,1,0,0:0:0:0:
141,286,223007,1,2,0:0:0:0:
141,286,223093,1,0,0:0:0:0:
228,235,223265,2,0,L|300:242,1,72,10|0,0:0|0:0,0:0:0:0:
373,310,223607,5,2,0:0:0:0:
373,310,223779,1,2,0:0:0:0:
387,211,223950,2,0,L|398:140,1,72,10|2,0:0|0:0,0:0:0:0:
335,60,224293,1,2,0:0:0:0:
335,60,224379,1,0,0:0:0:0:
335,60,224465,2,0,L|332:25,2,36,2|2|8,0:0|0:0|0:0,0:0:0:0:
254,120,224807,1,0,0:0:0:0:
156,94,224979,70,0,L|164:165,1,72,2|0,0:0|0:0,0:0:0:0:
178,265,225322,2,0,L|186:336,1,72,8|0,0:0|0:0,0:0:0:0:
281,370,225665,1,2,0:0:0:0:
281,370,225750,1,2,0:0:0:0:
281,370,225836,1,0,0:0:0:0:
357,304,226007,2,0,L|428:311,1,72,8|2,0:0|0:0,0:0:0:0:
477,211,226350,6,0,L|406:218,1,72,0|2,0:0|0:0,0:0:0:0:
328,152,226693,2,0,L|333:114,2,36,8|0|0,0:0|0:0|0:0,0:0:0:0:
237,196,227036,1,0,0:0:0:0:
142,162,227207,1,2,0:0:0:0:
80,242,227379,2,0,L|43:239,3,36,8|0|2|2,0:0|0:0|0:0|0:0,0:0:0:0:
132,296,227722,70,0,L|203:287,1,72,2|0,0:0|0:0,0:0:0:0:
294,335,228065,2,0,L|290:371,2,36,8|0|0,0:0|0:0|0:0,0:0:0:0:
377,274,228407,1,2,0:0:0:0:
377,274,228493,1,2,0:0:0:0:
377,274,228579,2,0,L|373:238,2,36,0|2|8,0:0|0:0|0:0,0:0:0:0:
287,226,228922,1,2,0:0:0:0:
360,157,229093,5,0,0:0:0:0:
287,86,229265,1,0,0:0:0:0:
287,86,229350,1,0,0:0:0:0:
287,86,229436,2,0,L|279:49,2,36,10|2|0,0:0|0:0|0:0,0:0:0:0:
205,145,229779,1,2,0:0:0:0:
145,63,229950,1,0,3:0:0:0:
49,94,230122,1,10,0:3:0:0:
49,195,230293,1,2,3:2:0:0:
145,226,230465,6,0,L|137:305,1,79.2000024169923,4|0,3:2|0:0,0:0:0:0:
238,348,230807,2,0,L|246:269,1,79.2000024169923,8|0,0:3|0:0,0:0:0:0:
334,201,231150,1,0,0:0:0:0:
432,253,231322,1,0,3:0:0:0:
428,142,231493,1,8,0:3:0:0:
334,201,231665,1,0,0:0:0:0:
334,201,231750,1,0,0:0:0:0:
334,201,231836,22,0,L|250:187,1,79.2000024169923,0|0,3:0|0:0,0:0:0:0:
157,135,232179,2,0,L|118:138,3,39.6000012084961,8|0|0|0,0:3|0:0|0:0|0:0,0:0:0:0:
199,69,232522,2,0,P|236:54|276:59,1,79.2000024169923,0|0,0:0|3:2,0:0:0:0:
385,79,232865,1,8,0:3:0:0:
488,42,233036,1,0,0:0:0:0:
471,151,233207,54,0,L|458:229,1,79.2000024169923,0|0,3:0|0:0,0:0:0:0:
357,275,233550,2,0,P|321:259|281:261,1,79.2000024169923,8|0,0:3|0:0,0:0:0:0:
200,336,233893,2,0,L|206:376,2,39.6000012084961,0|0|0,0:0|0:0|3:0,0:0:0:0:
181,226,234236,2,0,L|169:147,1,79.2000024169923,8|0,0:3|0:0,0:0:0:0:
233,57,234579,21,0,3:0:0:0:
233,57,234750,1,0,0:0:0:0:
325,118,234922,2,0,P|364:107|402:112,1,79.2000024169923,8|0,0:3|0:0,0:0:0:0:
504,70,235265,1,0,0:0:0:0:
504,70,235350,1,0,0:0:0:0:
504,70,235436,2,0,L|509:31,2,39.6000012084961,0|0|8,3:0|0:0|0:3,0:0:0:0:
489,180,235779,1,0,0:0:0:0:
474,290,235950,54,0,L|395:277,1,79.2000024169923,0|0,3:0|0:0,0:0:0:0:
301,336,236293,1,8,3:2:0:0:
209,273,236465,1,0,0:0:0:0:
209,273,236550,1,0,0:0:0:0:
209,273,236636,2,0,L|168:281,2,39.6000012084961,0|0|0,3:0|0:0|0:0,0:0:0:0:
304,216,236979,2,0,L|308:134,1,79.2000024169923,8|0,3:2|0:0,0:0:0:0:
224,62,237322,22,0,P|186:53|149:65,1,79.2000024169923,0|0,3:0|0:0,0:0:0:0:
44,25,237665,1,8,3:2:0:0:
61,134,237836,1,0,0:0:0:0:
61,134,237922,1,0,0:0:0:0:
61,134,238007,1,0,3:0:0:0:
78,243,238179,1,0,0:0:0:0:
95,352,238350,2,0,L|56:347,3,39.6000012084961,8|0|0|0,3:2|0:0|0:0|0:0,0:0:0:0:
163,309,238693,54,0,L|241:297,1,79.2000024169923,0|0,3:0|3:0,0:0:0:0:
273,190,239036,2,0,L|195:202,1,79.2000024169923,8|0,3:2|3:0,0:0:0:0:
85,186,239379,21,0,3:0:0:0:
66,77,239550,1,0,3:0:0:0:
163,25,239721,1,8,3:2:0:0:
244,102,239893,1,0,3:0:0:0:
341,50,240065,54,0,L|375:31,3,39.6000012084961,0|0|0|0,3:0|3:0|3:0|3:0,0:0:0:0:
399,107,240407,2,0,L|436:117,3,39.6000012084961,0|0|0|0,3:0|3:0|3:0|3:0,0:0:0:0:
399,188,240750,2,0,L|418:221,3,39.6000012084961,8|8|0|0,0:3|0:3|3:0|3:0,0:0:0:0:
340,245,241093,1,10,0:3:0:0:
340,245,241179,1,0,3:0:0:0:
340,245,241265,1,8,0:3:0:0:
229,233,241436,54,0,L|122:222,1,108.000004119873,6|2,0:0|0:0,0:0:0:0:
81,157,241950,2,0,P|90:121|150:91,1,108.000004119873,2|2,0:0|0:0,0:0:0:0:
288,152,242636,2,0,B|342:144|342:144|392:160|392:160|446:153,1,162.00000617981,2|2,0:0|0:0,0:0:0:0:
486,88,243322,2,0,P|476:59|409:35,1,108.000004119873,2|2,0:0|0:0,0:0:0:0:
288,152,244007,5,2,0:0:0:0:
288,152,244179,2,0,L|303:259,1,108.000004119873,2|2,0:0|0:0,0:0:0:0:
239,299,244693,2,0,L|132:286,1,108.000004119873,2|2,0:0|0:0,0:0:0:0:
23,179,245379,2,0,L|183:198,1,162.00000617981,2|2,0:0|0:0,0:0:0:0:
245,154,246065,2,0,P|250:128|193:71,1,108.000004119873,2|2,0:0|0:0,0:0:0:0:
151,293,246922,70,0,L|258:281,1,108.000004119873,2|0,0:0|0:0,0:0:0:0:
373,183,247607,2,0,L|266:195,1,108.000004119873,2|0,0:0|0:0,0:0:0:0:
136,95,248293,2,0,P|162:62|226:57,1,108.000004119873,2|0,0:0|0:0,0:0:0:0:
273,114,248807,2,0,P|268:167|261:275,1,162.00000617981,2|2,0:0|0:0,0:0:0:0:
317,326,249493,1,2,0:0:0:0:
381,285,249665,6,0,L|488:291,2,108.000004119873,2|2|2,0:0|0:0|0:0,0:0:0:0:
242,346,250693,1,2,0:0:0:0:
218,196,251036,2,0,P|255:157|309:154,1,108.000004119873,2|0,0:0|0:0,0:0:0:0:
459,211,251722,1,2,0:0:0:0:
459,211,252065,1,2,0:0:0:0:
459,211,252407,38,0,L|466:64,1,144,4|8,3:2|0:3,0:0:0:0:
374,22,252922,2,0,L|367:165,1,144,0|0,3:0|3:0,0:0:0:0:
273,203,253436,2,0,P|237:195|203:204,1,72,8|0,0:3|0:0,0:0:0:0:
108,239,253779,6,0,P|71:242|32:157,1,144,0|8,3:0|0:3,0:0:0:0:
109,94,254293,2,0,L|254:103,1,144,0|2,3:0|3:2,0:0:0:0:
342,55,254807,1,8,0:3:0:0:
342,55,254893,1,0,0:0:0:0:
342,55,254979,1,0,0:0:0:0:
338,155,255150,70,0,L|336:298,1,144,0|8,3:0|0:3,0:0:0:0:
241,338,255665,2,0,P|206:331|178:309,1,72,0|0,3:0|0:0,0:0:0:0:
104,377,256007,2,0,P|83:347|79:312,1,72,0|8,3:0|0:3,0:0:0:0:
126,222,256350,1,0,0:0:0:0:
126,222,256522,6,0,L|134:77,1,144,0|8,3:0|0:3,0:0:0:0:
231,51,257036,2,0,L|223:194,1,144,0|2,3:0|3:2,0:0:0:0:
304,254,257550,1,8,0:3:0:0:
304,254,257636,1,2,0:0:0:0:
304,254,257722,1,2,0:0:0:0:
370,178,257893,69,0,3:0:0:0:
370,178,258236,2,0,P|339:160|304:154,1,72,8|0,0:3|3:0,0:0:0:0:
293,53,258579,2,0,P|258:62|229:82,1,72,0|0,0:0|3:0,0:0:0:0:
149,20,258922,2,0,P|130:51|124:85,1,72,8|0,0:3|0:0,0:0:0:0:
180,171,259265,5,0,3:0:0:0:
180,171,259607,2,0,L|109:180,1,72,8|0,0:3|3:0,0:0:0:0:
264,138,259950,2,0,L|193:147,1,72,0|0,0:0|3:0,0:0:0:0:
348,105,260293,2,0,L|277:114,1,72,8|0,0:3|0:0,0:0:0:0:
416,172,260636,70,0,L|394:315,1,144,0|8,3:0|0:3,0:0:0:0:
394,314,261322,1,0,3:0:0:0:
308,366,261493,1,0,3:0:0:0:
242,289,261665,2,0,L|253:217,1,72,8|0,0:3|0:0,0:0:0:0:
187,141,262007,5,2,3:2:0:0:
187,141,262093,1,2,0:0:0:0:
187,141,262179,1,2,0:0:0:0:
91,173,262350,1,8,0:3:0:0:
27,94,262522,2,0,P|30:51|119:14,1,144,0|0,3:0|3:2,0:0:0:0:
207,46,263036,2,0,L|279:36,1,72,8|0,0:3|0:0,0:0:0:0:
363,90,263379,70,0,L|338:238,1,144,0|8,3:0|0:3,0:0:0:0:
320,331,263893,1,0,0:0:0:0:
246,261,264065,1,0,3:0:0:0:
246,261,264236,1,0,3:0:0:0:
155,305,264407,2,0,P|110:299|83:297,1,72,8|0,0:3|0:0,0:0:0:0:
24,214,264750,6,0,P|37:168|124:153,2,144,0|8|0,3:0|0:3|3:0,0:0:0:0:
83,297,265607,1,0,3:0:0:0:
184,288,265779,2,0,L|255:282,1,72,8|0,0:3|0:0,0:0:0:0:
356,275,266122,69,0,3:0:0:0:
356,275,266465,2,0,P|360:240|345:202,1,72,8|0,0:3|0:0,0:0:0:0:
297,120,266808,2,0,P|275:93|237:78,1,72,0|0,3:0|3:0,0:0:0:0:
142,58,267150,2,0,P|108:56|70:73,1,72,8|0,0:3|0:0,0:0:0:0:
55,171,267493,5,0,3:0:0:0:
55,171,267836,2,0,P|76:198|113:215,1,72,8|0,0:3|0:0,0:0:0:0:
206,238,268179,2,0,P|239:241|277:225,1,72,0|0,3:0|3:0,0:0:0:0:
359,173,268522,2,0,P|383:150|398:111,1,72,8|0,0:3|0:0,0:0:0:0:
330,38,268865,70,0,L|186:31,2,144,0|8|0,3:0|0:3|3:0,0:0:0:0:
397,114,269722,1,0,3:0:0:0:
319,177,269893,2,0,P|325:212|316:249,1,72,8|0,0:3|0:0,0:0:0:0:
281,343,270236,5,0,3:0:0:0:
281,343,270407,1,0,3:0:0:0:
179,336,270579,1,8,0:3:0:0:
153,239,270750,1,0,3:0:0:0:
237,184,270922,1,8,0:3:0:0:
237,184,271007,1,8,0:3:0:0:
237,184,271093,1,0,3:0:0:0:
316,247,271265,1,8,0:3:0:0:
362,99,271607,69,0,3:0:0:0:
362,99,271950,1,8,3:2:0:0:
349,298,272293,5,0,3:0:0:0:
349,298,272636,1,8,3:2:0:0:
150,285,272979,69,0,3:0:0:0:
150,285,273322,1,8,3:2:0:0:
163,86,273665,5,0,3:0:0:0:
163,86,274008,1,8,3:2:0:0:
362,99,274350,70,0,L|433:89,1,72,0|0,3:0|3:0,0:0:0:0:
419,189,274693,2,0,L|348:199,1,72,8|0,3:2|3:0,0:0:0:0:
263,142,275036,5,0,3:0:0:0:
184,205,275207,1,0,3:0:0:0:
218,299,275379,1,8,3:2:0:0:
320,297,275550,1,0,3:0:0:0:
347,199,275722,70,0,L|383:204,3,36,0|0|0|0,3:0|3:0|3:0|3:0,0:0:0:0:
284,154,276065,2,0,L|248:159,3,36,0|0|0|0,3:0|3:0|3:0|0:0,0:0:0:0:
347,109,276407,2,0,L|383:114,3,36,8|8|0|0,0:3|0:3|3:0|3:0,0:0:0:0:
284,64,276750,1,10,0:3:0:0:
284,64,276836,1,0,3:0:0:0:
284,64,276922,1,8,0:3:0:0:
188,8,277093,54,0,L|205:167,1,158.400004833985,4|8,3:2|0:3,0:0:0:0:
218,275,277607,1,0,0:0:0:0:
309,211,277779,2,0,P|352:209|386:226,1,79.2000024169923,0|0,0:0|3:0,0:0:0:0:
472,291,278122,1,8,0:3:0:0:
477,180,278293,1,0,0:0:0:0:
477,180,278379,1,0,0:0:0:0:
477,180,278465,21,0,3:0:0:0:
482,69,278636,1,0,0:0:0:0:
383,119,278807,2,0,L|343:110,3,39.6000012084961,8|0|0|0,0:3|0:0|0:0|0:0,0:0:0:0:
345,188,279150,2,0,L|266:197,1,79.2000024169923,0|0,0:0|3:0,0:0:0:0:
169,141,279493,1,8,0:3:0:0:
169,141,279665,1,0,0:0:0:0:
93,222,279836,54,0,P|85:259|100:300,1,79.2000024169923,0|0,3:0|0:0,0:0:0:0:
198,345,280179,1,8,0:3:0:0:
288,281,280350,1,0,0:0:0:0:
390,323,280522,2,0,L|387:363,3,39.6000012084961,0|0|0|0,0:0|0:0|3:0|0:0,0:0:0:0:
449,272,280865,2,0,L|441:192,1,79.2000024169923,8|0,0:3|0:0,0:0:0:0:
428,82,281207,21,0,3:0:0:0:
341,152,281379,1,0,0:0:0:0:
261,75,281550,2,0,L|183:69,1,79.2000024169923,8|0,0:3|0:0,0:0:0:0:
93,135,281893,1,0,0:0:0:0:
93,135,281979,1,0,0:0:0:0:
93,135,282065,2,0,L|51:140,2,39.6000012084961,0|0|8,3:0|0:0|0:3,0:0:0:0:
175,208,282407,1,0,0:0:0:0:
125,307,282579,54,0,L|203:294,1,79.2000024169923,0|0,3:0|0:0,0:0:0:0:
296,354,282922,1,8,0:3:0:0:
304,243,283093,1,0,0:0:0:0:
304,243,283179,1,0,0:0:0:0:
304,243,283265,2,0,L|311:200,2,39.6000012084961,0|0|0,0:0|0:0|3:0,0:0:0:0:
396,303,283607,2,0,L|474:316,1,79.2000024169923,8|0,0:3|0:0,0:0:0:0:
510,210,283950,22,0,P|500:170|468:144,1,79.2000024169923,0|0,3:0|0:0,0:0:0:0:
361,148,284293,1,8,0:3:0:0:
420,53,284465,1,0,0:0:0:0:
420,53,284550,1,0,0:0:0:0:
420,53,284636,2,0,L|424:14,2,39.6000012084961,0|0|0,0:0|0:0|3:0,0:0:0:0:
361,148,284979,2,0,L|365:187,3,39.6000012084961,8|0|0|0,0:3|0:0|0:0|0:0,0:0:0:0:
283,132,285322,54,0,L|277:216,1,79.2000024169923,0|0,3:0|0:0,0:0:0:0:
184,271,285665,1,8,0:3:0:0:
184,271,285750,1,0,0:0:0:0:
184,271,285836,1,0,0:0:0:0:
95,204,286007,2,0,L|56:211,3,39.6000012084961,0|0|0|0,0:0|0:0|3:0|0:0,0:0:0:0:
148,147,286350,22,0,L|153:68,1,79.2000024169923,8|0,0:3|0:0,0:0:0:0:
261,38,286693,2,0,L|256:117,1,79.2000024169923,0|0,3:0|0:0,0:0:0:0:
348,180,287036,2,0,L|386:173,3,39.6000012084961,8|0|0|0,0:3|0:0|0:0|0:0,0:0:0:0:
321,251,287379,2,0,P|341:284|345:323,1,79.2000024169923,0|0,0:0|3:0,0:0:0:0:
240,359,287722,2,0,P|219:325|215:286,1,79.2000024169923,8|0,0:3|0:0,0:0:0:0:
238,177,288065,53,0,3:0:0:0:
134,217,288236,1,0,0:0:0:0:
152,107,288407,2,0,L|164:27,1,79.2000024169923,8|0,0:3|0:0,0:0:0:0:
35,68,288750,2,0,L|46:146,1,79.2000024169923,0|0,0:0|3:0,0:0:0:0:
29,256,289093,1,8,0:3:0:0:
134,217,289265,1,0,0:0:0:0:
134,217,289350,1,0,0:0:0:0:
134,217,289436,1,0,3:0:0:0:
238,177,289607,21,0,0:0:0:0:
337,225,289779,2,0,L|377:218,3,39.6000012084961,8|0|0|0,0:3|0:0|0:0|0:0,0:0:0:0:
292,289,290122,2,0,L|214:283,1,79.2000024169923,0|0,0:0|3:0,0:0:0:0:
133,362,290465,1,8,0:3:0:0:
133,362,290636,1,0,0:0:0:0:
39,302,290807,54,0,P|29:263|41:228,1,79.2000024169923,0|0,3:0|0:0,0:0:0:0:
108,138,291150,1,8,0:3:0:0:
205,193,291322,1,0,0:0:0:0:
205,193,291407,1,0,0:0:0:0:
205,193,291493,2,0,L|247:188,2,39.6000012084961,0|0|0,0:0|0:0|3:0,0:0:0:0:
107,138,291836,1,8,0:3:0:0:
107,138,292007,1,0,0:0:0:0:
130,30,292179,21,0,3:0:0:0:
241,19,292351,1,0,0:0:0:0:
284,119,292522,2,0,L|363:111,1,79.2000024169923,8|0,0:3|0:0,0:0:0:0:
459,56,292865,1,0,0:0:0:0:
459,56,292950,1,0,0:0:0:0:
459,56,293036,2,0,L|452:12,2,39.6000012084961,0|0|8,3:0|0:0|0:3,0:0:0:0:
476,165,293379,1,0,0:0:0:0:
493,274,293550,54,0,L|415:266,1,79.2000024169923,0|0,3:0|0:0,0:0:0:0:
335,187,293893,1,8,0:3:0:0:
309,295,294065,1,0,0:0:0:0:
309,295,294150,1,0,0:0:0:0:
309,295,294236,2,0,L|314:335,2,39.6000012084961,0|0|0,0:0|0:0|3:0,0:0:0:0:
228,217,294579,2,0,L|235:138,1,79.2000024169923,8|0,0:3|0:0,0:0:0:0:
175,44,294922,22,0,P|136:39|99:53,2,79.2000024169923,0|0|8,3:0|0:0|0:3,0:0:0:0:
286,40,295436,1,0,0:0:0:0:
286,40,295522,1,0,0:0:0:0:
286,40,295607,2,0,L|321:20,3,39.6000012084961,0|0|0|0,0:0|0:0|3:0|0:0,0:0:0:0:
348,90,295950,2,0,L|386:100,3,39.6000012084961,8|0|0|0,0:3|0:0|0:0|0:0,0:0:0:0:
350,168,296293,54,0,L|357:248,1,79.2000024169923,0|0,3:0|0:0,0:0:0:0:
274,321,296636,1,8,0:3:0:0:
181,260,296807,1,0,0:0:0:0:
181,260,296893,1,0,0:0:0:0:
181,260,296979,2,0,L|140:266,3,39.6000012084961,0|0|0|0,0:0|0:0|3:0|0:0,0:0:0:0:
197,180,297322,2,0,L|119:172,1,79.2000024169923,8|0,0:3|0:0,0:0:0:0:
33,98,297665,22,0,P|34:56|56:25,1,79.2000024169923,0|0,3:0|0:0,0:0:0:0:
163,46,298007,1,8,0:3:0:0:
163,46,298093,1,0,0:0:0:0:
163,46,298179,2,0,L|202:38,2,39.6000012084961,0|0|0,0:0|0:0|0:0,0:0:0:0:
254,108,298522,1,0,3:0:0:0:
317,17,298693,1,10,0:3:0:0:
408,79,298865,1,0,0:0:0:0:
345,171,299036,54,0,L|369:314,1,144,12|8,3:2|0:3,0:0:0:0:
286,371,299550,1,0,0:0:0:0:
211,302,299722,2,0,P|173:300|142:314,1,72,0|0,0:0|3:0,0:0:0:0:
68,244,300065,2,0,L|77:172,1,72,8|0,0:3|0:0,0:0:0:0:
38,79,300407,38,0,B|88:73|88:73|130:89|130:89|178:83,1,144,8|8,3:2|0:3,0:0:0:0:
251,12,300922,1,0,0:0:0:0:
281,107,301093,2,0,P|273:144|267:180,1,72,0|0,0:0|3:0,0:0:0:0:
170,207,301436,2,0,P|178:244|184:280,1,72,8|0,0:3|0:0,0:0:0:0:
279,309,301779,38,0,P|319:297|392:355,1,144,8|8,3:2|0:3,0:0:0:0:
492,368,302293,1,0,0:0:0:0:
492,368,302465,2,0,P|500:329|503:293,1,72,0|0,0:0|3:0,0:0:0:0:
432,224,302807,2,0,P|424:185|421:149,1,72,8|0,0:3|0:0,0:0:0:0:
441,53,303150,37,8,3:2:0:0:
441,53,303322,1,0,0:0:0:0:
345,85,303493,2,0,L|274:80,1,72,8|0,0:3|0:0,0:0:0:0:
192,141,303836,1,0,0:0:0:0:
192,141,303922,1,0,0:0:0:0:
192,141,304007,2,0,L|196:177,2,36,0|0|8,3:0|0:0|0:3,0:0:0:0:
179,40,304350,1,0,0:0:0:0:
97,99,304522,38,0,L|26:94,1,72,8|0,3:2|0:0,0:0:0:0:
24,195,304865,2,0,L|95:200,1,72,8|0,0:3|0:0,0:0:0:0:
165,272,305207,1,0,0:0:0:0:
165,272,305293,1,0,0:0:0:0:
165,272,305379,1,0,3:0:0:0:
195,176,305550,1,8,0:3:0:0:
195,176,305722,1,0,0:0:0:0:
266,246,305893,38,0,L|409:233,1,144,8|8,3:2|0:3,0:0:0:0:
469,151,306407,2,0,P|460:110|359:93,1,144,0|0,0:0|3:0,0:0:0:0:
276,48,306922,2,0,L|281:13,3,36,8|0|0|0,0:3|0:0|0:0|0:0,0:0:0:0:
205,79,307265,38,0,L|220:224,1,144,8|8,3:2|0:3,0:0:0:0:
303,279,307779,1,0,0:0:0:0:
365,200,307950,2,0,L|366:165,3,36,0|0|0|0,0:0|0:0|3:0|0:0,0:0:0:0:
428,250,308293,2,0,L|425:322,1,72,8|0,0:3|0:0,0:0:0:0:
337,372,308636,38,0,L|193:357,1,144,8|8,3:2|0:3,0:0:0:0:
93,344,309150,1,0,0:0:0:0:
93,344,309236,1,0,0:0:0:0:
93,344,309322,1,0,0:0:0:0:
153,263,309493,1,0,3:0:0:0:
78,194,309665,1,8,0:3:0:0:
138,113,309836,1,0,0:0:0:0:
213,182,310007,38,0,L|360:169,1,144,8|8,3:2|0:3,0:0:0:0:
452,135,310522,1,0,0:0:0:0:
435,234,310693,2,0,L|423:306,1,72,0|0,0:0|3:0,0:0:0:0:
325,329,311036,2,0,L|337:257,1,72,8|0,0:3|0:0,0:0:0:0:
235,265,311379,38,0,L|91:277,1,144,8|8,3:2|0:3,0:0:0:0:
19,206,311893,1,0,0:0:0:0:
116,180,312065,2,0,L|134:110,1,72,0|0,0:0|3:0,0:0:0:0:
233,97,312407,2,0,L|215:167,1,72,8|0,0:3|0:0,0:0:0:0:
235,265,312750,38,0,B|305:235|305:295|373:263,1,144,8|8,3:2|0:3,0:0:0:0:
472,285,313265,1,0,0:0:0:0:
472,285,313436,2,0,P|473:244|462:213,1,72,0|0,0:0|3:0,0:0:0:0:
388,146,313779,2,0,L|316:156,1,72,8|0,0:3|0:0,0:0:0:0:
216,171,314122,37,8,3:2:0:0:
252,77,314293,1,0,0:0:0:0:
316,155,314465,2,0,P|311:188|308:228,1,72,8|0,0:3|0:0,0:0:0:0:
290,325,314807,1,0,0:0:0:0:
290,325,314893,1,0,0:0:0:0:
290,325,314979,2,0,L|296:360,2,36,0|0|8,3:0|0:0|0:3,0:0:0:0:
213,258,315322,1,0,0:0:0:0:
122,301,315493,38,0,P|85:309|49:300,1,72,8|0,3:2|0:0,0:0:0:0:
86,206,315836,1,8,0:3:0:0:
37,117,316007,1,0,0:0:0:0:
37,117,316093,1,0,0:0:0:0:
37,117,316179,2,0,L|31:80,2,36,0|0|0,0:0|0:0|3:0,0:0:0:0:
138,120,316522,2,0,L|149:48,1,72,8|0,0:3|0:0,0:0:0:0:
249,31,316865,38,0,L|225:173,1,144,8|8,3:2|0:3,0:0:0:0:
303,238,317379,1,0,0:0:0:0:
303,238,317465,1,0,0:0:0:0:
303,238,317550,2,0,L|313:273,3,36,0|0|0|0,0:0|0:0|3:0|0:0,0:0:0:0:
382,219,317893,2,0,L|417:227,3,36,8|0|0|0,0:3|0:0|0:0|0:0,0:0:0:0:
405,141,318236,38,0,L|477:127,1,72,8|0,3:2|0:0,0:0:0:0:
494,27,318579,1,8,0:3:0:0:
494,27,318750,2,0,L|352:54,1,144,0|0,0:0|3:0,0:0:0:0:
255,24,319265,2,0,P|219:17|186:29,1,72,8|0,0:3|0:0,0:0:0:0:
129,111,319607,38,0,L|157:255,1,144,8|8,3:2|0:3,0:0:0:0:
245,301,320122,1,0,0:0:0:0:
245,301,320207,1,0,0:0:0:0:
245,301,320293,1,0,0:0:0:0:
290,210,320465,1,0,3:0:0:0:
384,244,320636,1,10,0:3:0:0:
429,153,320807,1,0,0:0:0:0:
429,153,320893,2,0,L|424:116,1,36,0|4,0:0|0:0,0:0:0:0:
