osu file format v14

[General]
AudioFilename: audio.mp3
AudioLeadIn: 0
PreviewTime: 272293
Countdown: 0
SampleSet: Soft
StackLeniency: 0.4
Mode: 0
LetterboxInBreaks: 0
WidescreenStoryboard: 1

[Editor]
DistanceSpacing: 1.4
BeatDivisor: 4
GridSize: 4
TimelineZoom: 2.2

[Metadata]
Title:Colorful (tamame's apostate remix)
TitleUnicode:カラフル (tamame's apostate remix)
Artist:ClariS
ArtistUnicode:ClariS
Creator:Bearizm
Version:Corrupted
Source:劇場版 魔法少女まどか☆マギカ [新編] 叛逆の物語
Tags:colourful puella magi magical girl gekijouban mahou shoujo madoka magika magica shinpen hangyaku no monogatari rebellion
BeatmapID:1812393
BeatmapSetID:866938

[Difficulty]
HPDrainRate:5
CircleSize:4
OverallDifficulty:8
ApproachRate:9
SliderMultiplier:1.6
SliderTickRate:2

[Events]
//Background and Video events
0,0,"Colorful.jpg",0,0
//Break Periods
//Storyboard Layer 0 (Background)
//Storyboard Layer 1 (Fail)
//Storyboard Layer 2 (Pass)
//Storyboard Layer 3 (Foreground)
//Storyboard Sound Samples

[TimingPoints]
65,342.857142857143,4,2,1,60,1,0
11036,-400,4,2,1,60,0,0
22007,-100,4,2,1,70,0,0
72665,-100,4,2,1,5,0,0
72750,-100,4,2,1,70,0,0
82350,-90.9090909090909,4,2,1,80,0,1
83979,-90.9090909090909,4,2,1,5,0,1
84065,-90.9090909090909,4,2,1,80,0,1
94950,-90.9090909090909,4,2,1,5,0,1
95036,-90.9090909090909,4,2,1,80,0,1
101807,-90.9090909090909,4,2,1,5,0,1
101893,-90.9090909090909,4,2,1,80,0,1
104207,-90.9090909090909,4,2,1,5,0,1
104293,-90.9090909090909,4,2,1,80,0,1
109779,-90.9090909090909,4,2,1,80,0,0
118779,-90.9090909090909,4,2,1,5,0,0
118865,-90.9090909090909,4,2,1,80,0,0
131722,-133.333333333333,4,2,1,70,0,0
142179,-100,4,2,1,70,0,0
170122,-90.9090909090909,4,2,1,80,0,1
189579,-90.9090909090909,4,2,1,5,0,1
189665,-90.9090909090909,4,2,1,80,0,1
196950,-90.9090909090909,4,2,1,5,0,1
197036,-90.9090909090909,4,2,1,80,0,1
197550,-90.9090909090909,4,2,1,80,0,0
201922,-90.9090909090909,4,2,1,5,0,0
202007,-90.9090909090909,4,2,1,80,0,0
204322,-90.9090909090909,4,2,1,5,0,0
204407,-90.9090909090909,4,2,1,80,0,0
219493,-90.9090909090909,4,2,1,70,0,0
229950,-90.9090909090909,4,2,1,80,0,0
230465,-80,4,2,1,80,0,1
241436,-133.333333333333,4,2,1,70,0,0
252407,-90.9090909090909,4,2,1,80,0,1
277007,-90.9090909090909,4,2,1,80,0,0
277093,-80,4,2,1,80,0,1
299036,-90.9090909090909,4,2,2,80,0,0
299122,-90.9090909090909,4,2,1,70,0,0
300407,-90.9090909090909,4,2,2,70,0,0
300493,-90.9090909090909,4,2,1,70,0,0
301779,-90.9090909090909,4,2,2,70,0,0
301865,-90.9090909090909,4,2,1,70,0,0
303150,-90.9090909090909,4,2,2,70,0,0
303236,-90.9090909090909,4,2,1,70,0,0
304522,-90.9090909090909,4,2,2,70,0,0
304607,-90.9090909090909,4,2,1,70,0,0
305893,-90.9090909090909,4,2,2,70,0,0
305979,-90.9090909090909,4,2,1,70,0,0
307265,-90.9090909090909,4,2,2,70,0,0
307350,-90.9090909090909,4,2,1,70,0,0
308636,-90.9090909090909,4,2,2,70,0,0
308722,-90.9090909090909,4,2,1,70,0,0
310007,-90.9090909090909,4,2,2,70,0,0
310093,-90.9090909090909,4,2,1,70,0,0
311379,-90.9090909090909,4,2,2,70,0,0
311465,-90.9090909090909,4,2,1,70,0,0
312750,-90.9090909090909,4,2,2,70,0,0
312836,-90.9090909090909,4,2,1,70,0,0
314122,-90.9090909090909,4,2,2,70,0,0
314207,-90.9090909090909,4,2,1,70,0,0
315493,-90.9090909090909,4,2,2,70,0,0
315579,-90.9090909090909,4,2,1,70,0,0
316865,-90.9090909090909,4,2,2,70,0,0
316950,-90.9090909090909,4,2,1,70,0,0
318236,-90.9090909090909,4,2,2,70,0,0
318322,-90.9090909090909,4,2,1,70,0,0
319607,-90.9090909090909,4,2,2,70,0,0
319693,-90.9090909090909,4,2,1,70,0,0

[Colours]
Combo1 : 143,132,190
Combo2 : 192,192,192
Combo3 : 128,128,128
Combo4 : 255,149,149
Combo5 : 255,0,0
Combo6 : 93,87,135

[HitObjects]
130,196,65,5,2,0:0:0:0:
158,178,236,1,2,0:0:0:0:
191,171,407,1,2,0:0:0:0:
197,268,579,5,2,0:0:0:0:
191,171,1436,69,2,0:0:0:0:
226,177,1607,1,2,0:0:0:0:
256,192,1779,1,2,0:0:0:0:
197,268,1950,5,2,0:0:0:0:
382,196,2807,69,2,0:0:0:0:
352,214,2979,1,2,0:0:0:0:
318,219,3150,1,2,0:0:0:0:
323,123,3322,5,2,0:0:0:0:
318,219,4179,69,2,0:0:0:0:
284,211,4350,1,2,0:0:0:0:
256,192,4522,1,2,0:0:0:0:
323,123,4693,5,2,0:0:0:0:
256,192,5550,69,2,0:0:0:0:
284,211,5722,1,2,0:0:0:0:
318,219,5893,1,2,0:0:0:0:
323,123,6065,5,2,0:0:0:0:
318,219,6922,69,2,0:0:0:0:
352,214,7093,1,2,0:0:0:0:
382,196,7265,1,2,0:0:0:0:
323,123,7436,5,2,0:0:0:0:
256,192,8293,69,2,0:0:0:0:
226,177,8465,1,2,0:0:0:0:
191,171,8636,1,2,0:0:0:0:
197,268,8807,5,2,0:0:0:0:
191,171,9665,69,2,0:0:0:0:
158,178,9836,1,2,0:0:0:0:
130,196,10007,1,2,0:0:0:0:
197,268,10179,5,2,0:0:0:0:
68,48,11036,70,0,L|72:88,1,40,4|8,0:0|0:0,0:0:0:0:
152,40,11550,5,0,0:0:0:0:
153,53,11722,1,0,0:0:0:0:
154,66,11893,1,0,0:0:0:0:
155,79,12065,1,8,0:0:0:0:
444,48,12407,70,0,L|440:88,1,40,0|8,0:0|0:0,0:0:0:0:
360,40,12922,5,0,0:0:0:0:
358,53,13093,1,0,0:0:0:0:
357,66,13265,1,0,0:0:0:0:
356,79,13436,1,8,0:0:0:0:
71,87,13779,70,0,L|75:127,1,40,0|8,0:0|0:0,0:0:0:0:
155,79,14293,5,0,0:0:0:0:
156,92,14465,1,0,0:0:0:0:
157,105,14636,1,0,0:0:0:0:
158,118,14807,1,8,0:0:0:0:
441,87,15150,70,0,L|437:127,1,40,0|8,0:0|0:0,0:0:0:0:
357,79,15665,5,0,0:0:0:0:
356,92,15836,1,0,0:0:0:0:
355,105,16007,1,0,0:0:0:0:
354,118,16179,1,8,0:0:0:0:
68,336,16522,70,0,L|72:296,1,40,0|8,0:0|0:0,0:0:0:0:
152,344,17036,5,0,0:0:0:0:
153,330,17207,1,0,0:0:0:0:
154,317,17379,1,0,0:0:0:0:
155,304,17550,1,8,0:0:0:0:
444,336,17893,70,0,L|440:296,1,40,0|8,0:0|0:0,0:0:0:0:
360,344,18407,5,0,0:0:0:0:
358,330,18579,1,0,0:0:0:0:
357,317,18750,1,0,0:0:0:0:
356,304,18922,1,8,0:0:0:0:
71,297,19265,70,0,L|75:257,1,40,0|8,0:0|0:0,0:0:0:0:
155,305,19779,5,0,0:0:0:0:
156,292,19950,1,0,0:0:0:0:
157,279,20122,1,0,0:0:0:0:
158,266,20293,1,8,0:0:0:0:
441,297,20636,70,0,L|437:257,1,40,0|8,0:0|0:0,0:0:0:0:
357,305,21150,5,0,0:0:0:0:
356,292,21322,1,0,0:0:0:0:
355,279,21493,1,0,0:0:0:0:
354,266,21665,1,2,0:3:0:0:
268,44,22007,6,0,L|244:204,1,160,4|8,3:2|0:3,0:0:0:0:
161,125,22522,2,0,L|122:130,2,40
352,107,22865,1,0,3:0:0:0:
324,265,23036,2,0,P|363:252|401:254,1,80,8|0,0:3|0:0,0:0:0:0:
240,346,23379,6,0,P|161:334|82:324,1,160,0|8,3:0|0:3,0:0:0:0:
151,242,23893,1,0,0:0:0:0:
151,242,23979,1,0,0:0:0:0:
151,242,24065,2,0,L|161:204,2,40,0|0|0,0:0|0:0|3:0,0:0:0:0:
39,159,24408,2,0,L|32:118,2,40,8|0|0,0:3|0:0|0:0,0:0:0:0:
147,82,24750,70,0,P|184:65|280:134,1,160,0|8,3:0|0:3,0:0:0:0:
396,72,25265,1,0,0:0:0:0:
396,72,25350,1,0,0:0:0:0:
396,72,25436,2,0,P|383:112|381:155,1,80,0|0,0:0|3:0,0:0:0:0:
511,242,25779,2,0,P|476:225|436:224,1,80,8|0,0:3|0:0,0:0:0:0:
295,333,26122,6,0,L|453:313,1,160,0|8,3:0|0:3,0:0:0:0:
229,238,26636,2,0,L|234:198,2,40
332,234,26979,1,0,3:0:0:0:
210,345,27150,1,8,0:3:0:0:
210,345,27236,1,0,0:0:0:0:
210,345,27322,1,0,0:0:0:0:
187,119,27493,70,0,P|224:106|269:113,1,80,0|0,3:0|0:0,0:0:0:0:
129,242,27836,2,0,L|50:232,1,80,8|0,0:3|0:0,0:0:0:0:
25,229,28093,1,0,0:0:0:0:
25,229,28179,1,0,0:0:0:0:
101,73,28350,1,0,3:0:0:0:
233,191,28522,2,0,P|246:228|239:273,1,80,8|0,0:3|0:0,0:0:0:0:
263,110,28865,6,0,L|426:98,1,160,0|8,3:0|0:3,0:0:0:0:
497,187,29379,1,0,0:0:0:0:
493,206,29464,1,0,0:0:0:0:
490,226,29550,1,0,0:0:0:0:
422,98,29721,1,0,3:0:0:0:
383,243,29893,1,8,0:3:0:0:
386,262,29978,1,0,0:0:0:0:
389,282,30064,1,0,0:0:0:0:
288,361,30236,70,0,P|210:352|129:345,1,160,0|8,3:0|0:3,0:0:0:0:
15,255,30750,1,0,0:0:0:0:
34,250,30836,1,0,0:0:0:0:
53,245,30922,1,0,0:0:0:0:
175,208,31093,1,0,3:0:0:0:
100,63,31265,2,0,L|86:143,1,80,8|0,0:3|0:0,0:0:0:0:
279,266,31607,6,0,L|257:107,1,160,0|8,3:0|0:3,0:0:0:0:
350,18,32122,1,0,0:0:0:0:
359,35,32207,1,0,0:0:0:0:
363,55,32293,1,0,0:0:0:0:
362,74,32379,1,0,0:0:0:0:
355,93,32464,1,0,3:0:0:0:
485,156,32636,2,0,L|405:166,1,80,8|0,0:3|0:0,0:0:0:0:
453,270,32893,1,0,0:0:0:0:
438,283,32979,70,0,L|279:266,1,160,4|8,3:2|0:3,0:0:0:0:
188,334,33493,1,0,0:0:0:0:
191,353,33578,1,0,0:0:0:0:
194,373,33664,1,0,0:0:0:0:
78,282,33836,1,0,3:0:0:0:
165,171,34007,2,0,L|156:91,1,80,8|0,0:3|0:0,0:0:0:0:
364,49,34350,6,0,L|349:213,1,160,0|8,3:0|0:3,0:0:0:0:
274,118,34865,2,0,L|248:88,2,40
367,27,35207,1,0,3:0:0:0:
440,126,35379,2,0,L|470:100,2,40,8|0|0,0:3|0:0|0:0,0:0:0:0:
349,208,35722,70,0,L|341:290,1,80,0|0,3:0|0:0,0:0:0:0:
181,347,36065,2,0,L|173:267,1,80,8|0,0:3|0:0,0:0:0:0:
157,109,36407,1,0,0:0:0:0:
63,196,36579,1,0,3:0:0:0:
10,51,36750,2,0,P|46:33|85:32,1,80,8|0,0:3|0:0,0:0:0:0:
258,133,37093,6,0,L|417:114,1,160,0|8,3:0|0:3,0:0:0:0:
509,245,37607,1,0,0:0:0:0:
491,234,37692,1,0,0:0:0:0:
472,228,37778,1,0,0:0:0:0:
453,226,37864,1,0,0:0:0:0:
433,229,37949,1,0,3:0:0:0:
297,299,38122,2,0,P|303:339|307:378,1,80,8|0,0:3|0:0,0:0:0:0:
111,292,38465,70,0,P|136:241|233:237,1,160,0|8,3:0|0:3,0:0:0:0:
216,97,38979,1,0,0:0:0:0:
213,77,39064,1,0,0:0:0:0:
211,57,39150,1,0,0:0:0:0:
353,88,39322,1,0,3:0:0:0:
353,88,39493,2,0,L|347:167,1,80,8|0,0:3|0:0,0:0:0:0:
461,281,39836,6,0,B|407:270|407:270|357:286|357:286|305:275,1,160,0|8,3:0|0:3,0:0:0:0:
119,299,40350,1,0,0:0:0:0:
119,299,40436,1,0,0:0:0:0:
119,299,40522,2,0,L|126:339,2,40,0|0|0,0:0|0:0|3:0,0:0:0:0:
216,97,40865,2,0,P|229:136|223:173,1,80,8|0,0:3|0:0,0:0:0:0:
79,203,41207,70,0,P|159:197|239:192,1,160,0|8,3:0|0:3,0:0:0:0:
427,182,41722,1,0,0:0:0:0:
427,182,41807,1,0,0:0:0:0:
427,182,41893,1,0,0:0:0:0:
310,73,42065,1,0,3:0:0:0:
330,271,42236,2,0,L|339:351,1,80,8|0,0:3|0:0,0:0:0:0:
172,321,42579,5,0,3:0:0:0:
326,246,42750,1,0,3:0:0:0:
156,198,42922,1,8,0:3:0:0:
255,337,43093,1,0,3:0:0:0:
286,119,43265,1,8,0:3:0:0:
286,119,43350,1,8,0:3:0:0:
286,119,43436,1,0,3:0:0:0:
156,198,43607,1,10,0:3:0:0:
241,221,43779,1,0,0:0:0:0:
326,246,43950,70,0,P|408:235|484:228,1,160,4|8,3:2|0:3,0:0:0:0:
286,119,44465,1,0,0:0:0:0:
286,119,44636,2,0,P|247:110|206:102,1,80,0|0,0:0|3:0,0:0:0:0:
23,157,44979,1,8,0:3:0:0:
101,224,45150,6,0,P|140:215|181:207,1,80,0|0,0:0|3:0,0:0:0:0:
328,294,45493,2,0,P|289:285|248:277,1,80,0|8,0:0|0:3,0:0:0:0:
371,170,45836,2,0,P|419:166|484:251,1,160,0|0,0:0|3:0,0:0:0:0:
328,294,46350,1,8,0:3:0:0:
403,245,46522,1,0,0:0:0:0:
218,367,46693,70,0,L|139:355,1,80,0|0,3:0|0:0,0:0:0:0:
29,377,47036,1,8,0:3:0:0:
3,194,47207,2,0,P|39:173|77:171,1,80
89,62,47550,2,0,P|129:72|157:98,1,80,0|8,3:0|0:3,0:0:0:0:
283,34,47893,1,0,0:0:0:0:
283,34,47979,1,0,0:0:0:0:
283,34,48065,6,0,L|260:192,1,160,0|8,3:0|0:3,0:0:0:0:
449,292,48579,2,0,P|432:241|333:230,1,160,0|0,0:0|3:0,0:0:0:0:
235,350,49093,1,8,0:3:0:0:
341,321,49265,1,0,0:0:0:0:
166,257,49436,70,0,P|160:174|156:95,1,160,0|8,3:0|0:3,0:0:0:0:
344,147,49950,1,0,0:0:0:0:
344,147,50122,2,0,P|341:189|336:234,1,80,0|0,0:0|3:0,0:0:0:0:
403,317,50465,1,8,0:3:0:0:
488,244,50636,1,0,0:0:0:0:
336,226,50807,6,0,B|283:217|283:217|232:232|232:232|179:224,1,160,0|8,3:0|0:3,0:0:0:0:
27,87,51322,2,0,B|79:78|79:78|130:93|130:93|183:85,1,160,0|0,0:0|3:0,0:0:0:0:
291,14,51836,2,0,P|309:50|310:89,1,80,8|0,0:3|0:0,0:0:0:0:
258,275,52179,70,0,B|244:154|244:154|271:180,1,160,0|8,3:0|0:3,0:0:0:0:
388,144,52693,2,0,L|463:119,1,80
388,240,53036,2,0,L|463:265,1,80,0|8,3:0|0:3,0:0:0:0:
281,191,53379,1,0,0:0:0:0:
281,191,53465,1,0,0:0:0:0:
281,191,53550,6,0,B|242:175|204:198|204:198|176:165|133:165,1,160,0|8,3:0|0:3,0:0:0:0:
3,308,54065,2,0,B|42:292|80:315|80:315|108:282|150:282,1,160,0|0,0:0|3:0,0:0:0:0:
34,383,54579,1,8,0:3:0:0:
144,364,54750,1,0,0:0:0:0:
63,206,54922,70,0,L|37:47,1,160,4|8,3:2|0:3,0:0:0:0:
214,0,55436,1,0,0:0:0:0:
214,0,55607,2,0,P|226:38|219:77,1,80,0|0,0:0|3:0,0:0:0:0:
278,192,55950,1,8,0:3:0:0:
380,146,56122,6,0,P|421:149|461:156,1,80,0|0,0:0|3:0,0:0:0:0:
330,272,56465,2,0,P|288:275|249:282,1,80,0|8,0:0|0:3,0:0:0:0:
365,132,56807,2,0,L|350:295,1,160,0|0,0:0|3:0,0:0:0:0:
241,370,57322,1,8,0:3:0:0:
207,197,57493,1,0,0:0:0:0:
95,278,57665,70,0,B|147:268|147:268|198:288|198:288|251:280,1,160,0|8,3:0|0:3,0:0:0:0:
222,121,58179,2,0,P|206:156|208:199,1,80
374,187,58522,2,0,P|338:171|299:173,1,80,0|8,3:0|0:3,0:0:0:0:
363,353,58865,1,0,0:0:0:0:
374,187,59036,6,0,L|383:28,1,160,0|8,3:0|0:3,0:0:0:0:
215,41,59550,2,0,L|221:120,1,80
125,254,59893,1,0,3:0:0:0:
75,191,60065,2,0,P|111:174|150:177,1,80,8|0,0:3|0:0,0:0:0:0:
182,340,60407,70,0,L|19:323,1,160,0|8,3:0|0:3,0:0:0:0:
225,255,60922,2,0,P|267:255|299:276,1,80
476,247,61264,2,0,P|434:247|402:268,1,80,0|8,3:0|0:3,0:0:0:0:
357,354,61607,1,0,0:0:0:0:
345,194,61779,6,0,L|333:32,1,160,0|8,3:0|0:3,0:0:0:0:
436,107,62293,1,0,0:0:0:0:
220,155,62465,1,0,0:0:0:0:
220,155,62636,2,0,L|231:76,1,80,0|8,3:0|0:3,0:0:0:0:
15,123,62979,1,0,0:0:0:0:
100,232,63150,70,0,B|152:225|152:225|201:245|201:245|255:239,2,160,0|8|0,3:0|0:3|0:0,0:0:0:0:
15,123,64007,1,0,3:0:0:0:
99,231,64179,2,0,P|107:269|96:307,1,80,8|0,0:3|0:0,0:0:0:0:
19,264,64522,5,0,3:0:0:0:
215,159,64693,1,0,0:0:0:0:
15,123,64865,1,8,0:3:0:0:
99,231,65036,1,0,0:0:0:0:
127,13,65207,1,8,0:3:0:0:
152,10,65292,1,8,0:3:0:0:
177,14,65378,1,0,3:0:0:0:
198,26,65464,1,0,3:0:0:0:
215,44,65550,2,0,P|252:27|294:26,1,80,10|0,0:3|0:0,0:0:0:0:
487,183,65893,70,0,L|325:170,1,160,4|8,3:2|0:3,0:0:0:0:
213,245,66407,2,0,P|219:281|225:324,1,80,0|0,3:0|0:0,0:0:0:0:
81,240,66750,2,0,P|78:277|72:319,1,80,0|8,3:0|0:3,0:0:0:0:
13,128,67093,6,0,P|25:82|128:76,1,160,0|0,3:0|3:0,0:0:0:0:
239,31,67607,2,0,P|233:70|228:112,1,80,8|0,0:3|0:0,0:0:0:0:
328,160,67950,1,0,3:0:0:0:
421,97,68122,1,0,3:0:0:0:
493,285,68293,2,0,L|413:276,1,80,8|0,0:3|0:0,0:0:0:0:
225,342,68636,70,0,L|305:351,1,80,0|0,3:0|0:0,0:0:0:0:
160,247,68979,1,8,0:3:0:0:
41,278,69150,2,0,P|26:317|28:354,1,80,0|0,0:0|3:0,0:0:0:0:
160,247,69493,2,0,P|161:207|147:170,1,80,0|8,3:0|0:3,0:0:0:0:
0,68,69836,6,0,B|52:61|52:61|101:81|101:81|155:75,1,160,0|0,3:0|3:0,0:0:0:0:
266,57,70350,1,8,0:3:0:0:
377,40,70522,1,0,0:0:0:0:
447,184,70693,1,0,3:0:0:0:
336,167,70865,1,0,3:0:0:0:
365,364,71036,1,8,0:3:0:0:
365,364,71379,70,0,L|206:348,1,160,0|8,3:0|0:3,0:0:0:0:
74,297,71893,2,0,P|83:337|89:379,1,80
186,236,72236,1,0,3:0:0:0:
65,120,72407,2,0,P|84:75|159:64,1,120,8|0,0:3|0:0,0:0:0:0:
212,109,72750,6,0,B|264:102|264:102|313:122|313:122|367:116,1,160,0|8,3:0|0:3,0:0:0:0:
479,35,73265,1,0,0:0:0:0:
461,190,73436,2,0,L|454:271,1,80,0|0,0:0|3:0,0:0:0:0:
290,150,73779,2,0,L|297:231,1,80,8|0,0:3|0:0,0:0:0:0:
118,342,74122,70,0,P|115:302|221:264,2,160,0|8|0,3:0|0:3|0:0,0:0:0:0:
242,375,74979,1,0,3:0:0:0:
242,375,75150,2,0,P|281:369|323:365,1,80,8|0,0:3|0:0,0:0:0:0:
469,244,75493,6,0,P|430:238|388:234,1,80,0|0,3:0|0:0,0:0:0:0:
301,264,75836,1,8,0:3:0:0:
212,63,76007,2,0,P|231:23|334:30,1,160,0|0,0:0|3:0,0:0:0:0:
310,184,76522,2,0,P|303:233|300:269,1,80,8|0,0:3|0:0,0:0:0:0:
45,209,76865,38,0,L|5:213,3,40,0|0|0|0,3:0|0:0|0:0|0:0,0:0:0:0:
183,195,77207,2,0,L|223:191,3,40,8|0|0|0,3:2|0:0|0:0|0:0,0:0:0:0:
107,128,77550,2,0,L|103:88,3,40,0|0|0|0,3:0|0:0|0:0|0:0,0:0:0:0:
121,266,77893,2,0,L|125:306,3,40,8|0|0|0,3:2|0:0|0:0|0:0,0:0:0:0:
222,191,78236,6,0,L|182:195,3,40,0|0|0|0,3:0|0:0|0:0|0:0,0:0:0:0:
360,177,78579,2,0,L|400:173,3,40,8|0|0|0,3:2|0:0|0:0|0:0,0:0:0:0:
284,110,78922,2,0,L|280:70,3,40,0|0|0|0,3:0|0:0|0:0|0:0,0:0:0:0:
298,248,79265,2,0,L|302:288,3,40,8|0|0|0,3:2|0:0|0:0|0:0,0:0:0:0:
196,108,79607,69,0,3:0:0:0:
369,88,79779,1,0,3:0:0:0:
389,261,79950,1,8,3:2:0:0:
216,281,80122,1,0,3:0:0:0:
280,70,80293,5,0,3:0:0:0:
182,194,80465,1,0,3:0:0:0:
301,287,80636,1,8,3:2:0:0:
399,173,80807,1,0,3:0:0:0:
182,194,80979,69,0,3:0:0:0:
153,200,81064,1,0,3:0:0:0:
125,191,81150,1,0,3:0:0:0:
106,168,81236,1,0,3:0:0:0:
102,139,81321,1,0,3:0:0:0:
114,112,81407,1,0,3:0:0:0:
139,96,81493,1,0,3:0:0:0:
168,95,81579,1,0,3:0:0:0:
194,110,81665,6,0,L|190:71,1,40,8|8,0:3|0:3,0:0:0:0:
298,160,81836,1,0,3:0:0:0:
298,160,81922,1,0,3:0:0:0:
298,160,82007,2,0,L|293:199,1,40,10|0,0:3|3:0,0:0:0:0:
282,362,82179,1,8,0:3:0:0:
48,279,82350,38,0,B|105:268|105:268|160:285|160:285|219:274,1,176.000005371094,4|8,3:2|0:3,0:0:0:0:
444,191,82865,2,0,P|449:235|451:284,1,88.000002685547,0|0,3:0|0:0,0:0:0:0:
292,199,83207,2,0,P|293:155|299:112,1,88.000002685547,0|8,3:0|0:3,0:0:0:0:
497,78,83550,1,0,0:0:0:0:
497,78,83636,1,0,0:0:0:0:
497,78,83722,6,0,B|453:70|453:70|411:83|411:83|368:74,1,132.00000402832,0|0,3:0|0:0,0:0:0:0:
299,112,84065,2,0,P|261:95|213:99,1,88.000002685547,8|0,0:3|3:0,0:0:0:0:
38,120,84407,1,2,0:0:0:0:
32,91,84492,1,2,0:0:0:0:
42,67,84578,1,2,3:2:0:0:
65,52,84665,1,2,0:0:0:0:
92,51,84749,1,8,0:3:0:0:
116,64,84835,1,0,0:0:0:0:
127,88,84921,1,0,0:0:0:0:
125,115,85007,1,0,0:0:0:0:
109,136,85093,70,0,P|114:175|119:224,1,88.000002685547,0|0,3:0|0:0,0:0:0:0:
58,331,85436,1,8,0:3:0:0:
207,188,85607,2,0,P|255:174|344:255,1,176.000005371094,0|0,3:0|3:0,0:0:0:0:
216,358,86122,2,0,P|259:349|301:342,1,88.000002685547,8|0,0:3|0:0,0:0:0:0:
323,350,86379,1,0,0:0:0:0:
343,358,86465,6,0,P|386:349|428:342,1,88.000002685547,0|0,3:0|0:0,0:0:0:0:
359,162,86807,2,0,P|349:205|342:249,1,88.000002685547,8|0,0:3|3:0,0:0:0:0:
487,115,87150,1,0,0:0:0:0:
467,76,87236,1,0,0:0:0:0:
431,52,87322,1,0,3:0:0:0:
387,50,87407,1,2,0:0:0:0:
348,69,87493,2,0,L|306:62,1,44.0000013427735,8|2,0:3|0:0,0:0:0:0:
204,108,87665,2,0,L|161:100,1,44.0000013427735,2|2,0:0|0:0,0:0:0:0:
38,79,87836,70,0,L|49:255,1,176.000005371094,0|8,3:0|0:3,0:0:0:0:
48,254,88522,1,0,3:0:0:0:
166,179,88693,1,0,3:0:0:0:
294,238,88865,2,0,L|281:328,1,88.000002685547,8|0,0:3|0:0,0:0:0:0:
479,194,89207,6,0,P|440:173|397:175,1,88.000002685547,0|0,3:0|0:0,0:0:0:0:
313,21,89550,1,8,0:3:0:0:
155,97,89722,2,0,P|163:163|174:272,1,176.000005371094,0|0,3:0|3:0,0:0:0:0:
304,326,90236,1,8,0:3:0:0:
422,250,90407,1,0,0:0:0:0:
279,127,90579,70,0,L|287:214,1,88.000002685547,0|0,3:0|0:0,0:0:0:0:
434,144,90922,2,0,L|443:57,1,88.000002685547,8|0,0:3|0:0,0:0:0:0:
272,232,91265,6,0,L|263:144,1,88.000002685547,0|0,3:0|3:0,0:0:0:0:
460,44,91608,2,0,L|452:132,1,88.000002685547,8|0,0:3|0:0,0:0:0:0:
428,360,91950,69,0,3:0:0:0:
194,298,92122,1,0,3:0:0:0:
452,250,92293,5,8,0:3:0:0:
258,382,92465,1,0,3:0:0:0:
337,142,92636,69,8,0:3:0:0:
323,100,92721,1,8,0:3:0:0:
288,74,92807,1,0,3:0:0:0:
245,72,92893,1,0,3:0:0:0:
208,95,92979,2,0,L|120:82,1,88.000002685547,10|0,0:3|0:0,0:0:0:0:
2,269,93322,6,0,L|90:256,1,88.000002685547,4|0,3:2|0:0,0:0:0:0:
194,298,93665,1,8,0:3:0:0:
208,95,93836,2,0,P|204:140|202:182,1,88.000002685547,0|0,3:0|0:0,0:0:0:0:
395,231,94179,2,0,P|393:186|389:144,1,88.000002685547,0|8,3:0|0:3,0:0:0:0:
179,64,94522,1,0,0:0:0:0:
193,79,94607,1,0,0:0:0:0:
208,95,94693,70,0,L|340:81,1,132.00000402832,0|0,3:0|0:0,0:0:0:0:
388,143,95036,2,0,P|380:185|395:226,1,88.000002685547,8|0,0:3|3:0,0:0:0:0:
488,334,95379,1,2,0:0:0:0:
498,297,95464,1,2,0:0:0:0:
487,261,95550,1,2,3:2:0:0:
457,237,95636,1,2,0:0:0:0:
419,234,95721,1,8,0:3:0:0:
386,253,95807,1,0,0:0:0:0:
369,286,95893,1,0,0:0:0:0:
374,324,95979,1,0,0:0:0:0:
399,353,96065,6,0,P|350:348|312:344,1,88.000002685547,0|0,3:0|0:0,0:0:0:0:
192,378,96407,1,8,0:3:0:0:
123,198,96579,2,0,P|161:176|206:178,1,88.000002685547,0|0,3:0|0:0,0:0:0:0:
244,81,96922,2,0,P|282:102|302:142,1,88.000002685547,0|8,3:0|0:3,0:0:0:0:
192,378,97265,1,0,0:0:0:0:
177,364,97350,1,0,0:0:0:0:
161,350,97436,70,0,P|160:306|185:268,1,88.000002685547,0|0,3:0|0:0,0:0:0:0:
399,353,97779,1,8,0:3:0:0:
301,140,97950,1,0,3:2:0:0:
271,335,98122,1,2,0:0:0:0:
271,335,98207,1,2,0:0:0:0:
271,335,98293,2,0,L|266:291,1,44.0000013427735,2|2,3:2|0:0,0:0:0:0:
398,218,98465,1,8,0:3:0:0:
398,218,98550,1,2,0:0:0:0:
398,218,98636,2,0,L|403:174,1,44.0000013427735
204,62,98807,5,0,3:0:0:0:
204,62,99150,2,0,L|188:151,1,88.000002685547,8|0,0:3|3:0,0:0:0:0:
324,241,99493,2,0,L|235:225,1,88.000002685547,0|0,0:0|3:0,0:0:0:0:
25,182,99836,2,0,L|114:198,1,88.000002685547,8|0,0:3|0:0,0:0:0:0:
145,361,100179,69,0,3:0:0:0:
145,361,100522,2,0,L|161:272,1,88.000002685547,8|0,0:3|3:0,0:0:0:0:
25,182,100865,2,0,L|114:198,1,88.000002685547,0|0,0:0|3:0,0:0:0:0:
324,241,101207,2,0,L|235:225,1,88.000002685547,8|0,0:3|0:0,0:0:0:0:
204,62,101550,6,0,P|234:23|313:27,1,132.00000402832,0|0,3:0|0:0,0:0:0:0:
382,62,101893,2,0,P|371:105|363:153,1,88.000002685547,8|0,0:3|0:0,0:0:0:0:
497,221,102236,1,0,3:0:0:0:
361,167,102407,1,0,3:0:0:0:
305,352,102579,2,0,P|347:345|393:340,1,88.000002685547,8|0,0:3|0:0,0:0:0:0:
188,148,102922,69,0,3:0:0:0:
107,374,103093,1,0,3:0:0:0:
56,172,103265,5,8,0:3:0:0:
210,363,103436,1,0,3:0:0:0:
283,124,103607,69,8,0:3:0:0:
265,84,103692,1,8,0:3:0:0:
231,56,103778,1,0,3:0:0:0:
188,47,103864,1,0,3:0:0:0:
146,58,103950,2,0,L|158:189,1,132.00000402832,8|0,0:3|0:0,0:0:0:0:
226,235,104293,6,0,L|221:280,3,44.0000013427735,0|0|0|0,3:0|0:0|0:0|0:0,0:0:0:0:
312,267,104636,2,0,L|307:312,3,44.0000013427735,8|0|0|0,3:2|0:0|0:0|0:0,0:0:0:0:
416,92,104979,70,0,L|411:47,3,44.0000013427735,0|0|0|0,3:0|0:0|0:0|0:0,0:0:0:0:
502,60,105322,2,0,L|497:15,3,44.0000013427735,8|0|0|0,3:2|0:0|0:0|0:0,0:0:0:0:
488,236,105665,6,0,L|493:281,3,44.0000013427735,0|0|0|0,3:0|0:0|0:0|0:0,0:0:0:0:
402,268,106007,2,0,L|407:313,3,44.0000013427735,8|0|0|0,3:2|0:0|0:0|0:0,0:0:0:0:
316,93,106350,70,0,L|321:48,3,44.0000013427735,0|0|0|0,3:0|0:0|0:0|0:0,0:0:0:0:
230,61,106693,2,0,L|235:16,3,44.0000013427735,8|0|0|0,3:2|0:0|0:0|0:0,0:0:0:0:
44,192,107036,5,0,3:0:0:0:
240,164,107207,1,0,3:0:0:0:
128,80,107379,1,8,3:2:0:0:
156,276,107550,1,0,3:0:0:0:
24,194,107722,69,0,3:0:0:0:
259,161,107893,1,0,3:0:0:0:
125,60,108065,1,8,3:2:0:0:
158,295,108236,1,0,3:0:0:0:
278,158,108407,5,0,3:0:0:0:
292,160,108492,1,0,3:0:0:0:
306,162,108578,1,0,3:0:0:0:
321,165,108664,1,0,3:0:0:0:
335,167,108749,1,0,3:0:0:0:
350,170,108835,1,0,3:0:0:0:
364,172,108921,1,0,3:0:0:0:
379,175,109007,1,0,3:0:0:0:
393,177,109093,69,8,0:3:0:0:
411,137,109178,1,8,0:3:0:0:
405,94,109264,1,0,3:0:0:0:
378,61,109350,1,0,3:0:0:0:
337,47,109436,6,0,L|340:92,1,44.0000013427735,10|0,0:3|3:0,0:0:0:0:
350,296,109607,2,0,L|348:252,1,44.0000013427735,8|0,0:3|0:0,0:0:0:0:
118,181,109779,70,0,B|176:170|176:170|233:185|233:185|292:175,1,176.000005371094,4|8,3:2|0:3,0:0:0:0:
247,8,110293,2,0,P|239:51|234:96,1,88.000002685547,0|0,3:0|0:0,0:0:0:0:
348,252,110636,1,0,3:0:0:0:
414,106,110807,2,0,P|370:91|329:97,1,88.000002685547,8|0,0:3|0:0,0:0:0:0:
118,181,111150,6,0,P|126:221|134:267,1,88.000002685547,0|0,3:0|0:0,0:0:0:0:
45,338,111493,1,8,0:3:0:0:
25,128,111665,1,0,3:0:0:0:
36,86,111750,1,0,0:0:0:0:
68,56,111836,1,0,0:0:0:0:
111,48,111922,1,0,0:0:0:0:
151,64,112007,1,0,3:0:0:0:
254,242,112179,2,0,P|246:284|240:328,1,88.000002685547,8|0,0:3|0:0,0:0:0:0:
444,268,112522,70,0,P|440:220|332:188,1,176.000005371094,0|8,3:0|0:3,0:0:0:0:
228,92,113036,2,0,P|236:48|244:-4,1,88.000002685547,0|0,3:0|0:0,0:0:0:0:
100,124,113379,1,0,3:0:0:0:
167,256,113550,2,0,P|210:248|253:241,1,88.000002685547,8|0,0:3|0:0,0:0:0:0:
88,372,113893,6,0,P|44:364|1:357,1,88.000002685547,0|0,3:0|0:0,0:0:0:0:
100,124,114236,1,8,0:3:0:0:
253,240,114407,1,0,3:0:0:0:
294,253,114492,1,0,0:0:0:0:
336,244,114578,1,0,0:0:0:0:
368,214,114664,1,0,0:0:0:0:
381,173,114749,1,0,3:0:0:0:
190,68,114922,2,0,P|198:112|204:155,1,88.000002685547,8|0,0:3|0:0,0:0:0:0:
239,326,115265,70,0,P|245:282|252:239,1,88.000002685547,0|0,3:0|0:0,0:0:0:0:
92,212,115607,1,8,0:3:0:0:
304,152,115779,2,0,P|395:163|480:176,1,176.000005371094,0|0,3:0|3:0,0:0:0:0:
512,15,116293,2,0,P|468:19|425:26,1,88.000002685547,8|0,0:3|0:0,0:0:0:0:
281,150,116636,5,0,3:0:0:0:
196,60,116807,1,0,0:0:0:0:
79,99,116979,1,8,0:3:0:0:
129,323,117150,1,0,3:0:0:0:
129,323,117236,1,0,0:0:0:0:
129,323,117322,2,0,L|173:316,1,44.0000013427735
347,291,117493,1,0,3:0:0:0:
260,384,117665,1,8,0:3:0:0:
237,207,117836,1,0,0:0:0:0:
237,207,117922,1,0,0:0:0:0:
237,207,118007,70,0,L|223:121,1,88.000002685547,0|0,3:0|0:0,0:0:0:0:
347,291,118350,1,8,0:3:0:0:
510,170,118522,2,0,B|466:162|466:162|424:174|424:174|380:166,1,132.00000402832,0|0,3:0|0:0,0:0:0:0:
321,114,118865,1,0,3:0:0:0:
347,291,119036,1,8,0:3:0:0:
237,207,119207,1,0,0:0:0:0:
237,207,119293,1,0,0:0:0:0:
237,207,119379,6,0,L|150:219,1,88.000002685547,0|0,3:0|0:0,0:0:0:0:
78,307,119722,1,8,0:3:0:0:
12,82,119893,2,0,B|60:63|96:91|96:91|123:51|171:57,1,176.000005371094,0|0,3:0|3:0,0:0:0:0:
237,207,120407,2,0,P|231:250|229:296,1,88.000002685547,8|0,0:3|0:0,0:0:0:0:
392,366,120750,70,0,P|390:322|383:278,1,88.000002685547,0|0,3:0|0:0,0:0:0:0:
491,193,121093,1,8,0:3:0:0:
296,138,121265,2,0,P|301:95|413:66,1,176.000005371094,0|0,3:0|3:0,0:0:0:0:
491,193,121779,2,0,P|448:188|403:186,1,88.000002685547,8|0,0:3|0:0,0:0:0:0:
296,138,122122,5,0,3:0:0:0:
182,185,122293,1,0,0:0:0:0:
75,137,122465,1,8,0:3:0:0:
92,328,122636,1,0,3:0:0:0:
93,339,122721,1,0,0:0:0:0:
95,350,122807,1,0,0:0:0:0:
96,361,122893,1,0,0:0:0:0:
97,372,122978,1,0,3:0:0:0:
270,230,123150,2,0,L|258:320,1,88.000002685547,8|0,0:3|0:0,0:0:0:0:
463,226,123493,70,0,B|404:215|404:215|347:230|347:230|290:220,1,176.000005371094,0|8,3:0|0:3,0:0:0:0:
259,47,124007,2,0,P|299:30|345:38,1,88.000002685547,0|0,3:0|0:0,0:0:0:0:
270,230,124350,1,0,3:0:0:0:
168,104,124522,2,0,L|80:96,1,88.000002685547,8|0,0:3|0:0,0:0:0:0:
62,94,124779,1,0,0:0:0:0:
44,92,124865,5,0,3:0:0:0:
68,231,125036,1,0,0:0:0:0:
246,369,125207,69,8,0:3:0:0:
270,230,125379,2,0,L|284:144,1,88.000002685547,0|0,3:0|0:0,0:0:0:0:
475,119,125722,5,0,3:0:0:0:
459,91,125807,1,0,0:0:0:0:
432,71,125893,1,8,0:3:0:0:
400,65,125979,1,0,0:0:0:0:
369,72,126064,1,0,0:0:0:0:
390,210,126236,70,0,L|394:254,3,44.0000013427735,0|0|0|0,3:0|0:0|0:0|0:0,0:0:0:0:
472,196,126579,2,0,L|476:240,3,44.0000013427735,8|0|0|0,0:3|0:0|3:0|0:0,0:0:0:0:
369,72,126922,6,0,L|365:28,3,44.0000013427735,0|0|0|0,0:0|0:0|3:0|0:0,0:0:0:0:
287,86,127265,2,0,L|283:42,3,44.0000013427735,8|0|0|0,0:3|0:0|0:0|0:0,0:0:0:0:
188,210,127607,70,0,L|184:254,3,44.0000013427735,0|0|0|0,3:0|0:0|0:0|0:0,0:0:0:0:
106,196,127950,2,0,L|102:240,3,44.0000013427735,8|0|0|0,0:3|0:0|3:0|0:0,0:0:0:0:
205,72,128293,6,0,L|209:28,3,44.0000013427735,0|0|0|0,0:0|0:0|3:0|0:0,0:0:0:0:
287,86,128636,2,0,L|291:42,3,44.0000013427735,8|0|0|0,0:3|0:0|0:0|0:0,0:0:0:0:
472,196,128979,69,0,3:0:0:0:
433,175,129064,1,0,0:0:0:0:
389,173,129150,1,0,0:0:0:0:
348,188,129236,1,0,0:0:0:0:
317,218,129321,1,8,0:3:0:0:
289,252,129407,1,0,0:0:0:0:
251,272,129493,1,0,3:0:0:0:
207,274,129579,1,0,0:0:0:0:
166,258,129664,5,0,0:0:0:0:
136,227,129750,1,0,0:0:0:0:
121,186,129836,1,0,3:0:0:0:
124,143,129922,1,0,0:0:0:0:
144,104,130007,1,8,0:3:0:0:
179,78,130093,1,0,0:0:0:0:
221,68,130179,1,0,0:0:0:0:
264,76,130264,1,0,0:0:0:0:
300,101,130350,70,0,L|344:92,1,44.0000013427735,0|0,3:0|0:0,0:0:0:0:
472,196,130522,2,0,L|428:186,1,44.0000013427735,0|0,3:0|0:0,0:0:0:0:
280,120,130693,6,0,L|324:111,1,44.0000013427735,8|0,0:3|0:0,0:0:0:0:
492,216,130865,2,0,L|448:206,1,44.0000013427735,0|0,3:0|0:0,0:0:0:0:
296,325,131036,69,8,0:3:0:0:
254,314,131122,1,8,0:3:0:0:
251,272,131208,1,0,3:0:0:0:
291,253,131293,1,0,3:0:0:0:
318,287,131379,1,10,0:3:0:0:
318,287,131722,22,0,L|196:276,1,120.000004577637,6|8,0:0|0:0,0:0:0:0:
133,329,132236,1,2,0:0:0:0:
120,246,132407,2,0,P|128:188|134:127,1,120.000004577637,2|10,0:0|0:0,0:0:0:0:
81,60,132922,6,0,P|91:26|176:13,1,120.000004577637,2|2,0:0|0:0,0:0:0:0:
228,62,133436,1,8,0:0:0:0:
228,62,133607,2,0,L|348:51,1,120.000004577637,2|0,0:0|0:0,0:0:0:0:
416,100,134122,2,0,P|409:131|405:166,1,60.0000022888184,10|2,0:0|0:0,0:0:0:0:
238,264,134465,70,0,P|253:223|335:208,1,120.000004577637,2|10,0:0|0:0,0:0:0:0:
382,259,134979,2,0,L|441:251,1,60.0000022888184,2|0,0:0|0:0,0:0:0:0:
369,342,135322,2,0,L|428:334,1,60.0000022888184,2|8,0:0|0:0,0:0:0:0:
284,360,135665,1,2,0:0:0:0:
284,360,135836,6,0,P|224:351|163:345,1,120.000004577637,0|8,0:0|0:0,0:0:0:0:
106,284,136350,2,0,P|100:244|164:199,1,120.000004577637
229,242,136865,1,10,0:0:0:0:
301,200,137036,1,2,0:0:0:0:
233,43,137207,70,0,L|228:163,1,120.000004577637,2|8,0:0|0:0,0:0:0:0:
301,200,137722,1,2,0:0:0:0:
301,200,137893,2,0,P|339:191|402:236,1,120.000004577637,2|8,0:0|0:0,0:0:0:0:
484,218,138407,1,2,0:0:0:0:
484,218,138579,6,0,P|474:279|468:340,1,120.000004577637,0|8,0:0|0:0,0:0:0:0:
384,349,139093,2,0,B|353:350|326:335|326:335|304:354|267:355,1,120.000004577637
206,298,139607,1,10,0:0:0:0:
206,298,139950,70,0,L|218:175,1,120.000004577637,2|10,0:0|0:0,0:0:0:0:
136,154,140465,2,0,L|124:273,1,120.000004577637,2|2,0:0|0:0,0:0:0:0:
53,319,140979,2,0,L|44:260,1,60.0000022888184,8|2,0:0|0:0,0:0:0:0:
4,185,141322,6,0,P|8:137|70:105,1,120.000004577637,0|8,0:0|0:0,0:0:0:0:
136,154,141836,1,0,0:0:0:0:
136,154,142179,5,0,3:0:0:0:
350,103,142350,1,10,0:3:0:0:
200,27,142522,5,0,3:0:0:0:
221,198,142693,2,0,L|240:358,1,160,4|8,3:2|0:3,0:0:0:0:
334,215,143207,69,0,0:0:0:0:
442,244,143379,2,0,L|432:323,1,80,0|0,0:0|3:0,0:0:0:0:
318,89,143722,5,8,0:3:0:0:
210,118,143894,2,0,L|220:197,1,80,0|0,0:0|3:0,0:0:0:0:
464,74,144236,70,0,L|454:153,1,80,0|8,0:0|0:3,0:0:0:0:
431,323,144579,1,0,0:0:0:0:
243,294,144750,1,0,0:0:0:0:
243,294,144836,1,0,0:0:0:0:
243,294,144922,1,0,3:0:0:0:
318,89,145093,1,8,0:3:0:0:
375,206,145265,1,0,0:0:0:0:
244,301,145436,6,0,L|164:291,1,80,0|0,3:0|0:0,0:0:0:0:
83,355,145779,1,8,0:3:0:0:
0,176,145950,2,0,P|34:157|74:156,1,80
97,49,146293,2,0,P|134:60|163:87,1,80,0|8,3:0|0:3,0:0:0:0:
164,291,146636,1,0,0:0:0:0:
154,273,146722,1,0,0:0:0:0:
144,255,146807,70,0,L|158:176,1,80,0|0,3:0|0:0,0:0:0:0:
284,77,147150,2,0,L|256:235,1,160,8|0,0:3|0:0,0:0:0:0:
354,318,147665,1,0,3:0:0:0:
450,201,147836,2,0,P|415:181|376:184,1,80,8|0,0:3|0:0,0:0:0:0:
274,326,148179,6,0,L|355:317,1,80,0|0,3:0|0:0,0:0:0:0:
270,155,148522,1,8,0:3:0:0:
204,364,148693,2,0,B|151:351|151:351|100:364|100:364|47:350,1,160,0|0,0:0|3:0,0:0:0:0:
91,191,149207,1,8,0:3:0:0:
100,270,149379,1,0,0:0:0:0:
18,119,149550,70,0,P|54:53|130:59,1,160,0|8,3:0|0:3,0:0:0:0:
206,211,150065,1,0,0:0:0:0:
254,15,150236,1,0,0:0:0:0:
344,152,150407,2,0,P|305:146|264:141,1,80,0|8,3:0|0:3,0:0:0:0:
100,270,150750,1,0,0:0:0:0:
100,270,150836,1,0,0:0:0:0:
100,270,150922,6,0,P|139:264|180:259,1,80,0|0,3:0|0:0,0:0:0:0:
402,351,151265,2,0,P|446:357|463:261,1,160,8|0,0:3|0:0,0:0:0:0:
317,319,151779,1,0,3:0:0:0:
338,155,151950,2,0,P|346:196|352:239,1,80,8|0,0:3|0:0,0:0:0:0:
186,369,152293,70,0,P|194:295|206:207,1,160,0|8,3:0|0:3,0:0:0:0:
115,53,152807,1,0,0:0:0:0:
115,53,152893,1,0,0:0:0:0:
115,53,152979,2,0,L|197:37,1,80,0|0,0:0|3:0,0:0:0:0:
383,151,153322,2,0,L|301:135,1,80,10|0,0:3|0:0,0:0:0:0:
105,164,153665,6,0,B|104:206|133:237|133:237|178:238|206:209,1,160,4|8,3:2|0:3,0:0:0:0:
20,180,154179,2,0,P|25:220|42:263,1,80,0|0,3:0|0:0,0:0:0:0:
258,283,154522,2,0,P|223:303|186:317,1,80,0|8,3:0|0:3,0:0:0:0:
188,122,154865,1,0,3:0:0:0:
188,122,155207,69,0,3:0:0:0:
383,151,155379,2,0,P|421:142|463:137,1,80,8|0,0:3|0:0,0:0:0:0:
259,48,155722,1,0,3:0:0:0:
319,238,155893,1,0,3:0:0:0:
396,72,156065,2,0,B|389:103|383:151,1,80,8|0,0:3|0:0,0:0:0:0:
420,310,156407,6,0,P|416:266|319:237,1,160,0|8,3:0|0:3,0:0:0:0:
188,122,156922,2,0,P|196:82|202:37,1,80,0|0,0:0|3:0,0:0:0:0:
36,100,157265,2,0,P|42:139|50:178,1,80,0|8,3:0|0:3,0:0:0:0:
174,261,157607,70,0,B|121:254|121:254|72:274|72:274|17:268,1,160,0|0,3:0|3:0,0:0:0:0:
134,342,158122,1,8,0:3:0:0:
134,342,158293,1,0,0:0:0:0:
231,200,158465,2,0,P|269:189|308:198,1,80,0|0,3:0|3:0,0:0:0:0:
311,342,158807,2,0,P|282:314|271:277,1,80,8|0,0:3|0:0,0:0:0:0:
367,109,159150,6,0,L|354:268,1,160,0|8,3:0|0:3,0:0:0:0:
492,152,159665,2,0,P|467:181|446:216,1,80
370,88,160007,1,0,3:0:0:0:
240,136,160179,2,0,P|258:170|273:207,1,80,8|0,0:3|0:0,0:0:0:0:
353,293,160522,70,0,L|366:134,1,160,0|8,3:0|0:3,0:0:0:0:
378,6,161036,1,0,0:0:0:0:
240,136,161207,2,0,P|203:128|162:123,1,80,0|0,0:0|3:0,0:0:0:0:
37,256,161550,2,0,P|73:248|115:243,1,80,8|0,0:3|0:0,0:0:0:0:
314,306,161893,6,0,P|318:268|240:303,1,160,0|8,3:0|0:3,0:0:0:0:
251,380,162407,1,0,0:0:0:0:
392,328,162579,2,0,P|432:332|472:340,1,80,0|0,0:0|3:0,0:0:0:0:
512,188,162922,2,0,P|472:192|432:199,1,80,8|0,0:3|0:0,0:0:0:0:
284,96,163265,70,0,P|284:52|384:12,1,160,0|8,3:0|0:3,0:0:0:0:
451,113,163779,2,0,P|441:152|434:192,1,80
297,227,164122,1,0,3:0:0:0:
297,227,164293,2,0,P|306:266|313:306,1,80,8|0,0:3|0:0,0:0:0:0:
116,342,164636,54,0,P|99:343|77:339,3,40,0|0|0|0,3:0|0:0|0:0|0:0,0:0:0:0:
0,239,164979,2,0,P|-1:222|3:200,3,40,8|0|0|0,3:2|0:0|0:0|0:0,0:0:0:0:
103,123,165322,2,0,P|120:122|142:126,3,40,0|0|0|0,3:0|0:0|0:0|0:0,0:0:0:0:
219,226,165665,2,0,P|220:243|216:265,3,40,8|0|0|0,3:2|0:0|0:0|0:0,0:0:0:0:
110,253,166007,6,0,P|109:236|113:214,3,40,0|0|0|0,3:0|0:0|0:0|0:0,0:0:0:0:
213,137,166350,2,0,P|230:136|252:140,3,40,8|0|0|0,3:2|0:0|0:0|0:0,0:0:0:0:
329,240,166693,2,0,P|330:257|326:279,3,40,0|0|0|0,3:0|0:0|0:0|0:0,0:0:0:0:
226,356,167036,2,0,P|209:357|187:353,3,40,8|0|0|0,3:2|0:0|0:0|0:0,0:0:0:0:
465,322,167379,69,0,3:0:0:0:
329,240,167550,1,0,3:0:0:0:
471,219,167722,5,8,3:2:0:0:
314,243,167893,1,0,3:0:0:0:
409,136,168065,69,0,3:0:0:0:
304,255,168236,1,0,3:0:0:0:
308,112,168407,5,8,3:2:0:0:
304,270,168578,1,0,3:0:0:0:
215,158,168750,69,0,3:0:0:0:
186,165,168836,1,0,3:0:0:0:
156,159,168922,1,0,3:0:0:0:
132,142,169007,1,0,3:0:0:0:
118,116,169093,1,0,3:0:0:0:
116,86,169179,1,0,3:0:0:0:
127,59,169265,1,0,3:0:0:0:
148,38,169350,1,0,3:0:0:0:
176,29,169436,6,0,L|183:68,1,40,8|8,0:3|0:3,0:0:0:0:
313,90,169607,1,0,3:0:0:0:
313,90,169693,1,0,3:0:0:0:
313,90,169779,2,0,L|306:130,1,40,10|0,0:3|3:0,0:0:0:0:
268,308,169950,1,8,0:3:0:0:
512,208,170122,38,0,B|434:167|423:242|342:196,1,176.000005371094,4|8,3:2|0:3,0:0:0:0:
380,41,170636,2,0,P|388:85|393:130,1,88.000002685547,0|0,3:0|0:0,0:0:0:0:
251,310,170979,2,0,P|255:266|263:223,1,88.000002685547,0|8,3:0|0:3,0:0:0:0:
181,86,171322,1,0,0:0:0:0:
181,86,171407,1,0,0:0:0:0:
181,86,171493,6,0,P|145:63|47:142,1,176.000005371094,0|8,3:0|0:3,0:0:0:0:
96,320,172007,1,0,3:0:0:0:
223,221,172179,1,2,0:0:0:0:
252,207,172264,1,2,0:0:0:0:
285,203,172350,1,2,3:2:0:0:
317,211,172436,1,2,0:0:0:0:
344,229,172521,1,8,0:3:0:0:
363,256,172607,1,0,0:0:0:0:
372,287,172693,1,0,0:0:0:0:
370,320,172779,1,0,0:0:0:0:
356,350,172865,70,0,L|268:340,1,88.000002685547,0|0,3:0|0:0,0:0:0:0:
96,320,173207,1,8,0:3:0:0:
223,221,173379,2,0,B|249:170|249:170|226:53,1,176.000005371094,0|0,3:0|3:0,0:0:0:0:
133,154,173893,1,8,0:3:0:0:
344,136,174065,1,0,0:0:0:0:
344,136,174150,1,0,0:0:0:0:
344,136,174236,6,0,L|431:124,1,88.000002685547,0|0,3:0|0:0,0:0:0:0:
356,350,174579,2,0,L|269:338,1,88.000002685547,8|0,0:3|3:0,0:0:0:0:
48,352,174922,1,0,0:0:0:0:
17,322,175007,1,0,0:0:0:0:
24,280,175093,1,0,3:0:0:0:
61,261,175179,1,2,0:0:0:0:
99,280,175265,2,0,L|144:272,1,44.0000013427735,8|2,0:3|0:0,0:0:0:0:
232,176,175436,2,0,L|187:167,1,44.0000013427735,2|2,0:0|0:0,0:0:0:0:
52,88,175607,70,0,P|48:40|144:64,1,176.000005371094,0|8,3:0|0:3,0:0:0:0:
142,49,176293,1,0,3:0:0:0:
104,200,176465,1,0,3:0:0:0:
321,155,176636,2,0,P|364:144|410:137,1,88.000002685547,8|0,0:3|0:0,0:0:0:0:
320,4,176979,6,0,L|308:180,1,176.000005371094,0|8,3:0|0:3,0:0:0:0:
490,311,177493,2,0,P|493:266|389:227,1,176.000005371094,0|0,3:0|3:0,0:0:0:0:
298,336,178007,1,8,0:3:0:0:
169,277,178179,1,0,0:0:0:0:
310,153,178350,70,0,L|304:241,1,88.000002685547,0|0,3:0|0:0,0:0:0:0:
162,183,178693,2,0,L|156:95,1,88.000002685547,8|0,0:3|0:0,0:0:0:0:
324,260,179036,6,0,L|330:172,1,88.000002685547,0|0,3:0|3:0,0:0:0:0:
136,76,179379,2,0,L|142:164,1,88.000002685547,8|0,0:3|0:0,0:0:0:0:
160,376,179722,69,0,3:0:0:0:
392,308,179893,1,0,3:0:0:0:
150,236,180065,5,8,0:3:0:0:
327,379,180236,1,0,3:0:0:0:
403,128,180407,69,8,0:3:0:0:
371,97,180492,1,8,0:3:0:0:
329,86,180578,1,0,3:0:0:0:
287,97,180664,1,0,3:0:0:0:
256,127,180750,2,0,P|215:121|170:114,1,88.000002685547,10|0,0:3|0:0,0:0:0:0:
44,296,181093,6,0,P|85:289|130:282,1,88.000002685547,4|0,3:2|0:0,0:0:0:0:
235,348,181436,1,8,0:3:0:0:
393,271,181607,2,0,L|370:96,1,176.000005371094,0|0,3:0|3:0,0:0:0:0:
233,29,182122,2,0,L|244:116,1,88.000002685547,8|0,0:3|0:0,0:0:0:0:
234,131,182379,1,0,0:0:0:0:
224,145,182465,70,0,P|185:128|138:131,1,88.000002685547,0|0,3:0|0:0,0:0:0:0:
79,301,182807,2,0,L|168:292,1,88.000002685547,8|0,0:3|3:0,0:0:0:0:
370,351,183150,1,2,0:0:0:0:
407,345,183235,1,2,0:0:0:0:
435,320,183321,1,2,3:2:0:0:
443,283,183407,1,2,0:0:0:0:
429,247,183492,1,8,0:3:0:0:
397,228,183578,1,0,0:0:0:0:
359,228,183664,1,0,0:0:0:0:
329,251,183750,1,0,0:0:0:0:
316,286,183836,6,0,L|328:109,1,176.000005371094,0|8,3:0|0:3,0:0:0:0:
194,27,184350,2,0,L|204:115,1,88.000002685547,0|0,3:0|0:0,0:0:0:0:
79,132,184693,2,0,L|130:202,1,88.000002685547,0|8,3:0|0:3,0:0:0:0:
53,319,185036,1,0,0:0:0:0:
53,319,185122,1,0,0:0:0:0:
53,319,185207,70,0,L|228:299,1,176.000005371094,0|8,3:0|0:3,0:0:0:0:
448,275,185722,1,0,3:0:0:0:
286,154,185893,1,2,0:0:0:0:
286,154,185979,1,2,0:0:0:0:
286,154,186065,2,0,L|290:198,1,44.0000013427735,2|2,3:2|0:0,0:0:0:0:
372,362,186236,1,8,0:3:0:0:
372,362,186322,1,2,0:0:0:0:
372,362,186408,2,0,L|376:318,1,44.0000013427735,2|0,0:0|0:0,0:0:0:0:
407,97,186579,5,0,3:0:0:0:
407,97,186922,2,0,P|366:78|323:82,1,88.000002685547,8|0,0:3|3:0,0:0:0:0:
381,262,187265,2,0,P|417:235|435:196,1,88.000002685547,0|0,0:0|3:0,0:0:0:0:
251,156,187607,2,0,P|255:201|280:236,1,88.000002685547,8|0,0:3|0:0,0:0:0:0:
346,173,187950,69,0,3:0:0:0:
345,172,188293,2,0,P|388:169|428:188,1,88.000002685547,8|0,0:3|3:0,0:0:0:0:
299,326,188636,2,0,P|275:290|271:247,1,88.000002685547,0|0,0:0|3:0,0:0:0:0:
456,289,188979,2,0,P|437:328|402:352,1,88.000002685547,8|0,0:3|0:0,0:0:0:0:
367,264,189322,6,0,L|396:128,1,132.00000402832,0|0,3:0|0:0,0:0:0:0:
350,69,189665,2,0,P|307:55|267:66,1,88.000002685547,8|0,0:3|0:0,0:0:0:0:
197,242,190007,69,0,3:0:0:0:
138,57,190179,1,0,3:0:0:0:
203,261,190350,2,0,P|196:303|191:349,1,88.000002685547,8|0,0:3|0:0,0:0:0:0:
70,180,190693,5,0,3:0:0:0:
296,152,190865,1,0,3:0:0:0:
56,167,191036,69,8,0:3:0:0:
306,137,191208,1,0,3:0:0:0:
53,48,191379,6,0,L|88:73,1,44.0000013427735,8|8,0:3|0:3,0:0:0:0:
265,14,191550,2,0,L|239:49,1,44.0000013427735,0|0,3:0|3:0,0:0:0:0:
181,152,191722,70,0,L|195:239,1,88.000002685547,8|0,0:3|0:0,0:0:0:0:
65,342,192065,6,0,B|122:332|122:332|178:351|178:351|236:343,1,176.000005371094,0|8,3:0|0:3,0:0:0:0:
369,272,192579,2,0,P|328:254|285:263,1,88.000002685547,0|0,3:0|0:0,0:0:0:0:
418,384,192922,1,0,3:0:0:0:
460,223,193093,2,0,P|454:178|451:136,1,88.000002685547,8|0,0:3|0:0,0:0:0:0:
310,30,193436,70,0,P|258:26|212:134,1,176.000005371094,0|8,3:0|0:3,0:0:0:0:
363,144,193950,2,0,P|410:138|452:135,1,88.000002685547,0|0,3:0|0:0,0:0:0:0:
349,288,194293,2,0,P|396:290|438:294,1,88.000002685547,0|8,3:0|0:3,0:0:0:0:
258,209,194636,1,0,0:0:0:0:
258,209,194722,1,0,0:0:0:0:
258,209,194807,6,0,B|167:174|175:250|89:212,1,176.000005371094,0|8,3:0|0:3,0:0:0:0:
34,45,195322,2,0,P|74:26|116:30,1,88.000002685547,0|0,3:0|0:0,0:0:0:0:
69,202,195665,1,0,3:0:0:0:
196,57,195836,2,0,P|232:82|249:120,1,88.000002685547,8|0,0:3|0:0,0:0:0:0:
69,202,196179,70,0,L|156:191,1,88.000002685547,0|0,3:0|0:0,0:0:0:0:
248,259,196522,1,8,0:3:0:0:
266,29,196693,2,0,P|250:117|244:159,1,132.00000402832,0|0,3:0|0:0,0:0:0:0:
316,188,197036,2,0,P|355:166|398:167,1,88.000002685547,0|10,3:0|0:3,0:0:0:0:
500,326,197379,1,0,0:0:0:0:
485,335,197465,1,0,0:0:0:0:
470,345,197550,6,0,B|412:337|412:337|356:356|356:356|299:346,1,176.000005371094,4|8,3:2|0:3,0:0:0:0:
162,276,198065,2,0,P|115:272|52:370,1,176.000005371094,0|0,3:0|3:0,0:0:0:0:
256,252,198579,2,0,P|264:210|269:165,1,88.000002685547,8|0,0:3|0:0,0:0:0:0:
212,75,198922,69,0,3:0:0:0:
107,79,199094,1,0,0:0:0:0:
57,171,199265,1,8,0:3:0:0:
131,351,199436,2,0,P|176:345|219:342,1,88.000002685547,0|0,3:0|0:0,0:0:0:0:
325,382,199779,1,0,3:0:0:0:
397,152,199950,1,8,0:3:0:0:
494,255,200122,1,0,0:0:0:0:
494,255,200207,1,0,0:0:0:0:
494,255,200293,6,0,P|450:248|406:244,1,88.000002685547,0|0,3:0|0:0,0:0:0:0:
307,279,200636,1,8,0:3:0:0:
298,91,200807,2,0,P|304:135|308:188,1,88.000002685547,0|0,3:0|0:0,0:0:0:0:
140,265,201150,2,0,P|143:221|149:177,1,88.000002685547,0|8,3:0|0:3,0:0:0:0:
14,77,201493,1,0,0:0:0:0:
14,77,201579,1,0,0:0:0:0:
14,77,201665,70,0,B|57:70|57:70|99:84|99:84|142:78,1,132.00000402832,0|0,3:0|0:0,0:0:0:0:
207,33,202007,2,0,P|254:38|288:61,1,88.000002685547,8|0,0:3|3:0,0:0:0:0:
374,0,202350,2,0,P|393:43|390:84,1,88.000002685547,0|0,0:0|3:0,0:0:0:0:
148,177,202693,2,0,P|191:158|232:161,1,88.000002685547,8|0,0:3|0:0,0:0:0:0:
376,245,203036,6,0,B|318:237|318:237|262:256|262:256|205:246,1,176.000005371094,0|8,3:0|0:3,0:0:0:0:
84,276,203550,2,0,P|64:314|66:358,1,88.000002685547,0|0,3:0|0:0,0:0:0:0:
188,344,203893,1,0,3:0:0:0:
148,177,204065,2,0,P|154:107|161:46,1,132.00000402832,8|0,0:3|0:0,0:0:0:0:
236,70,204407,70,0,P|280:77|317:58,1,88.000002685547,0|0,3:0|0:0,0:0:0:0:
402,262,204750,1,8,0:3:0:0:
451,175,204922,2,0,B|393:165|393:165|337:184|337:184|279:173,1,176.000005371094,0|0,3:0|3:0,0:0:0:0:
182,249,205436,2,0,P|190:292|194:335,1,88.000002685547,8|0,0:3|0:0,0:0:0:0:
42,176,205779,6,0,P|46:116|151:86,1,176.000005371094,0|8,3:0|0:3,0:0:0:0:
246,109,206293,1,0,3:0:0:0:
263,0,206465,2,0,P|251:49|245:90,1,88.000002685547,0|0,0:0|3:0,0:0:0:0:
402,165,206807,2,0,P|363:145|319:146,1,88.000002685547,8|0,0:3|0:0,0:0:0:0:
292,347,207150,70,0,L|468:332,1,176.000005371094,0|8,3:0|0:3,0:0:0:0:
345,224,207665,1,0,3:0:0:0:
188,264,207836,2,0,B|197:307|201:351,1,88.000002685547,0|0,0:0|3:0,0:0:0:0:
72,252,208179,2,0,B|69:295|62:339,1,88.000002685547,8|0,0:3|0:0,0:0:0:0:
3,176,208522,5,0,3:0:0:0:
182,248,208693,1,0,0:0:0:0:
56,356,208865,1,8,0:3:0:0:
75,118,209036,2,0,B|133:108|133:108|190:128|190:128|246:119,1,176.000005371094,0|0,3:0|3:0,0:0:0:0:
326,188,209550,1,8,0:3:0:0:
500,115,209722,1,0,0:0:0:0:
391,29,209893,70,0,P|385:73|381:117,1,88.000002685547,0|0,3:0|0:0,0:0:0:0:
413,352,210236,1,8,0:3:0:0:
458,265,210407,2,0,B|400:257|400:257|344:276|344:276|287:266,1,176.000005371094,0|0,3:0|3:0,0:0:0:0:
110,215,210922,1,8,0:3:0:0:
163,373,211093,1,0,0:0:0:0:
201,106,211265,6,0,P|161:87|119:89,1,88.000002685547,0|0,3:0|0:0,0:0:0:0:
23,228,211607,1,8,0:3:0:0:
23,228,211779,2,0,L|110:216,1,88.000002685547,0|0,3:0|0:0,0:0:0:0:
245,327,212122,1,0,3:0:0:0:
163,373,212293,2,0,P|151:330|161:289,1,88.000002685547,8|0,0:3|0:0,0:0:0:0:
417,321,212636,70,0,B|359:314|359:314|303:334|303:334|246:328,1,176.000005371094,0|8,3:0|0:3,0:0:0:0:
283,154,213150,1,0,3:0:0:0:
283,154,213322,2,0,P|289:197|292:242,1,88.000002685547,0|0,0:0|3:0,0:0:0:0:
417,321,213665,2,0,P|419:277|425:233,1,88.000002685547,8|0,0:3|0:0,0:0:0:0:
461,65,214007,6,0,L|505:57,3,44.0000013427735,0|0|0|0,3:0|0:0|0:0|0:0,0:0:0:0:
338,36,214350,2,0,L|382:28,3,44.0000013427735,8|0|0|0,0:3|0:0|3:0|0:0,0:0:0:0:
207,63,214693,2,0,L|251:55,3,44.0000013427735,0|0|0|0,0:0|0:0|3:0|0:0,0:0:0:0:
84,34,215036,2,0,L|128:26,3,44.0000013427735,8|0|0|0,0:3|0:0|0:0|0:0,0:0:0:0:
24,91,215379,69,0,3:0:0:0:
11,132,215464,1,0,0:0:0:0:
14,176,215550,1,0,0:0:0:0:
34,214,215636,1,0,0:0:0:0:
67,243,215721,1,8,0:3:0:0:
107,259,215807,1,0,0:0:0:0:
151,257,215893,1,0,3:0:0:0:
192,239,215979,1,0,0:0:0:0:
223,208,216064,5,0,0:0:0:0:
253,176,216150,1,0,0:0:0:0:
293,158,216236,1,0,3:0:0:0:
337,157,216322,1,0,0:0:0:0:
378,172,216407,1,8,0:3:0:0:
411,201,216493,1,0,0:0:0:0:
430,239,216579,1,0,0:0:0:0:
434,283,216665,1,0,0:0:0:0:
422,325,216750,70,0,P|399:320|377:320,3,44.0000013427735,0|0|0|0,3:0|0:0|0:0|0:0,0:0:0:0:
335,234,217093,2,0,P|316:246|300:262,3,44.0000013427735,8|0|0|0,0:3|0:0|3:0|0:0,0:0:0:0:
208,231,217436,2,0,P|204:252|203:274,3,44.0000013427735,0|0|0|0,0:0|0:0|3:0|0:0,0:0:0:0:
117,317,217779,2,0,P|129:335|144:350,3,44.0000013427735,8|0|0|0,0:3|0:0|0:0|0:0,0:0:0:0:
32,309,218122,5,0,3:0:0:0:
35,287,218207,1,0,0:0:0:0:
38,265,218293,1,0,0:0:0:0:
41,243,218379,1,0,0:0:0:0:
44,221,218464,1,8,0:3:0:0:
46,200,218550,1,0,0:0:0:0:
48,178,218636,69,0,3:0:0:0:
28,140,218722,1,0,0:0:0:0:
35,97,218808,1,0,0:0:0:0:
67,68,218894,1,0,0:0:0:0:
110,65,218979,1,0,3:0:0:0:
146,89,219065,1,0,0:0:0:0:
160,130,219150,6,0,L|204:124,1,44.0000013427735,10|0,0:3|0:0,0:0:0:0:
320,228,219322,2,0,L|276:221,1,44.0000013427735
135,283,219493,6,0,P|119:323|129:369,1,88.000002685547,4|2,0:0|0:0,0:0:0:0:
215,374,219836,2,0,P|231:334|221:288,1,88.000002685547,8|0,0:0|0:0,0:0:0:0:
186,210,220179,1,2,0:0:0:0:
203,124,220350,1,0,0:0:0:0:
283,87,220522,1,10,0:0:0:0:
315,82,220607,1,2,0:0:0:0:
347,92,220693,1,0,0:0:0:0:
373,113,220779,1,2,0:0:0:0:
388,141,220864,1,0,0:0:0:0:
474,158,221036,5,2,0:0:0:0:
474,158,221122,1,0,0:0:0:0:
474,158,221207,2,0,P|468:178|464:202,1,44.0000013427735,10|2,0:0|0:0,0:0:0:0:
354,237,221379,2,0,P|359:257|364:281,1,44.0000013427735
321,358,221550,69,2,0:0:0:0:
145,338,221722,1,2,0:0:0:0:
233,348,221893,5,10,0:0:0:0:
57,329,222065,1,2,0:0:0:0:
145,338,222236,70,0,B|159:297|159:297|148:253,1,88.000002685547,0|2,0:0|0:0,0:0:0:0:
122,169,222579,1,10,0:0:0:0:
194,119,222750,1,2,0:0:0:0:
194,119,222836,1,2,0:0:0:0:
194,119,222922,1,0,0:0:0:0:
194,119,223007,1,2,0:0:0:0:
194,119,223093,1,0,0:0:0:0:
265,171,223265,1,10,0:0:0:0:
236,254,223436,1,0,0:0:0:0:
323,248,223607,6,0,L|372:244,1,44.0000013427735,2|0,0:0|0:0,0:0:0:0:
458,163,223779,2,0,L|436:207,1,44.0000013427735,2|0,0:0|0:0,0:0:0:0:
465,322,223950,2,0,L|437:281,1,44.0000013427735,10|0,0:0|0:0,0:0:0:0:
362,157,224122,1,2,0:0:0:0:
310,85,224293,1,2,0:0:0:0:
312,74,224378,1,0,0:0:0:0:
315,61,224464,1,2,0:0:0:0:
317,50,224550,1,2,0:0:0:0:
320,39,224635,1,10,0:0:0:0:
232,46,224807,1,0,0:0:0:0:
144,53,224979,70,0,L|157:141,1,88.000002685547,2|0,0:0|0:0,0:0:0:0:
0,185,225322,1,8,0:0:0:0:
20,176,225407,1,2,0:0:0:0:
41,173,225493,1,0,0:0:0:0:
63,178,225579,1,2,0:0:0:0:
82,188,225665,2,0,P|78:209|77:237,2,44.0000013427735,2|2|0,0:0|0:0|0:0,0:0:0:0:
177,220,226007,2,0,P|220:215|266:212,1,88.000002685547,10|0,0:0|0:0,0:0:0:0:
320,143,226350,5,2,0:0:0:0:
351,225,226522,1,2,0:0:0:0:
349,246,226607,1,0,0:0:0:0:
347,268,226693,1,8,0:0:0:0:
453,337,226865,1,0,0:0:0:0:
431,332,226950,1,2,0:0:0:0:
409,334,227036,1,0,0:0:0:0:
389,343,227122,1,0,0:0:0:0:
372,358,227207,2,0,L|328:354,1,44.0000013427735,2|0,0:0|0:0,0:0:0:0:
441,236,227379,2,0,L|435:190,3,44.0000013427735,8|0|0|0,0:0|0:0|0:0|0:0,0:0:0:0:
422,113,227722,69,2,0:0:0:0:
341,147,227893,2,0,L|296:141,1,44.0000013427735,0|2,0:0|0:0,0:0:0:0:
255,63,228065,1,8,0:0:0:0:
224,49,228150,1,0,0:0:0:0:
192,52,228236,1,0,0:0:0:0:
164,69,228322,1,0,0:0:0:0:
147,97,228407,2,0,L|157:142,1,44.0000013427735,2|2,0:0|0:0,0:0:0:0:
226,196,228579,2,0,L|216:240,1,44.0000013427735,0|2,0:0|0:0,0:0:0:0:
193,324,228750,1,8,0:0:0:0:
264,376,228922,1,2,0:0:0:0:
335,325,229093,5,0,0:0:0:0:
304,242,229265,2,0,L|313:199,1,44.0000013427735
478,241,229436,1,10,0:0:0:0:
458,250,229521,1,2,0:0:0:0:
436,252,229607,1,0,0:0:0:0:
415,248,229693,1,0,0:0:0:0:
396,236,229778,1,2,0:0:0:0:
440,159,229950,5,0,3:0:0:0:
403,30,230122,1,10,0:3:0:0:
428,164,230293,21,2,3:2:0:0:
388,26,230465,1,4,3:2:0:0:
318,123,230636,53,0,0:0:0:0:
121,88,230807,1,8,0:3:0:0:
235,24,230979,1,0,0:0:0:0:
197,297,231150,2,0,P|151:289|98:284,1,100,0|0,0:0|3:0,0:0:0:0:
266,213,231493,21,8,0:3:0:0:
314,202,231579,1,0,0:0:0:0:
359,221,231665,1,0,0:0:0:0:
385,263,231750,1,0,0:0:0:0:
382,312,231836,1,0,3:0:0:0:
189,378,232007,53,0,0:0:0:0:
190,362,232093,1,0,0:0:0:0:
191,346,232179,2,0,L|196:295,1,50,8|0,0:3|0:0,0:0:0:0:
91,209,232350,2,0,L|96:259,1,50
266,213,232522,22,0,P|289:201|308:186,1,50
329,110,232693,2,0,P|317:86|302:67,1,50,0|0,3:0|0:0,0:0:0:0:
226,47,232865,2,0,P|202:58|183:73,1,50,8|0,0:3|0:0,0:0:0:0:
162,150,233036,2,0,P|173:173|188:192,1,50
99,91,233207,54,0,L|-1:79,1,100,0|0,3:0|0:0,0:0:0:0:
96,257,233550,2,0,L|196:245,1,100,8|0,0:3|0:0,0:0:0:0:
252,304,233807,1,0,0:0:0:0:
248,320,233892,1,0,0:0:0:0:
244,336,233978,1,0,0:0:0:0:
240,352,234064,1,0,3:0:0:0:
280,196,234236,1,8,0:3:0:0:
384,304,234407,1,0,0:0:0:0:
503,211,234579,22,0,L|463:243,1,50,0|0,3:0|0:0,0:0:0:0:
280,196,234750,2,0,L|311:235,1,50
396,68,234922,54,0,L|392:168,1,100,8|0,0:3|0:0,0:0:0:0:
384,304,235265,21,0,0:0:0:0:
383,316,235350,1,0,0:0:0:0:
383,328,235436,1,0,3:0:0:0:
382,341,235522,1,0,0:0:0:0:
382,353,235607,1,8,0:3:0:0:
392,167,235779,1,0,0:0:0:0:
396,68,235950,54,0,L|398:15,3,50,0|0|0|0,3:0|0:0|0:0|0:0,0:0:0:0:
316,112,236293,2,0,P|292:106|264:104,1,50,8|0,3:2|0:0,0:0:0:0:
132,196,236465,1,0,0:0:0:0:
95,202,236550,1,0,0:0:0:0:
60,190,236636,1,0,3:0:0:0:
37,161,236722,1,0,0:0:0:0:
33,124,236807,2,0,P|33:97|39:71,1,50
208,164,236979,2,0,P|216:188|214:213,1,50,8|0,3:2|0:0,0:0:0:0:
96,292,237150,2,0,L|148:284,1,50
268,360,237322,22,0,L|218:352,3,50,0|0|0|0,3:0|0:0|0:0|0:0,0:0:0:0:
348,313,237665,2,0,P|352:288|348:264,1,50,8|0,3:2|0:0,0:0:0:0:
488,189,237836,1,0,0:0:0:0:
477,199,237922,1,0,0:0:0:0:
466,209,238007,2,0,L|416:204,1,50,0|0,3:0|0:0,0:0:0:0:
258,161,238179,2,0,L|308:156,1,50
485,92,238350,1,8,3:2:0:0:
477,55,238436,1,0,0:0:0:0:
452,28,238522,1,0,0:0:0:0:
416,18,238607,1,0,0:0:0:0:
381,29,238693,53,0,3:0:0:0:
347,263,238865,1,0,3:0:0:0:
268,62,239036,21,8,3:2:0:0:
355,281,239207,1,0,3:0:0:0:
186,147,239379,53,0,3:0:0:0:
371,293,239550,1,0,3:0:0:0:
157,261,239722,21,8,3:2:0:0:
390,295,239893,1,0,3:0:0:0:
108,362,240065,53,0,3:0:0:0:
71,330,240150,1,0,3:0:0:0:
71,282,240236,1,0,3:0:0:0:
108,251,240322,1,0,3:0:0:0:
156,260,240407,1,0,3:0:0:0:
203,268,240493,1,0,3:0:0:0:
240,238,240579,1,0,3:0:0:0:
241,189,240665,1,0,3:0:0:0:
204,158,240750,22,0,L|156:169,1,50,8|8,0:3|0:3,0:0:0:0:
18,56,240922,1,0,3:0:0:0:
29,46,241007,1,0,3:0:0:0:
41,37,241093,2,0,L|89:48,1,50,10|0,0:3|3:0,0:0:0:0:
168,148,241265,2,0,L|216:137,1,50,8|0,0:3|0:0,0:0:0:0:
358,114,241436,22,0,P|366:84|364:53,1,60.0000022888184,6|2,0:0|0:0,0:0:0:0:
410,202,241779,1,2,0:0:0:0:
410,202,241950,2,0,L|469:198,1,60.0000022888184,2|0,0:0|0:0,0:0:0:0:
352,287,242293,2,0,P|360:317|358:348,1,60.0000022888184,2|0,0:0|0:0,0:0:0:0:
301,201,242636,6,0,L|179:193,1,120.000004577637,2|0,0:0|0:0,0:0:0:0:
249,109,243150,1,2,0:0:0:0:
90,148,243322,2,0,P|79:177|81:206,1,60.0000022888184,2|0,0:0|0:0,0:0:0:0:
235,288,243665,1,2,0:0:0:0:
459,189,244007,69,2,0:0:0:0:
459,189,244179,2,0,P|470:128|442:80,1,120.000004577637,2|2,0:0|0:0,0:0:0:0:
359,96,244693,2,0,P|348:157|376:205,1,120.000004577637,2|2,0:0|0:0,0:0:0:0:
375,204,245379,2,0,L|254:192,1,120.000004577637,2|0,0:0|0:0,0:0:0:0:
299,360,245893,5,2,0:0:0:0:
275,274,246065,2,0,L|335:280,1,60.0000022888184,2|0,0:0|0:0,0:0:0:0:
376,199,246407,2,0,L|255:187,1,120.000004577637,2|0,0:0|0:0,0:0:0:0:
11,169,246922,70,0,P|6:111|45:68,1,120.000004577637,2|0,0:0|0:0,0:0:0:0:
117,149,247607,2,0,P|69:182|12:170,1,120.000004577637,2|0,0:0|0:0,0:0:0:0:
46,69,248293,2,0,P|98:93|116:148,1,120.000004577637,2|0,0:0|0:0,0:0:0:0:
20,319,248807,6,0,B|79:311|79:311|138:329|138:329|198:321,1,180.000006866455,2|2,0:0|0:0,0:0:0:0:
270,360,249493,1,2,0:0:0:0:
267,275,249665,69,2,0:0:0:0:
267,275,250007,1,2,0:0:0:0:
413,192,250350,5,2,0:0:0:0:
413,192,250692,1,2,0:0:0:0:
74,142,251036,70,0,L|43:148,3,30.0000011444092,2|2|2|2,0:0|0:0|0:0|0:0,0:0:0:0:
127,83,251379,2,0,L|100:65,3,30.0000011444092
223,75,251722,2,0,L|217:44,3,30.0000011444092,2|0|0|0,0:0|0:0|0:0|0:0,0:0:0:0:
325,128,252065,2,0,L|342:101,3,30.0000011444092,2|0|0|0,0:0|0:0|0:0|0:0,0:0:0:0:
329,206,252407,54,0,P|286:200|242:197,1,88.000002685547,4|0,3:2|0:0,0:0:0:0:
71,308,252750,1,8,0:3:0:0:
71,308,252922,2,0,B|100:248|100:248|73:142,1,176.000005371094,0|0,3:0|3:0,0:0:0:0:
213,26,253436,2,0,P|208:70|200:116,1,88.000002685547,8|0,0:3|0:0,0:0:0:0:
215,128,253693,1,0,0:0:0:0:
230,143,253779,6,0,L|317:135,1,88.000002685547,0|0,3:0|0:0,0:0:0:0:
492,119,254122,1,8,0:3:0:0:
388,34,254293,1,0,3:0:0:0:
353,235,254465,1,2,0:0:0:0:
378,226,254550,1,2,0:0:0:0:
405,228,254636,1,2,3:2:0:0:
430,240,254722,1,2,0:0:0:0:
447,261,254807,1,8,0:3:0:0:
454,288,254893,1,0,0:0:0:0:
450,315,254979,1,0,0:0:0:0:
436,338,255065,1,0,0:0:0:0:
414,353,255150,70,0,L|239:337,1,176.000005371094,0|8,3:0|0:3,0:0:0:0:
151,247,255665,2,0,P|165:204|174:157,1,88.000002685547,0|0,3:0|0:0,0:0:0:0:
37,254,256007,2,0,P|31:209|19:162,1,88.000002685547,0|8,3:0|0:3,0:0:0:0:
175,38,256350,1,0,0:0:0:0:
175,38,256436,1,0,0:0:0:0:
175,38,256522,6,0,P|228:24|301:111,1,176.000005371094,0|8,3:0|0:3,0:0:0:0:
246,259,257036,1,0,3:0:0:0:
173,162,257207,1,2,0:0:0:0:
173,162,257293,1,2,0:0:0:0:
173,162,257379,2,0,L|218:154,1,44.0000013427735,2|2,3:2|0:0,0:0:0:0:
402,218,257550,1,8,0:3:0:0:
402,218,257636,1,2,0:0:0:0:
402,218,257722,2,0,L|357:210,1,44.0000013427735,2|0,0:0|0:0,0:0:0:0:
211,337,257893,69,0,3:0:0:0:
211,337,258236,2,0,L|216:246,1,88.000002685547,8|0,0:3|3:0,0:0:0:0:
301,47,258579,2,0,L|296:138,1,88.000002685547,0|0,0:0|3:0,0:0:0:0:
111,147,258922,2,0,L|202:152,1,88.000002685547,8|0,0:3|0:0,0:0:0:0:
401,237,259265,5,0,3:0:0:0:
401,237,259607,2,0,L|310:232,1,88.000002685547,8|0,0:3|3:0,0:0:0:0:
111,147,259950,2,0,L|202:152,1,88.000002685547,0|0,0:0|3:0,0:0:0:0:
211,337,260293,2,0,L|216:246,1,88.000002685547,8|0,0:3|0:0,0:0:0:0:
301,47,260636,70,0,L|296:138,1,88.000002685547,0|0,3:0|0:0,0:0:0:0:
111,147,260979,1,8,0:3:0:0:
111,147,261322,1,0,3:0:0:0:
296,134,261493,1,0,3:0:0:0:
181,2,261665,2,0,P|177:46|175:92,1,88.000002685547,8|0,0:3|0:0,0:0:0:0:
269,224,262007,5,2,3:2:0:0:
294,243,262093,1,2,0:0:0:0:
327,246,262179,1,2,0:0:0:0:
356,232,262265,1,2,0:0:0:0:
373,204,262350,1,8,0:3:0:0:
373,172,262436,1,0,0:0:0:0:
356,144,262522,1,0,3:0:0:0:
327,130,262607,1,0,0:0:0:0:
295,133,262693,70,0,L|300:89,3,44.0000013427735,0|0|0|0,0:0|0:0|3:2|0:0,0:0:0:0:
183,206,263036,2,0,L|187:251,1,44.0000013427735,8|0,0:3|0:0,0:0:0:0:
315,339,263207,1,0,0:0:0:0:
315,339,263293,1,0,0:0:0:0:
315,339,263379,6,0,B|257:331|257:331|201:350|201:350|144:340,1,176.000005371094,0|8,3:0|0:3,0:0:0:0:
52,281,263893,2,0,P|35:323|38:365,1,88.000002685547,0|0,0:0|3:0,0:0:0:0:
186,249,264236,2,0,P|188:205|171:165,1,88.000002685547,0|8,3:0|0:3,0:0:0:0:
23,51,264579,1,0,0:0:0:0:
40,64,264665,1,0,0:0:0:0:
56,77,264750,70,0,P|143:67|230:58,1,176.000005371094,0|8,3:0|0:3,0:0:0:0:
230,57,265436,1,0,3:0:0:0:
230,57,265607,1,0,3:0:0:0:
284,325,265779,2,0,B|199:300|197:362|112:328,1,176.000005371094,8|0,0:3|3:0,0:0:0:0:
112,328,266465,6,0,P|106:284|124:245,1,88.000002685547,8|0,0:3|0:0,0:0:0:0:
99,136,266807,2,0,P|59:152|33:187,1,88.000002685547,0|0,3:0|3:0,0:0:0:0:
76,31,267150,2,0,P|119:25|158:43,1,88.000002685547,8|0,0:3|0:0,0:0:0:0:
376,192,267493,69,0,3:0:0:0:
376,191,267836,2,0,P|415:173|459:174,1,88.000002685547,8|0,0:3|0:0,0:0:0:0:
263,200,268179,2,0,P|227:175|206:136,1,88.000002685547,0|0,3:0|3:0,0:0:0:0:
326,293,268522,2,0,P|322:336|299:373,1,88.000002685547,8|0,0:3|0:0,0:0:0:0:
62,303,268865,6,0,B|120:292|120:292|174:314|174:314|232:304,1,176.000005371094,0|8,3:0|0:3,0:0:0:0:
232,304,269550,1,0,3:0:0:0:
232,304,269722,1,0,3:0:0:0:
219,49,269893,1,8,0:3:0:0:
219,49,270236,69,0,3:0:0:0:
356,257,270407,1,0,3:0:0:0:
348,69,270579,5,8,0:3:0:0:
232,304,270750,1,0,3:0:0:0:
52,184,270922,69,8,0:3:0:0:
52,184,271007,1,8,0:3:0:0:
52,184,271093,1,0,3:0:0:0:
52,184,271179,1,0,3:0:0:0:
52,184,271265,2,0,L|140:172,1,88.000002685547,8|0,0:3|0:0,0:0:0:0:
324,343,271607,6,0,L|369:348,3,44.0000013427735,0|0|0|0,3:0|0:0|0:0|0:0,0:0:0:0:
356,257,271950,2,0,L|401:262,3,44.0000013427735,8|0|0|0,3:2|0:0|0:0|0:0,0:0:0:0:
181,153,272293,70,0,L|136:158,3,44.0000013427735,0|0|0|0,3:0|0:0|0:0|0:0,0:0:0:0:
149,67,272636,2,0,L|104:72,3,44.0000013427735,8|0|0|0,3:2|0:0|0:0|0:0,0:0:0:0:
325,81,272979,6,0,L|370:76,3,44.0000013427735,0|0|0|0,3:0|0:0|0:0|0:0,0:0:0:0:
357,167,273321,2,0,L|402:162,3,44.0000013427735,8|0|0|0,3:2|0:0|0:0|0:0,0:0:0:0:
182,253,273664,70,0,L|137:248,3,44.0000013427735,0|0|0|0,3:0|0:0|0:0|0:0,0:0:0:0:
150,339,274007,2,0,L|105:334,3,44.0000013427735,8|0|0|0,3:2|0:0|0:0|0:0,0:0:0:0:
324,343,274350,5,0,3:0:0:0:
138,248,274522,1,0,3:0:0:0:
356,257,274693,69,8,3:2:0:0:
137,157,274865,1,0,3:0:0:0:
357,167,275036,5,0,3:0:0:0:
138,248,275207,1,0,3:0:0:0:
325,81,275379,69,8,3:2:0:0:
137,157,275550,1,0,3:0:0:0:
480,196,275722,5,0,3:0:0:0:
503,161,275807,1,0,3:0:0:0:
508,119,275893,1,0,3:0:0:0:
497,78,275979,1,0,3:0:0:0:
469,47,276064,1,0,3:0:0:0:
431,29,276150,1,0,3:0:0:0:
389,28,276236,1,0,3:0:0:0:
350,46,276321,1,0,3:0:0:0:
325,81,276407,70,0,L|334:126,1,44.0000013427735,8|8,0:3|0:3,0:0:0:0:
200,212,276579,1,0,3:0:0:0:
192,196,276665,1,0,3:0:0:0:
184,179,276750,2,0,L|191:136,1,44.0000013427735,10|0,0:3|3:0,0:0:0:0:
409,127,276922,2,0,P|405:150|394:170,1,44.0000013427735,8|0,0:3|0:0,0:0:0:0:
132,69,277093,54,0,P|176:47|226:53,1,100,4|0,3:2|0:0,0:0:0:0:
184,306,277436,1,8,0:3:0:0:
294,236,277607,1,0,0:0:0:0:
427,348,277779,2,0,P|376:342|328:338,1,100,0|0,0:0|3:0,0:0:0:0:
485,240,278122,1,8,0:3:0:0:
337,149,278293,21,0,0:0:0:0:
338,134,278379,1,0,0:0:0:0:
339,119,278465,1,0,3:0:0:0:
120,143,278636,1,0,0:0:0:0:
91,113,278721,1,0,0:0:0:0:
88,72,278807,1,8,0:3:0:0:
112,39,278893,1,0,0:0:0:0:
151,28,278978,1,0,0:0:0:0:
189,45,279064,1,0,0:0:0:0:
206,82,279150,54,0,L|201:131,1,50
188,226,279322,2,0,L|183:275,1,50,0|0,3:0|0:0,0:0:0:0:
300,356,279493,22,0,L|305:307,1,50,8|0,0:3|0:0,0:0:0:0:
318,212,279665,2,0,L|323:163,1,50
228,160,279836,54,0,B|251:149|274:145|274:145|301:151|322:162,1,100,0|0,3:0|0:0,0:0:0:0:
508,136,280179,2,0,B|485:147|461:153|461:153|435:146|415:133,1,100,8|0,0:3|0:0,0:0:0:0:
464,56,280436,1,0,0:0:0:0:
467,39,280521,1,0,0:0:0:0:
469,22,280607,1,0,0:0:0:0:
471,6,280693,1,0,3:0:0:0:
323,163,280865,1,8,0:3:0:0:
221,50,281036,1,0,0:0:0:0:
145,194,281207,22,0,P|139:218|140:243,1,50,0|0,3:0|0:0,0:0:0:0:
334,178,281379,2,0,P|343:200|347:225,1,50
95,260,281550,54,0,P|117:273|136:289,1,50,8|0,0:3|0:0,0:0:0:0:
395,235,281722,2,0,P|375:251|359:271,1,50
253,355,281893,21,0,0:0:0:0:
253,355,281979,1,0,0:0:0:0:
253,355,282065,1,0,3:0:0:0:
253,355,282150,1,0,0:0:0:0:
253,355,282236,2,0,L|248:305,1,50,8|0,0:3|0:0,0:0:0:0:
239,203,282407,2,0,L|234:153,1,50
176,63,282579,54,0,B|200:60|222:44|222:44|246:56|271:54,1,100,0|0,3:0|0:0,0:0:0:0:
82,68,282922,22,0,P|93:90|101:113,1,50,8|0,0:3|0:0,0:0:0:0:
362,60,283093,2,0,P|354:84|353:109,1,50
234,153,283265,53,0,0:0:0:0:
236,177,283350,1,0,0:0:0:0:
238,202,283436,1,0,3:0:0:0:
423,258,283607,1,8,0:3:0:0:
352,108,283779,1,0,0:0:0:0:
295,286,283950,2,0,B|249:305|249:305|200:295,1,100,0|0,3:0|0:0,0:0:0:0:
41,217,284293,22,0,L|50:267,1,50,8|0,0:3|0:0,0:0:0:0:
224,151,284465,1,0,0:0:0:0:
224,151,284550,1,0,0:0:0:0:
224,151,284636,2,0,L|217:200,1,50
10,90,284807,2,0,L|19:140,1,50,0|0,3:0|0:0,0:0:0:0:
203,67,284979,1,8,0:3:0:0:
240,66,285064,1,0,0:0:0:0:
274,80,285150,1,0,0:0:0:0:
299,108,285236,1,0,0:0:0:0:
309,144,285322,2,0,L|408:133,1,100,0|0,3:0|0:0,0:0:0:0:
489,316,285665,54,0,L|439:310,1,50,8|0,0:3|0:0,0:0:0:0:
344,300,285836,2,0,L|294:294,1,50
195,232,286007,21,0,0:0:0:0:
183,254,286092,1,0,0:0:0:0:
172,276,286178,1,0,3:0:0:0:
177,301,286264,1,0,0:0:0:0:
182,325,286349,1,8,0:3:0:0:
27,259,286522,54,0,L|77:265,1,50
294,294,286693,1,0,3:0:0:0:
195,232,286865,22,0,L|201:182,1,50
293,113,287036,2,0,L|343:119,1,50,8|0,0:3|0:0,0:0:0:0:
412,211,287207,2,0,L|406:261,1,50
314,330,287379,54,0,L|264:324,1,50
168,311,287550,2,0,L|118:305,1,50,0|0,3:0|0:0,0:0:0:0:
275,223,287722,22,0,L|325:217,1,50,8|0,0:3|0:0,0:0:0:0:
421,204,287893,2,0,L|471:198,1,50
353,44,288065,54,0,B|341:92|341:92|361:140,1,100,0|0,3:0|0:0,0:0:0:0:
392,374,288407,2,0,B|404:326|404:326|384:278,1,100,8|0,0:3|0:0,0:0:0:0:
185,238,288750,21,0,0:0:0:0:
275,223,288922,1,0,3:0:0:0:
87,129,289093,54,0,L|118:167,1,50,8|0,0:3|0:0,0:0:0:0:
133,376,289265,2,0,L|150:329,1,50
72,256,289436,21,0,3:0:0:0:
275,223,289607,2,0,L|328:214,1,50
392,76,289779,1,8,0:3:0:0:
371,44,289865,1,0,0:0:0:0:
339,27,289950,1,0,0:0:0:0:
302,26,290036,1,0,0:0:0:0:
268,43,290122,54,0,L|217:37,1,50
125,25,290293,2,0,L|74:19,1,50,0|0,3:0|0:0,0:0:0:0:
23,155,290465,22,0,L|74:149,1,50,8|0,0:3|0:0,0:0:0:0:
166,137,290636,2,0,L|217:131,1,50
144,300,290807,54,0,B|119:255|119:255|128:208,1,100,0|0,3:0|0:0,0:0:0:0:
316,317,291150,1,8,0:3:0:0:
315,140,291322,1,0,0:0:0:0:
296,133,291407,1,0,0:0:0:0:
296,113,291493,1,0,0:0:0:0:
315,107,291579,1,0,0:0:0:0:
327,123,291665,22,0,L|331:172,1,50,0|0,3:0|0:0,0:0:0:0:
343,334,291836,2,0,L|339:285,1,50,8|0,0:3|0:0,0:0:0:0:
254,234,292007,53,0,0:0:0:0:
467,150,292179,22,0,P|442:160|424:175,1,50,0|0,3:0|0:0,0:0:0:0:
475,293,292350,2,0,P|450:284|432:270,1,50
254,233,292522,54,0,L|205:229,1,50,8|0,0:3|0:0,0:0:0:0:
56,216,292693,2,0,L|105:220,1,50
238,145,292865,21,0,0:0:0:0:
213,102,292950,1,0,0:0:0:0:
168,82,293036,1,0,3:0:0:0:
120,93,293122,1,0,0:0:0:0:
89,131,293207,1,8,0:3:0:0:
145,303,293379,53,0,0:0:0:0:
328,217,293550,21,0,3:0:0:0:
374,232,293636,1,0,0:0:0:0:
420,217,293722,1,0,0:0:0:0:
467,212,293807,1,0,0:0:0:0:
499,249,293893,1,8,0:3:0:0:
488,296,293979,1,0,0:0:0:0:
444,314,294065,1,0,0:0:0:0:
403,289,294150,1,0,0:0:0:0:
399,241,294236,53,0,0:0:0:0:
435,210,294322,1,0,0:0:0:0:
478,184,294407,1,0,3:0:0:0:
501,141,294493,1,0,0:0:0:0:
498,92,294579,1,8,0:3:0:0:
471,51,294665,1,0,0:0:0:0:
426,30,294750,1,0,0:0:0:0:
377,36,294836,1,0,0:0:0:0:
338,66,294922,22,0,P|316:60|288:57,3,50,0|0|0|0,3:0|0:0|0:0|0:0,0:0:0:0:
206,100,295265,2,0,P|189:116|172:138,3,50,8|0|0|0,0:3|0:0|0:0|0:0,0:0:0:0:
169,231,295607,2,0,P|174:253|186:278,3,50,0|0|0|0,0:0|0:0|3:0|0:0,0:0:0:0:
264,328,295950,2,0,P|286:334|314:337,3,50,8|0|0|0,0:3|0:0|0:0|0:0,0:0:0:0:
356,257,296293,53,0,3:0:0:0:
314,229,296379,1,0,0:0:0:0:
265,224,296465,1,0,0:0:0:0:
218,241,296550,1,0,0:0:0:0:
185,277,296636,1,8,0:3:0:0:
148,310,296722,1,0,0:0:0:0:
100,322,296807,1,0,0:0:0:0:
53,310,296893,1,0,0:0:0:0:
17,275,296979,21,0,0:0:0:0:
2,228,297065,1,0,0:0:0:0:
13,180,297150,1,0,3:0:0:0:
45,142,297236,1,0,0:0:0:0:
91,125,297322,54,0,P|117:134|146:137,1,50,8|0,0:3|0:0,0:0:0:0:
263,23,297493,2,0,P|242:41|225:64,1,50
265,224,297665,2,0,P|259:196|247:170,1,50,0|0,3:0|0:0,0:0:0:0:
103,222,297836,21,0,0:0:0:0:
103,222,297922,1,0,0:0:0:0:
103,222,298007,2,0,P|93:245|88:269,3,50,8|0|0|0,0:3|0:0|0:0|0:0,0:0:0:0:
172,350,298350,54,0,L|224:342,1,50
365,318,298522,2,0,L|315:325,1,50,0|0,3:0|0:0,0:0:0:0:
152,320,298693,22,0,L|201:325,1,50,10|0,0:3|0:0,0:0:0:0:
386,342,298865,2,0,L|336:336,1,50
272,256,299036,54,0,L|292:72,1,176.000005371094,12|8,3:2|0:3,0:0:0:0:
185,16,299550,1,0,0:0:0:0:
72,66,299722,2,0,P|59:108|72:152,1,88.000002685547,0|0,0:0|3:0,0:0:0:0:
161,232,300065,1,8,0:3:0:0:
130,219,300150,1,0,0:0:0:0:
98,222,300236,1,0,0:0:0:0:
70,239,300322,1,0,0:0:0:0:
53,267,300407,1,8,3:2:0:0:
101,380,300579,37,0,0:0:0:0:
101,380,300665,1,0,0:0:0:0:
101,380,300750,2,0,L|146:373,1,44.0000013427735,8|0,0:3|0:0,0:0:0:0:
219,313,300922,2,0,L|264:320,1,44.0000013427735
400,288,301093,38,0,P|423:276|444:260,1,44.0000013427735
463,185,301265,2,0,P|451:161|436:144,1,44.0000013427735,0|0,3:0|0:0,0:0:0:0:
360,122,301436,2,0,P|336:133|316:148,1,44.0000013427735,8|0,0:3|0:0,0:0:0:0:
296,225,301607,2,0,P|307:248|324:268,1,44.0000013427735
234,164,301779,38,0,P|193:146|151:154,1,88.000002685547,8|0,3:2|0:0,0:0:0:0:
53,278,302122,1,8,0:3:0:0:
4,214,302293,1,0,0:0:0:0:
22,202,302378,1,0,0:0:0:0:
43,196,302464,1,0,0:0:0:0:
65,196,302550,1,0,0:0:0:0:
86,203,302635,1,0,3:0:0:0:
197,257,302807,1,8,0:3:0:0:
165,376,302979,1,0,0:0:0:0:
291,313,303150,38,0,L|334:308,1,44.0000013427735,8|0,3:2|0:0,0:0:0:0:
446,331,303322,2,0,L|420:296,1,44.0000013427735
384,187,303493,2,0,L|366:226,1,44.0000013427735,8|0,0:3|0:0,0:0:0:0:
378,380,303665,37,0,0:0:0:0:
461,155,303836,1,0,0:0:0:0:
442,127,303921,1,0,0:0:0:0:
415,109,304007,1,0,3:0:0:0:
383,103,304093,1,0,0:0:0:0:
351,110,304178,1,8,0:3:0:0:
384,187,304350,1,0,0:0:0:0:
151,119,304522,37,8,3:2:0:0:
151,119,304693,1,0,0:0:0:0:
151,119,304865,2,0,L|156:166,1,44.0000013427735,8|0,0:3|0:0,0:0:0:0:
16,296,305036,1,0,0:0:0:0:
17,263,305121,1,0,0:0:0:0:
34,236,305207,1,0,0:0:0:0:
64,221,305293,1,0,0:0:0:0:
96,225,305378,1,0,3:0:0:0:
166,362,305550,2,0,P|212:357|254:354,1,88.000002685547,8|0,0:3|0:0,0:0:0:0:
401,266,305893,38,0,L|358:261,1,44.0000013427735,8|0,3:2|0:0,0:0:0:0:
192,241,306065,2,0,L|235:246,1,44.0000013427735
409,151,306236,38,0,L|369:168,1,44.0000013427735,8|0,0:3|0:0,0:0:0:0:
210,128,306407,2,0,L|244:153,1,44.0000013427735
322,41,306579,38,0,L|316:86,1,44.0000013427735
302,207,306750,1,0,3:0:0:0:
299,228,306835,1,0,0:0:0:0:
296,250,306921,1,8,0:3:0:0:
294,272,307007,1,0,0:0:0:0:
291,294,307093,2,0,L|285:339,1,44.0000013427735
110,255,307265,38,0,P|150:235|198:243,1,88.000002685547,8|0,3:2|0:0,0:0:0:0:
32,204,307607,1,8,0:3:0:0:
35,183,307692,1,0,0:0:0:0:
38,161,307778,1,0,0:0:0:0:
40,139,307864,1,0,0:0:0:0:
43,117,307950,38,0,L|49:72,1,44.0000013427735
140,184,308122,2,0,L|134:139,1,44.0000013427735,0|0,3:0|0:0,0:0:0:0:
184,32,308293,38,0,L|190:77,1,44.0000013427735,8|0,0:3|0:0,0:0:0:0:
281,99,308465,2,0,L|275:144,1,44.0000013427735
244,316,308636,37,8,3:2:0:0:
376,223,308807,1,0,0:0:0:0:
368,233,308893,1,0,0:0:0:0:
360,243,308979,2,0,L|317:237,1,44.0000013427735,8|0,0:3|0:0,0:0:0:0:
163,217,309150,2,0,L|206:223,1,44.0000013427735
281,99,309322,38,0,L|275:144,1,44.0000013427735
238,359,309493,2,0,L|243:315,1,44.0000013427735,0|0,3:0|0:0,0:0:0:0:
259,121,309665,38,0,L|260:166,1,44.0000013427735,8|0,0:3|0:0,0:0:0:0:
268,340,309836,2,0,L|266:296,1,44.0000013427735
416,236,310007,38,0,B|376:220|376:220|332:228,1,88.000002685547,8|0,3:2|0:0,0:0:0:0:
110,224,310350,2,0,B|150:240|150:240|194:232,1,88.000002685547,8|0,0:3|0:0,0:0:0:0:
252,37,310693,37,0,0:0:0:0:
163,123,310865,1,0,3:0:0:0:
50,72,311036,1,8,0:3:0:0:
57,92,311122,1,0,0:0:0:0:
62,114,311207,1,0,0:0:0:0:
63,136,311293,1,0,0:0:0:0:
62,158,311379,1,8,3:2:0:0:
26,276,311550,38,0,L|70:271,1,44.0000013427735
153,212,311722,1,8,0:3:0:0:
184,202,311807,1,0,0:0:0:0:
215,211,311893,1,0,0:0:0:0:
238,234,311979,1,0,0:0:0:0:
246,266,312065,38,0,L|289:275,1,44.0000013427735
416,259,312236,2,0,L|373:250,1,44.0000013427735,0|0,3:0|0:0,0:0:0:0:
312,130,312407,38,0,L|355:139,1,44.0000013427735,8|0,0:3|0:0,0:0:0:0:
482,123,312579,2,0,L|439:114,1,44.0000013427735
329,44,312750,38,0,L|313:130,1,88.000002685547,8|0,3:2|0:0,0:0:0:0:
200,182,313093,1,8,0:3:0:0:
212,304,313265,1,0,0:0:0:0:
213,314,313350,1,0,0:0:0:0:
214,325,313436,1,0,0:0:0:0:
215,336,313522,1,0,0:0:0:0:
216,347,313607,1,0,3:0:0:0:
93,255,313779,38,0,L|146:249,1,44.0000013427735,8|0,0:3|0:0,0:0:0:0:
322,229,313950,2,0,L|269:235,1,44.0000013427735
88,133,314122,38,0,L|136:154,1,44.0000013427735,8|0,3:2|0:0,0:0:0:0:
298,108,314293,2,0,L|255:139,1,44.0000013427735
181,33,314465,38,0,L|187:77,1,44.0000013427735,8|0,0:3|0:0,0:0:0:0:
200,182,314636,1,0,0:0:0:0:
212,304,314807,1,0,0:0:0:0:
213,314,314892,1,0,0:0:0:0:
214,325,314978,1,0,3:0:0:0:
215,336,315064,1,0,0:0:0:0:
216,347,315149,1,8,0:3:0:0:
322,229,315322,1,0,0:0:0:0:
200,182,315493,38,0,P|157:188|112:198,1,88.000002685547,8|0,3:2|0:0,0:0:0:0:
33,280,315836,1,8,0:3:0:0:
56,90,316007,1,0,0:0:0:0:
83,71,316092,1,0,0:0:0:0:
115,66,316178,1,0,0:0:0:0:
147,73,316264,1,0,0:0:0:0:
173,92,316350,1,0,3:0:0:0:
289,50,316522,2,0,L|281:138,1,88.000002685547,8|0,0:3|0:0,0:0:0:0:
379,179,316865,38,0,P|365:196|353:215,1,44.0000013427735,8|0,3:2|0:0,0:0:0:0:
178,169,317036,2,0,P|188:188|197:209,1,44.0000013427735
364,334,317207,38,0,P|354:315|345:294,1,44.0000013427735,8|0,0:3|0:0,0:0:0:0:
163,324,317379,2,0,P|177:307|189:288,1,44.0000013427735
281,137,317550,38,0,L|277:181,1,44.0000013427735
265,312,317721,2,0,L|269:268,1,44.0000013427735,0|0,3:0|0:0,0:0:0:0:
350,79,317893,1,8,0:3:0:0:
324,58,317978,1,0,0:0:0:0:
293,48,318064,1,0,0:0:0:0:
260,50,318150,1,0,0:0:0:0:
230,63,318236,38,0,L|240:150,1,88.000002685547,8|0,3:2|0:0,0:0:0:0:
381,163,318579,1,8,0:3:0:0:
379,173,318665,1,0,0:0:0:0:
378,184,318750,1,0,0:0:0:0:
377,195,318836,1,0,0:0:0:0:
376,206,318922,38,0,L|371:251,1,44.0000013427735
359,337,319093,2,0,L|354:382,1,44.0000013427735,0|0,3:0|0:0,0:0:0:0:
250,302,319265,38,0,L|245:258,1,44.0000013427735,8|0,0:3|0:0,0:0:0:0:
233,171,319436,2,0,L|228:127,1,44.0000013427735
217,39,319607,37,8,3:2:0:0:
46,115,319779,1,0,0:0:0:0:
28,83,319865,1,0,0:0:0:0:
35,48,319950,1,8,0:3:0:0:
64,27,320036,1,0,0:0:0:0:
100,30,320122,1,0,0:0:0:0:
125,56,320207,1,0,0:0:0:0:
126,92,320293,1,0,0:0:0:0:
32,208,320465,38,0,L|76:200,1,44.0000013427735,0|0,3:0|0:0,0:0:0:0:
233,171,320636,2,0,L|189:179,1,44.0000013427735,10|0,0:3|0:0,0:0:0:0:
165,342,320807,37,0,0:0:0:0:
160,316,320893,2,0,L|152:272,1,44.0000013427735,0|4,0:0|0:0,0:0:0:0:
