osu file format v14

[General]
AudioFilename: audio.mp3
AudioLeadIn: 0
PreviewTime: 272293
Countdown: 0
SampleSet: Soft
StackLeniency: 0
Mode: 0
LetterboxInBreaks: 0
WidescreenStoryboard: 0

[Editor]
DistanceSpacing: 0.3
BeatDivisor: 8
GridSize: 4
TimelineZoom: 2.7

[Metadata]
Title:Colorful (tamame's apostate remix)
TitleUnicode:カラフル (tamame's apostate remix)
Artist:ClariS
ArtistUnicode:ClariS
Creator:Bearizm
Version:Akuma
Source:劇場版 魔法少女まどか☆マギカ [新編] 叛逆の物語
Tags:colourful puella magi magical girl gekijouban mahou shoujo madoka magika magica shinpen hangyaku no monogatari rebellion
BeatmapID:1812392
BeatmapSetID:866938

[Difficulty]
HPDrainRate:6
CircleSize:4
OverallDifficulty:9
ApproachRate:9.3
SliderMultiplier:1.75
SliderTickRate:2

[Events]
//Background and Video events
0,0,"Colorful.jpg",0,0
//Break Periods
//Storyboard Layer 0 (Background)
//Storyboard Layer 1 (Fail)
//Storyboard Layer 2 (Pass)
//Storyboard Layer 3 (Foreground)
//Storyboard Sound Samples

[TimingPoints]
65,342.857142857143,4,2,1,60,1,0
11036,-200,4,2,1,60,0,0
11293,-200,4,2,1,5,0,0
11379,-200,4,2,1,60,0,0
12665,-200,4,2,1,5,0,0
12750,-200,4,2,1,60,0,0
14036,-200,4,2,1,5,0,0
14122,-200,4,2,1,60,0,0
15407,-200,4,2,1,5,0,0
15493,-200,4,2,1,60,0,0
16779,-200,4,2,1,5,0,0
16865,-200,4,2,1,60,0,0
18150,-200,4,2,1,5,0,0
18236,-200,4,2,1,60,0,0
19522,-200,4,2,1,5,0,0
19607,-200,4,2,1,60,0,0
20893,-200,4,2,1,5,0,0
20979,-200,4,2,1,60,0,0
22007,-100,4,2,1,70,0,0
44207,-100,4,2,1,5,0,0
44293,-100,4,2,1,70,0,0
49693,-100,4,2,1,5,0,0
49779,-100,4,2,1,70,0,0
52436,-100,4,2,1,5,0,0
52522,-100,4,2,1,70,0,0
55179,-100,4,2,1,5,0,0
55265,-100,4,2,1,70,0,0
62036,-100,4,2,1,5,0,0
62122,-100,4,2,1,70,0,0
65550,-400,4,2,1,70,0,0
65807,-400,4,2,1,5,0,0
65893,-100,4,2,1,70,0,0
82007,-80,4,2,1,70,0,0
82350,-80,4,2,1,80,0,1
82607,-80,4,2,1,5,0,1
82693,-80,4,2,1,80,0,1
83979,-80,4,2,1,5,0,1
84065,-80,4,2,1,80,0,1
86722,-80,4,2,1,5,0,1
86807,-80,4,2,1,80,0,1
90836,-80,4,2,1,5,0,1
90922,-80,4,2,1,80,0,1
91179,-80,4,2,1,5,0,1
91265,-80,4,2,1,80,0,1
92979,-400,4,2,1,80,0,1
93236,-400,4,2,1,5,0,1
93322,-80,4,2,1,80,0,1
93579,-80,4,2,1,5,0,1
93665,-80,4,2,1,80,0,1
96322,-80,4,2,1,5,0,1
96407,-80,4,2,1,80,0,1
97693,-80,4,2,1,5,0,1
97779,-80,4,2,1,80,0,1
101807,-80,4,2,1,5,0,1
101893,-80,4,2,1,80,0,1
109779,-90.9090909090909,4,2,1,80,0,0
110036,-90.9090909090909,4,2,1,5,0,0
110122,-90.9090909090909,4,2,1,80,0,0
120150,-90.9090909090909,4,2,1,5,0,0
120236,-90.9090909090909,4,2,1,80,0,0
121007,-90.9090909090909,4,2,1,5,0,0
121093,-90.9090909090909,4,2,1,80,0,0
122379,-90.9090909090909,4,2,1,5,0,0
122465,-90.9090909090909,4,2,1,80,0,0
131722,-133.333333333333,4,2,1,70,0,0
142179,-100,4,2,1,70,0,0
142950,-100,4,2,1,5,0,0
143036,-100,4,2,1,70,0,0
149807,-100,4,2,1,5,0,0
149893,-100,4,2,1,70,0,0
153922,-100,4,2,1,5,0,0
154007,-100,4,2,1,70,0,0
170122,-80,4,2,1,80,0,1
174493,-80,4,2,1,5,0,1
174579,-80,4,2,1,80,0,1
178607,-80,4,2,1,5,0,1
178693,-80,4,2,1,80,0,1
178950,-80,4,2,1,5,0,1
179036,-80,4,2,1,80,0,1
180750,-400,4,2,1,80,0,1
181007,-400,4,2,1,5,0,1
181093,-80,4,2,1,80,0,1
181350,-80,4,2,1,5,0,1
181436,-80,4,2,1,80,0,1
182722,-80,4,2,1,5,0,1
182807,-80,4,2,1,80,0,1
184093,-80,4,2,1,5,0,1
184179,-80,4,2,1,80,0,1
185465,-80,4,2,1,5,0,1
185550,-80,4,2,1,80,0,1
189579,-80,4,2,1,5,0,1
189665,-80,4,2,1,80,0,1
195579,-80,4,2,1,5,0,1
195665,-80,4,2,1,80,0,1
197550,-90.9090909090909,4,2,1,80,0,0
201065,-90.9090909090909,4,2,1,5,0,0
201150,-90.9090909090909,4,2,1,80,0,0
201922,-90.9090909090909,4,2,1,5,0,0
202007,-90.9090909090909,4,2,1,80,0,0
203293,-90.9090909090909,4,2,1,5,0,0
203379,-90.9090909090909,4,2,1,80,0,0
204665,-90.9090909090909,4,2,1,5,0,0
204750,-90.9090909090909,4,2,1,80,0,0
206036,-90.9090909090909,4,2,1,5,0,0
206122,-90.9090909090909,4,2,1,80,0,0
207407,-90.9090909090909,4,2,1,5,0,0
207493,-90.9090909090909,4,2,1,80,0,0
210665,-90.9090909090909,4,2,1,5,0,0
210750,-90.9090909090909,4,2,1,80,0,0
212893,-90.9090909090909,4,2,1,5,0,0
212979,-90.9090909090909,4,2,1,80,0,0
219493,-71.4285714285714,4,2,1,70,0,0
229950,-71.4285714285714,4,2,1,80,0,0
230465,-62.5,4,2,1,80,0,1
232650,-62.5,4,2,1,5,0,1
232693,-62.5,4,2,1,80,0,1
232822,-62.5,4,2,1,5,0,1
232865,-62.5,4,2,1,80,0,1
232993,-62.5,4,2,1,5,0,1
233036,-62.5,4,2,1,80,0,1
233165,-62.5,4,2,1,5,0,1
233207,-62.5,4,2,1,80,0,1
241093,-50,4,2,1,80,0,1
241436,-133.333333333333,4,2,1,70,0,0
252407,-80,4,2,1,80,0,1
253179,-80,4,2,1,5,0,1
253265,-80,4,2,1,80,0,1
254036,-80,4,2,1,5,0,1
254122,-80,4,2,1,80,0,1
255407,-80,4,2,1,5,0,1
255493,-80,4,2,1,80,0,1
256779,-80,4,2,1,5,0,1
256865,-80,4,2,1,80,0,1
260893,-80,4,2,1,5,0,1
260979,-80,4,2,1,80,0,1
263636,-80,4,2,1,5,0,1
263722,-80,4,2,1,80,0,1
265007,-80,4,2,1,5,0,1
265093,-80,4,2,1,80,0,1
266036,-80,4,2,1,5,0,1
266122,-80,4,2,1,80,0,1
269122,-80,4,2,1,5,0,1
269207,-80,4,2,1,80,0,1
271265,-400,4,2,1,80,0,1
271522,-400,4,2,1,5,0,1
271607,-80,4,2,1,80,0,1
277007,-80,4,2,1,80,0,0
277093,-62.5,4,2,1,80,0,1
279279,-62.5,4,2,1,5,0,1
279322,-62.5,4,2,1,80,0,1
279450,-62.5,4,2,1,5,0,1
279493,-62.5,4,2,1,80,0,1
279622,-62.5,4,2,1,5,0,1
279665,-62.5,4,2,1,80,0,1
279793,-62.5,4,2,1,5,0,1
279836,-62.5,4,2,1,80,0,1
290250,-62.5,4,2,1,5,0,1
290293,-62.5,4,2,1,80,0,1
290422,-62.5,4,2,1,5,0,1
290465,-62.5,4,2,1,80,0,1
290593,-62.5,4,2,1,5,0,1
290636,-62.5,4,2,1,80,0,1
290765,-62.5,4,2,1,5,0,1
290807,-62.5,4,2,1,80,0,1
299036,-66.6666666666667,4,2,2,80,0,0
299122,-66.6666666666667,4,2,1,70,0,0
300407,-66.6666666666667,4,2,2,70,0,0
300493,-66.6666666666667,4,2,1,70,0,0
301779,-66.6666666666667,4,2,2,70,0,0
301865,-66.6666666666667,4,2,1,70,0,0
303150,-66.6666666666667,4,2,2,70,0,0
303236,-66.6666666666667,4,2,1,70,0,0
304522,-66.6666666666667,4,2,2,70,0,0
304607,-66.6666666666667,4,2,1,70,0,0
305893,-66.6666666666667,4,2,2,70,0,0
305979,-66.6666666666667,4,2,1,70,0,0
307265,-66.6666666666667,4,2,2,70,0,0
307350,-66.6666666666667,4,2,1,70,0,0
308636,-66.6666666666667,4,2,2,70,0,0
308722,-66.6666666666667,4,2,1,70,0,0
310007,-66.6666666666667,4,2,2,70,0,0
310093,-66.6666666666667,4,2,1,70,0,0
311379,-66.6666666666667,4,2,2,70,0,0
311465,-66.6666666666667,4,2,1,70,0,0
312750,-66.6666666666667,4,2,2,70,0,0
312836,-66.6666666666667,4,2,1,70,0,0
314122,-66.6666666666667,4,2,2,70,0,0
314207,-66.6666666666667,4,2,1,70,0,0
315493,-66.6666666666667,4,2,2,70,0,0
315579,-66.6666666666667,4,2,1,70,0,0
316865,-66.6666666666667,4,2,2,70,0,0
316950,-66.6666666666667,4,2,1,70,0,0
318236,-66.6666666666667,4,2,2,70,0,0
318322,-66.6666666666667,4,2,1,70,0,0
319607,-66.6666666666667,4,2,2,70,0,0
319693,-66.6666666666667,4,2,1,70,0,0

[Colours]
Combo1 : 143,132,190
Combo2 : 192,192,192
Combo3 : 128,128,128
Combo4 : 255,149,149
Combo5 : 255,0,0
Combo6 : 93,87,135

[HitObjects]
248,31,65,5,2,0:0:0:0:
203,50,236,1,2,0:0:0:0:
179,90,407,1,2,0:0:0:0:
256,112,579,5,2,0:0:0:0:
261,349,1436,69,2,0:0:0:0:
305,331,1607,1,2,0:0:0:0:
330,290,1779,1,2,0:0:0:0:
254,270,1950,5,2,0:0:0:0:
180,139,2807,69,2,0:0:0:0:
208,177,2979,1,2,0:0:0:0:
254,190,3150,1,2,0:0:0:0:
256,112,3322,5,2,0:0:0:0:
328,242,4179,69,2,0:0:0:0:
301,204,4350,1,2,0:0:0:0:
256,192,4522,1,2,0:0:0:0:
254,270,4693,5,2,0:0:0:0:
256,192,5550,69,2,0:0:0:0:
301,204,5722,1,2,0:0:0:0:
328,242,5893,1,2,0:0:0:0:
254,270,6065,5,2,0:0:0:0:
254,190,6922,69,2,0:0:0:0:
208,177,7093,1,2,0:0:0:0:
180,139,7265,1,2,0:0:0:0:
256,112,7436,5,2,0:0:0:0:
330,290,8293,69,2,0:0:0:0:
305,331,8465,1,2,0:0:0:0:
261,349,8636,1,2,0:0:0:0:
254,270,8807,5,2,0:0:0:0:
179,90,9665,69,2,0:0:0:0:
203,50,9836,1,2,0:0:0:0:
248,31,10007,1,2,0:0:0:0:
256,112,10179,5,2,0:0:0:0:
448,40,11036,70,0,L|380:32,1,65.625,4|0,0:0|0:0,0:0:0:0:
357,30,11379,1,8,0:0:0:0:
456,123,11550,5,0,0:0:0:0:
326,107,11722,1,0,0:0:0:0:
465,141,11893,69,0,0:0:0:0:
309,122,12065,1,8,0:0:0:0:
380,192,12236,5,0,0:0:0:0:
64,40,12407,70,0,L|132:32,1,65.625
155,30,12750,1,8,0:0:0:0:
56,123,12922,5,0,0:0:0:0:
186,107,13093,1,0,0:0:0:0:
47,141,13265,69,0,0:0:0:0:
203,122,13436,1,8,0:0:0:0:
132,192,13607,5,0,0:0:0:0:
448,344,13779,70,0,L|380:352,1,65.625
357,354,14122,1,8,0:0:0:0:
456,261,14293,5,0,0:0:0:0:
326,277,14465,1,0,0:0:0:0:
465,243,14636,69,0,0:0:0:0:
309,262,14807,1,8,0:0:0:0:
380,192,14979,5,0,0:0:0:0:
64,344,15150,70,0,L|132:352,1,65.625
155,354,15493,1,8,0:0:0:0:
56,261,15665,5,0,0:0:0:0:
186,277,15836,1,0,0:0:0:0:
47,243,16007,69,0,0:0:0:0:
203,262,16179,1,8,0:0:0:0:
132,192,16350,5,0,0:0:0:0:
64,344,16522,70,0,L|132:352,1,65.625
155,354,16865,1,8,0:0:0:0:
56,261,17036,5,0,0:0:0:0:
186,277,17207,1,0,0:0:0:0:
47,243,17379,69,0,0:0:0:0:
203,262,17550,1,8,0:0:0:0:
132,192,17722,5,0,0:0:0:0:
448,344,17893,70,0,L|380:352,1,65.625
357,354,18236,1,8,0:0:0:0:
456,261,18407,5,0,0:0:0:0:
326,277,18579,1,0,0:0:0:0:
465,243,18750,69,0,0:0:0:0:
309,262,18922,1,8,0:0:0:0:
380,192,19093,5,0,0:0:0:0:
64,40,19265,70,0,L|132:32,1,65.625
155,30,19607,1,8,0:0:0:0:
56,123,19779,5,0,0:0:0:0:
186,107,19950,1,0,0:0:0:0:
47,141,20122,69,0,0:0:0:0:
203,122,20293,1,8,0:0:0:0:
132,192,20465,5,0,0:0:0:0:
448,40,20636,70,0,L|380:32,1,65.625
357,30,20979,1,8,0:0:0:0:
456,123,21150,5,0,0:0:0:0:
326,107,21322,1,0,0:0:0:0:
465,141,21493,69,0,0:0:0:0:
309,122,21665,1,2,0:3:0:0:
380,192,21836,5,0,0:0:0:0:
26,211,22007,5,4,3:2:0:0:
148,338,22179,1,0,0:0:0:0:
148,338,22265,1,0,0:0:0:0:
148,338,22350,1,8,0:3:0:0:
195,169,22522,1,0,0:0:0:0:
254,276,22693,5,0,0:0:0:0:
279,271,22779,2,0,L|322:263,1,43.75,0|0,0:0|3:0,0:0:0:0:
421,380,22950,1,0,0:0:0:0:
396,375,23036,2,0,L|352:367,1,43.75,8|0,0:3|0:0,0:0:0:0:
342,160,23207,1,0,0:0:0:0:
484,233,23379,70,0,B|502:273|502:273|489:315,1,87.5,0|0,3:0|0:0,0:0:0:0:
421,278,23636,1,0,0:0:0:0:
421,278,23722,1,8,0:3:0:0:
479,96,23893,1,0,0:0:0:0:
342,160,24065,5,0,0:0:0:0:
317,155,24151,2,0,L|273:147,1,43.75,0|0,0:0|3:0,0:0:0:0:
421,278,24322,1,0,0:0:0:0:
396,283,24408,2,0,L|352:291,1,43.75,8|0,0:3|0:0,0:0:0:0:
115,334,24579,1,0,0:0:0:0:
71,114,24750,70,0,P|109:90|151:88,1,87.5,0|0,3:0|0:0,0:0:0:0:
131,165,25007,1,0,0:0:0:0:
131,165,25093,1,8,0:3:0:0:
270,264,25265,1,0,0:0:0:0:
115,334,25436,5,0,0:0:0:0:
89,329,25522,2,0,L|45:321,1,43.75,0|0,0:0|3:0,0:0:0:0:
244,269,25693,1,0,0:0:0:0:
270,264,25779,2,0,L|313:256,1,43.75,8|0,0:3|0:0,0:0:0:0:
131,165,25950,1,0,0:0:0:0:
140,78,26122,70,0,P|133:120|130:166,1,87.5,0|0,3:0|0:0,0:0:0:0:
131,165,26379,1,0,0:0:0:0:
131,165,26465,2,0,P|176:154|216:167,1,87.5,8|0,0:3|0:0,0:0:0:0:
295,23,26807,5,0,0:0:0:0:
297,49,26893,2,0,L|301:92,1,43.75,0|0,0:0|3:0,0:0:0:0:
458,98,27065,1,0,0:0:0:0:
456,124,27151,2,0,L|451:167,1,43.75,8|0,0:3|0:0,0:0:0:0:
315,260,27322,1,0,0:0:0:0:
316,273,27407,1,0,0:0:0:0:
317,286,27493,1,0,3:0:0:0:
96,378,27665,69,0,0:0:0:0:
97,365,27750,1,0,0:0:0:0:
98,352,27836,1,8,0:3:0:0:
118,157,28007,1,0,0:0:0:0:
0,243,28179,5,0,0:0:0:0:
26,239,28265,2,0,L|69:234,1,43.75,0|0,0:0|3:0,0:0:0:0:
239,281,28436,1,0,0:0:0:0:
213,285,28522,2,0,L|169:289,1,43.75,8|0,0:3|0:0,0:0:0:0:
120,131,28693,1,0,0:0:0:0:
335,54,28865,70,0,B|353:93|353:93|339:137,1,87.5,0|0,3:0|0:0,0:0:0:0:
270,98,29122,1,0,0:0:0:0:
270,98,29207,1,8,0:3:0:0:
361,336,29379,1,0,0:0:0:0:
463,213,29550,5,0,0:0:0:0:
436,210,29636,2,0,L|392:204,1,43.75,0|0,0:0|3:0,0:0:0:0:
239,275,29807,1,0,0:0:0:0:
266,272,29893,2,0,L|309:266,1,43.75,8|0,0:3|0:0,0:0:0:0:
154,173,30065,1,0,0:0:0:0:
25,262,30236,70,0,P|19:306|35:345,1,87.5,0|0,3:0|0:0,0:0:0:0:
97,294,30493,1,0,0:0:0:0:
97,294,30579,1,8,0:3:0:0:
24,88,30750,1,0,0:0:0:0:
154,173,30922,5,0,0:0:0:0:
179,167,31007,2,0,L|221:157,1,43.75,0|0,0:0|3:0,0:0:0:0:
410,196,31179,1,0,0:0:0:0:
386,185,31265,2,0,L|345:168,1,43.75,8|0,0:3|0:0,0:0:0:0:
293,47,31436,1,0,0:0:0:0:
275,258,31607,70,0,L|269:350,1,87.5,0|0,3:0|0:0,0:0:0:0:
267,372,31865,1,0,0:0:0:0:
267,372,31950,1,8,0:3:0:0:
480,320,32122,1,0,0:0:0:0:
275,258,32293,5,0,0:0:0:0:
248,261,32379,2,0,L|204:267,1,43.75,0|0,0:0|3:0,0:0:0:0:
59,170,32550,1,0,0:0:0:0:
86,173,32636,2,0,L|129:179,1,43.75,8|0,0:3|0:0,0:0:0:0:
279,71,32807,1,0,0:0:0:0:
226,0,32893,1,0,0:0:0:0:
192,81,32979,70,0,L|279:70,1,87.5,4|0,3:2|0:0,0:0:0:0:
305,69,33236,1,0,0:0:0:0:
305,69,33322,1,8,0:3:0:0:
328,286,33493,1,0,0:0:0:0:
466,144,33665,5,0,0:0:0:0:
463,169,33750,2,0,L|458:212,1,43.75,0|0,0:0|3:0,0:0:0:0:
305,69,33922,1,0,0:0:0:0:
308,94,34007,2,0,L|312:137,1,43.75,8|0,0:3|0:0,0:0:0:0:
331,311,34179,1,0,0:0:0:0:
125,237,34350,69,0,3:0:0:0:
195,359,34522,1,0,0:0:0:0:
195,359,34607,1,0,0:0:0:0:
195,359,34693,1,8,0:3:0:0:
250,192,34865,1,0,0:0:0:0:
125,237,35036,5,0,0:0:0:0:
99,232,35122,2,0,L|55:224,1,43.75,0|0,0:0|3:0,0:0:0:0:
208,116,35293,1,0,0:0:0:0:
182,121,35379,2,0,L|138:128,1,43.75,8|0,0:3|0:0,0:0:0:0:
32,51,35550,1,0,0:0:0:0:
74,338,35722,70,0,L|160:328,1,87.5,0|0,3:0|0:0,0:0:0:0:
187,326,35979,1,0,0:0:0:0:
187,326,36065,1,8,0:3:0:0:
414,300,36236,1,0,0:0:0:0:
261,177,36407,5,0,0:0:0:0:
264,203,36493,2,0,L|270:246,1,43.75,0|0,0:0|3:0,0:0:0:0:
440,139,36665,1,0,0:0:0:0:
437,165,36751,2,0,L|430:208,1,43.75,8|0,0:3|0:0,0:0:0:0:
246,84,36922,1,0,0:0:0:0:
461,43,37093,69,0,3:0:0:0:
350,188,37265,1,0,0:0:0:0:
350,188,37350,1,0,0:0:0:0:
350,188,37436,1,8,0:3:0:0:
313,0,37607,1,0,0:0:0:0:
176,94,37779,5,0,0:0:0:0:
202,90,37865,2,0,L|245:83,1,43.75,0|0,0:0|3:0,0:0:0:0:
376,192,38036,1,0,0:0:0:0:
350,188,38122,2,0,L|306:181,1,43.75,8|0,0:3|0:0,0:0:0:0:
257,322,38293,1,0,0:0:0:0:
259,335,38379,1,0,0:0:0:0:
261,347,38465,1,0,3:0:0:0:
64,291,38636,69,0,0:0:0:0:
66,279,38722,1,0,0:0:0:0:
68,266,38807,1,8,0:3:0:0:
242,241,38979,1,0,0:0:0:0:
137,118,39150,5,0,0:0:0:0:
139,143,39236,2,0,L|144:193,1,43.75,0|0,0:0|3:0,0:0:0:0:
269,44,39407,1,0,0:0:0:0:
267,69,39493,2,0,L|261:119,1,43.75,8|0,0:3|0:0,0:0:0:0:
242,241,39665,1,0,0:0:0:0:
387,213,39836,70,0,L|472:195,1,87.5,0|0,3:0|0:0,0:0:0:0:
498,188,40093,1,0,0:0:0:0:
498,188,40179,1,8,0:3:0:0:
359,81,40350,1,0,0:0:0:0:
311,253,40522,5,0,0:0:0:0:
285,248,40607,2,0,L|231:238,1,43.75,0|0,0:0|3:0,0:0:0:0:
105,353,40779,1,0,0:0:0:0:
131,348,40864,2,0,L|185:338,1,43.75,8|0,0:3|0:0,0:0:0:0:
42,208,41036,1,0,0:0:0:0:
201,136,41207,70,0,B|213:94|213:94|197:51,1,87.5,0|0,3:0|0:0,0:0:0:0:
131,97,41465,1,0,0:0:0:0:
131,97,41550,1,8,0:3:0:0:
153,258,41722,1,0,0:0:0:0:
285,165,41893,5,0,0:0:0:0:
311,161,41979,2,0,L|354:155,1,43.75,0|0,0:0|3:0,0:0:0:0:
153,258,42150,1,0,0:0:0:0:
127,254,42236,2,0,L|83:248,1,43.75,8|0,0:3|0:0,0:0:0:0:
269,364,42407,1,0,0:0:0:0:
201,136,42579,70,0,L|213:178,1,43.75,0|0,3:0|0:0,0:0:0:0:
273,384,42750,1,0,3:0:0:0:
339,43,42922,6,0,L|324:85,1,43.75,8|0,0:3|0:0,0:0:0:0:
245,287,43093,1,0,3:0:0:0:
64,100,43265,69,8,0:3:0:0:
112,26,43350,1,8,0:3:0:0:
196,48,43436,1,0,3:0:0:0:
201,136,43522,1,0,3:0:0:0:
119,167,43607,6,0,L|114:211,1,43.75,10|0,0:3|0:0,0:0:0:0:
249,330,43779,2,0,L|244:286,1,43.75
452,201,43950,70,0,B|408:193|408:193|367:206|367:206|323:198,1,131.25,4|0,3:2|0:0,0:0:0:0:
298,194,44293,1,8,0:3:0:0:
373,55,44465,1,0,0:0:0:0:
373,55,44550,1,0,0:0:0:0:
373,55,44636,1,0,0:0:0:0:
415,285,44807,1,0,3:0:0:0:
298,194,44979,1,8,0:3:0:0:
264,375,45150,6,0,L|350:362,1,87.5,0|0,0:0|3:0,0:0:0:0:
155,283,45493,2,0,P|112:278|75:300,1,87.5,0|8,0:0|0:3,0:0:0:0:
276,241,45836,2,0,L|285:154,1,87.5
287,127,46093,1,0,0:0:0:0:
287,127,46179,1,0,3:0:0:0:
212,30,46350,1,8,0:3:0:0:
103,88,46522,1,0,0:0:0:0:
287,127,46693,70,0,P|330:118|373:112,1,87.5,0|0,3:0|0:0,0:0:0:0:
409,336,47036,1,8,0:3:0:0:
473,247,47207,2,0,P|430:238|387:232,1,87.5
360,229,47465,1,0,0:0:0:0:
360,229,47550,1,0,3:0:0:0:
194,290,47722,2,0,B|183:304|175:328|175:328|176:351|183:372,1,87.5,8|0,0:3|0:0,0:0:0:0:
248,188,48065,6,0,L|241:145,1,43.75,0|0,3:0|0:0,0:0:0:0:
124,40,48236,69,0,0:0:0:0:
128,65,48322,2,0,L|135:108,1,43.75,0|8,0:0|0:3,0:0:0:0:
268,135,48493,1,0,0:0:0:0:
264,160,48579,2,0,L|257:203,1,43.75
48,120,48750,5,0,0:0:0:0:
52,145,48836,2,0,L|59:188,1,43.75,0|0,0:0|3:0,0:0:0:0:
172,189,49007,1,0,0:0:0:0:
168,214,49093,2,0,L|161:257,1,43.75,8|0,0:3|0:0,0:0:0:0:
0,246,49265,70,0,L|7:289,1,43.75
67,349,49436,6,0,B|110:343|110:343|151:357|151:357|195:351,1,131.25,0|0,3:0|0:0,0:0:0:0:
221,346,49779,1,8,0:3:0:0:
459,312,49950,1,0,0:0:0:0:
459,312,50036,1,0,0:0:0:0:
459,312,50122,1,0,0:0:0:0:
293,231,50293,1,0,3:0:0:0:
359,384,50465,1,8,0:3:0:0:
428,169,50636,1,0,0:0:0:0:
428,169,50722,1,0,0:0:0:0:
428,169,50807,1,0,3:0:0:0:
293,231,50979,69,0,0:0:0:0:
296,204,51065,2,0,L|301:160,1,43.75,0|8,0:0|0:3,0:0:0:0:
163,74,51236,1,0,0:0:0:0:
166,101,51322,2,0,L|171:144,1,43.75
203,291,51493,5,0,0:0:0:0:
206,264,51579,2,0,L|211:220,1,43.75,0|0,0:0|3:0,0:0:0:0:
90,148,51750,1,0,0:0:0:0:
93,175,51836,2,0,L|98:218,1,43.75,8|0,0:3|0:0,0:0:0:0:
300,160,52007,69,0,0:0:0:0:
300,160,52093,1,0,0:0:0:0:
300,160,52179,6,0,L|287:293,1,131.25,0|0,3:0|0:0,0:0:0:0:
306,308,52522,2,0,P|348:300|393:295,1,87.5,8|0,0:3|0:0,0:0:0:0:
418,295,52779,1,0,0:0:0:0:
418,295,52865,1,0,0:0:0:0:
481,86,53036,1,0,3:0:0:0:
510,188,53207,2,0,P|467:183|423:175,1,87.5,8|0,0:3|0:0,0:0:0:0:
302,48,53550,70,0,L|258:56,1,43.75,0|0,3:0|0:0,0:0:0:0:
330,130,53722,5,0,0:0:0:0:
304,135,53807,2,0,L|260:143,1,43.75,0|8,0:0|0:3,0:0:0:0:
113,89,53979,1,0,0:0:0:0:
139,94,54065,2,0,L|183:102,1,43.75
111,176,54236,69,0,0:0:0:0:
137,181,54322,2,0,L|181:189,1,43.75,0|0,0:0|3:0,0:0:0:0:
332,217,54493,1,0,0:0:0:0:
306,222,54579,2,0,L|262:230,1,43.75,8|0,0:3|0:0,0:0:0:0:
308,309,54750,6,0,L|264:317,1,43.75
22,345,54922,70,0,B|2:305|2:305|22:221,1,131.25,4|0,3:2|0:0,0:0:0:0:
30,195,55265,1,8,0:3:0:0:
107,374,55436,1,0,0:0:0:0:
107,374,55522,1,0,0:0:0:0:
107,374,55607,2,0,P|147:357|190:360,1,87.5,0|0,0:0|3:0,0:0:0:0:
232,122,55950,5,8,0:3:0:0:
246,209,56122,2,0,L|257:295,1,87.5,0|0,0:0|3:0,0:0:0:0:
462,152,56465,2,0,L|451:238,1,87.5,0|8,0:0|0:3,0:0:0:0:
436,324,56807,1,0,0:0:0:0:
257,295,56979,1,0,0:0:0:0:
257,295,57065,1,0,0:0:0:0:
257,295,57150,1,0,3:0:0:0:
450,238,57322,1,8,0:3:0:0:
246,209,57493,1,0,0:0:0:0:
357,71,57665,70,0,B|373:111|373:111|359:154,1,87.5,0|0,3:0|0:0,0:0:0:0:
99,131,58007,1,8,0:3:0:0:
279,114,58179,1,0,0:0:0:0:
168,16,58350,1,0,0:0:0:0:
168,16,58436,1,0,0:0:0:0:
168,16,58522,1,0,3:0:0:0:
192,224,58693,2,0,L|202:313,1,87.5,8|0,0:3|0:0,0:0:0:0:
329,252,59036,6,0,L|324:295,1,43.75,0|0,3:0|0:0,0:0:0:0:
350,77,59207,1,0,0:0:0:0:
353,50,59293,2,0,L|358:7,1,43.75,0|8,0:0|0:3,0:0:0:0:
408,216,59465,69,0,0:0:0:0:
430,232,59550,2,0,L|464:257,1,43.75
268,111,59721,1,0,0:0:0:0:
247,95,59807,2,0,L|212:69,1,43.75,0|0,0:0|3:0,0:0:0:0:
420,130,59979,5,0,0:0:0:0:
444,119,60065,2,0,L|483:101,1,43.75,8|0,0:3|0:0,0:0:0:0:
257,198,60236,1,0,0:0:0:0:
236,206,60321,1,0,0:0:0:0:
216,215,60407,70,0,L|130:202,1,87.5,0|0,3:0|0:0,0:0:0:0:
55,104,60750,1,8,0:3:0:0:
21,341,60922,2,0,L|107:328,1,87.5,0|0,0:0|0:0,0:0:0:0:
133,324,61179,1,0,0:0:0:0:
133,324,61265,1,0,3:0:0:0:
242,377,61436,1,8,0:3:0:0:
447,297,61607,1,0,0:0:0:0:
447,297,61693,1,0,0:0:0:0:
447,297,61779,6,0,B|403:289|403:289|362:301|362:301|318:293,1,131.25,0|0,3:0|0:0,0:0:0:0:
293,288,62122,1,8,0:3:0:0:
365,135,62293,69,0,0:0:0:0:
419,382,62465,1,0,0:0:0:0:
506,112,62636,5,0,3:0:0:0:
447,297,62807,1,8,0:3:0:0:
322,54,62979,69,0,0:0:0:0:
322,54,63065,1,0,0:0:0:0:
322,54,63150,1,0,3:0:0:0:
187,134,63322,5,0,0:0:0:0:
161,129,63407,2,0,L|117:122,1,43.75,0|8,0:0|0:3,0:0:0:0:
7,262,63579,1,0,0:0:0:0:
32,258,63664,2,0,L|120:244,1,87.5
192,295,63922,70,0,L|185:338,1,43.75,0|0,0:0|3:0,0:0:0:0:
306,277,64093,1,0,0:0:0:0:
302,303,64179,2,0,L|295:346,1,43.75,8|0,0:3|0:0,0:0:0:0:
412,311,64350,2,0,L|405:354,1,43.75
330,129,64522,6,0,L|323:172,1,43.75,0|0,3:0|0:0,0:0:0:0:
444,111,64693,1,0,0:0:0:0:
440,137,64779,2,0,L|433:180,1,43.75,0|8,0:0|0:3,0:0:0:0:
224,95,64950,1,0,0:0:0:0:
220,121,65036,2,0,L|213:164,1,43.75
94,322,65207,69,8,0:3:0:0:
10,294,65293,1,8,0:3:0:0:
10,207,65379,1,0,3:0:0:0:
94,180,65465,1,0,3:0:0:0:
145,251,65550,6,0,L|180:244,1,32.8125,10|0,0:3|0:0,0:0:0:0:
212,164,65893,70,0,L|224:340,1,175,4|8,3:2|0:3,0:0:0:0:
423,319,66407,2,0,P|384:307|335:299,1,87.5,0|0,3:0|0:0,0:0:0:0:
422,172,66750,2,0,P|381:174|332:183,1,87.5,0|8,3:0|0:3,0:0:0:0:
212,164,67093,1,0,3:0:0:0:
223,338,67265,5,0,0:0:0:0:
136,278,67436,1,0,3:0:0:0:
40,320,67607,1,8,0:3:0:0:
40,320,67779,1,0,0:0:0:0:
15,59,67950,1,0,3:0:0:0:
104,114,68122,1,0,3:0:0:0:
197,67,68293,2,0,L|284:56,1,87.5,8|0,0:3|0:0,0:0:0:0:
476,236,68636,70,0,L|302:214,1,175,0|8,3:0|0:3,0:0:0:0:
72,292,69150,2,0,P|80:335|87:378,1,87.5,0|0,0:0|3:0,0:0:0:0:
213,283,69493,2,0,P|210:327|205:371,1,87.5,0|8,3:0|0:3,0:0:0:0:
50,200,69836,6,0,B|96:186|131:217|131:217|163:179|207:179,1,175,0|0,3:0|3:0,0:0:0:0:
116,79,70350,1,8,0:3:0:0:
132,236,70522,1,0,0:0:0:0:
302,213,70693,1,0,3:0:0:0:
272,383,70865,1,0,3:0:0:0:
320,126,71036,1,8,0:3:0:0:
320,126,71379,70,0,L|232:115,1,87.5,0|0,3:0|0:0,0:0:0:0:
293,23,71722,1,8,0:3:0:0:
348,258,71893,2,0,L|172:236,1,175,0|0,0:0|3:0,0:0:0:0:
208,384,72407,2,0,L|296:376,1,87.5,8|0,0:3|0:0,0:0:0:0:
440,218,72750,6,0,B|450:168|419:136|419:136|371:127|344:170,1,175,0|8,3:0|0:3,0:0:0:0:
193,78,73265,1,0,0:0:0:0:
193,78,73436,2,0,P|202:121|208:164,1,87.5,0|0,0:0|3:0,0:0:0:0:
1,254,73779,2,0,P|7:210|16:167,1,87.5,8|0,0:3|0:0,0:0:0:0:
199,344,74122,69,0,3:0:0:0:
357,260,74293,1,0,0:0:0:0:
208,164,74465,1,8,0:3:0:0:
299,346,74636,5,0,0:0:0:0:
152,250,74807,1,0,0:0:0:0:
311,169,74979,1,0,3:0:0:0:
255,255,75150,69,8,0:3:0:0:
255,255,75322,1,0,0:0:0:0:
161,70,75493,5,0,3:0:0:0:
3,154,75664,1,0,0:0:0:0:
152,250,75836,1,8,0:3:0:0:
61,68,76007,69,0,0:0:0:0:
208,164,76178,1,0,0:0:0:0:
49,245,76350,1,0,3:0:0:0:
105,159,76521,5,8,0:3:0:0:
105,159,76693,1,0,0:0:0:0:
199,344,76865,37,0,3:0:0:0:
237,323,76950,1,0,0:0:0:0:
280,318,77036,1,0,0:0:0:0:
322,329,77122,1,0,0:0:0:0:
357,355,77207,5,8,3:2:0:0:
393,377,77293,1,0,0:0:0:0:
437,381,77379,1,0,0:0:0:0:
477,366,77465,1,0,0:0:0:0:
507,334,77550,69,0,3:0:0:0:
512,292,77636,1,0,0:0:0:0:
511,250,77722,1,0,0:0:0:0:
486,215,77807,1,0,0:0:0:0:
447,195,77893,5,8,3:2:0:0:
404,194,77979,1,0,0:0:0:0:
361,193,78065,1,0,0:0:0:0:
323,171,78150,1,0,0:0:0:0:
302,134,78236,69,0,3:0:0:0:
301,91,78322,1,0,0:0:0:0:
322,53,78407,1,0,0:0:0:0:
359,30,78493,1,0,0:0:0:0:
403,29,78579,5,8,3:2:0:0:
441,50,78665,1,0,0:0:0:0:
464,86,78750,1,0,0:0:0:0:
467,129,78836,1,0,0:0:0:0:
448,168,78922,69,0,3:0:0:0:
412,192,79007,1,0,0:0:0:0:
369,196,79093,1,0,0:0:0:0:
330,178,79179,1,0,0:0:0:0:
304,143,79265,5,8,3:2:0:0:
283,105,79350,1,0,0:0:0:0:
246,82,79436,1,0,0:0:0:0:
203,79,79522,1,0,0:0:0:0:
163,97,79607,69,0,3:0:0:0:
217,377,79779,1,0,3:0:0:0:
283,105,79950,5,8,3:2:0:0:
138,349,80122,1,0,3:0:0:0:
369,196,80293,69,0,3:0:0:0:
102,273,80465,1,0,3:0:0:0:
365,321,80636,5,8,3:2:0:0:
137,194,80807,1,0,3:0:0:0:
383,115,80979,69,0,3:0:0:0:
398,75,81065,1,0,3:0:0:0:
388,33,81150,1,0,3:0:0:0:
354,6,81236,1,0,3:0:0:0:
311,4,81322,1,0,3:0:0:0:
275,28,81407,1,0,3:0:0:0:
261,68,81493,1,0,3:0:0:0:
273,109,81579,1,0,3:0:0:0:
307,135,81665,21,8,0:3:0:0:
364,201,81750,1,8,0:3:0:0:
321,276,81836,1,0,3:0:0:0:
235,257,81922,1,0,3:0:0:0:
226,170,82007,6,0,L|172:165,1,54.6875,10|0,0:3|0:0,0:0:0:0:
92,348,82179,2,0,L|146:343,1,54.6875,8|0,0:3|0:0,0:0:0:0:
235,257,82350,6,0,B|182:246|182:246|129:266|129:266|76:256,1,164.0625,4|0,3:2|0:0,0:0:0:0:
48,243,82693,1,8,0:3:0:0:
238,61,82865,2,0,L|225:173,1,109.375,0|0,3:0|0:0,0:0:0:0:
361,260,83207,1,0,3:0:0:0:
484,148,83379,1,8,0:3:0:0:
416,384,83550,1,0,0:0:0:0:
416,384,83636,1,0,0:0:0:0:
416,384,83722,6,0,P|332:371|252:364,1,164.0625,0|0,3:0|0:0,0:0:0:0:
220,362,84065,1,8,0:3:0:0:
153,70,84236,1,0,3:0:0:0:
9,257,84407,70,0,P|35:251|62:248,1,54.6875,2|2,0:0|0:0,0:0:0:0:
196,148,84579,2,0,P|169:153|142:156,1,54.6875,2|2,3:2|0:0,0:0:0:0:
48,109,84750,2,0,P|53:135|56:162,1,54.6875,8|0,0:3|0:0,0:0:0:0:
157,296,84922,2,0,P|151:269|148:242,1,54.6875
299,155,85093,6,0,L|312:268,1,109.375,0|0,3:0|0:0,0:0:0:0:
404,52,85436,1,8,0:3:0:0:
508,154,85607,2,0,L|500:263,1,109.375,0|0,3:0|0:0,0:0:0:0:
323,349,85950,1,0,3:0:0:0:
202,210,86122,1,8,0:3:0:0:
23,334,86293,1,0,0:0:0:0:
23,334,86379,1,0,0:0:0:0:
23,334,86465,70,0,P|101:325|192:317,1,164.0625,0|0,3:0|0:0,0:0:0:0:
219,315,86807,1,8,0:3:0:0:
75,114,86979,1,0,3:0:0:0:
342,168,87150,5,0,0:0:0:0:
377,143,87236,1,0,0:0:0:0:
364,101,87321,1,0,3:0:0:0:
320,101,87407,1,2,0:0:0:0:
306,143,87493,69,8,0:3:0:0:
283,223,87579,1,2,0:0:0:0:
199,225,87665,1,2,0:0:0:0:
171,148,87750,1,2,0:0:0:0:
237,97,87836,6,0,P|227:192|218:316,1,218.75,0|8,3:0|0:3,0:0:0:0:
218,314,88522,1,0,3:0:0:0:
405,345,88693,1,0,3:0:0:0:
501,130,88865,2,0,L|394:150,1,109.375,8|0,0:3|0:0,0:0:0:0:
56,126,89207,70,0,B|35:66|70:20|70:20|131:13|166:56,1,218.75,0|8,3:0|0:3,0:0:0:0:
56,258,89722,6,0,B|35:318|70:364|70:364|131:371|166:328,1,218.75,0|0,3:0|3:0,0:0:0:0:
207,165,90236,70,0,P|206:192|211:219,1,54.6875,8|0,0:3|0:0,0:0:0:0:
428,219,90407,2,0,P|433:192|432:164,1,54.6875
315,102,90579,6,0,L|324:269,1,164.0625,0|0,3:0|0:0,0:0:0:0:
259,335,90922,2,0,B|307:336|326:297|326:297|349:335|396:328,1,164.0625,8|0,0:3|0:0,0:0:0:0:
329,368,91265,69,0,3:0:0:0:
329,368,91436,1,0,3:0:0:0:
315,102,91607,1,8,0:3:0:0:
315,102,91779,1,0,0:0:0:0:
472,308,91950,6,0,L|417:301,1,54.6875,0|0,3:0|0:0,0:0:0:0:
225,277,92122,1,0,3:0:0:0:
433,186,92293,70,0,L|378:198,1,54.6875,8|0,0:3|0:0,0:0:0:0:
134,242,92465,1,0,3:0:0:0:
376,48,92636,5,8,0:3:0:0:
464,74,92722,1,8,0:3:0:0:
468,166,92807,1,0,3:0:0:0:
380,198,92893,1,0,3:0:0:0:
323,124,92979,70,0,L|287:119,1,32.8125,10|0,0:3|0:0,0:0:0:0:
236,28,93322,6,0,L|252:192,1,164.0625,4|0,3:2|0:0,0:0:0:0:
256,224,93665,1,8,0:3:0:0:
56,164,93836,2,0,B|75:142|101:135|101:135|134:136|156:149,1,109.375,0|0,3:0|0:0,0:0:0:0:
265,320,94179,1,0,3:0:0:0:
444,116,94350,2,0,B|419:101|392:102|392:102|361:112|343:131,1,109.375,8|0,0:3|0:0,0:0:0:0:
404,188,94607,1,0,0:0:0:0:
404,188,94693,70,0,L|420:352,1,164.0625,0|0,3:0|0:0,0:0:0:0:
424,384,95036,1,8,0:3:0:0:
512,257,95207,1,0,3:0:0:0:
265,320,95379,6,0,P|239:313|212:309,1,54.6875,2|2,0:0|0:0,0:0:0:0:
84,201,95550,2,0,P|110:208|137:212,1,54.6875,2|2,3:2|0:0,0:0:0:0:
234,170,95722,2,0,P|227:196|223:223,1,54.6875,8|0,0:3|0:0,0:0:0:0:
115,351,95893,2,0,P|122:325|126:298,1,54.6875
25,97,96065,70,0,L|38:260,1,164.0625,0|0,3:0|0:0,0:0:0:0:
41,292,96407,1,8,0:3:0:0:
311,340,96579,2,0,L|322:230,1,109.375,0|0,3:0|0:0,0:0:0:0:
115,118,96922,6,0,L|123:227,1,109.375,0|8,3:0|0:3,0:0:0:0:
400,372,97265,1,0,0:0:0:0:
400,372,97350,1,0,0:0:0:0:
400,372,97436,70,0,L|413:209,1,164.0625,0|0,3:0|0:0,0:0:0:0:
416,177,97778,1,8,0:3:0:0:
222,223,97950,1,0,3:0:0:0:
294,16,98122,5,2,0:0:0:0:
326,0,98207,1,2,0:0:0:0:
363,1,98293,1,2,3:2:0:0:
395,16,98379,1,2,0:0:0:0:
346,82,98465,69,8,0:3:0:0:
344,99,98550,1,2,0:0:0:0:
341,117,98636,1,0,0:0:0:0:
338,135,98722,1,0,0:0:0:0:
323,214,98807,5,0,3:0:0:0:
323,214,99150,69,8,0:3:0:0:
421,263,99322,2,0,L|410:372,1,109.375,0|0,3:0|0:0,0:0:0:0:
179,137,99665,5,0,3:0:0:0:
81,186,99836,2,0,L|92:295,1,109.375,8|0,0:3|0:0,0:0:0:0:
442,83,100179,69,0,3:0:0:0:
442,83,100522,5,8,0:3:0:0:
364,160,100693,2,0,L|257:141,1,109.375,0|0,3:0|0:0,0:0:0:0:
12,298,101036,69,0,3:0:0:0:
90,375,101207,2,0,L|197:356,1,109.375,8|0,0:3|0:0,0:0:0:0:
106,5,101550,6,0,B|72:101|72:101|95:158,1,164.0625,0|0,3:0|0:0,0:0:0:0:
146,219,101893,2,0,B|96:197|96:197|46:220,1,109.375,8|0,0:3|0:0,0:0:0:0:
90,375,102236,1,0,3:0:0:0:
90,375,102407,1,0,3:0:0:0:
306,337,102579,2,0,L|413:318,1,109.375,8|0,0:3|0:0,0:0:0:0:
324,36,102922,70,0,L|314:89,1,54.6875,2|2,3:2|0:0,0:0:0:0:
273,304,103093,2,0,L|283:251,1,54.6875,2|2,3:2|0:0,0:0:0:0:
282,11,103265,6,0,L|286:75,1,54.6875,8|0,0:3|0:0,0:0:0:0:
306,337,103436,2,0,L|301:272,1,54.6875,0|0,3:0|0:0,0:0:0:0:
412,98,103607,69,8,0:3:0:0:
504,119,103693,1,8,0:3:0:0:
512,212,103779,1,2,3:2:0:0:
426,249,103865,1,2,3:2:0:0:
365,177,103950,5,8,0:3:0:0:
365,177,104036,1,0,0:0:0:0:
365,177,104122,1,0,0:0:0:0:
365,177,104207,1,0,0:0:0:0:
272,186,104293,69,0,3:0:0:0:
218,181,104379,1,0,0:0:0:0:
177,146,104465,1,0,0:0:0:0:
139,108,104550,1,0,0:0:0:0:
87,97,104636,5,8,3:2:0:0:
36,117,104722,1,0,0:0:0:0:
6,161,104807,1,0,0:0:0:0:
4,215,104893,1,0,0:0:0:0:
33,260,104979,69,0,3:0:0:0:
82,283,105065,1,0,0:0:0:0:
135,274,105150,1,0,0:0:0:0:
189,265,105236,1,0,0:0:0:0:
242,274,105321,5,8,3:2:0:0:
289,301,105407,1,0,0:0:0:0:
324,343,105493,1,0,0:0:0:0:
367,375,105579,1,0,0:0:0:0:
421,375,105665,69,0,3:0:0:0:
464,343,105750,1,0,0:0:0:0:
481,291,105836,1,0,0:0:0:0:
464,240,105922,1,0,0:0:0:0:
420,209,106007,5,8,3:2:0:0:
366,210,106093,1,0,0:0:0:0:
312,214,106179,1,0,0:0:0:0:
263,190,106265,1,0,0:0:0:0:
234,145,106350,69,0,3:0:0:0:
233,91,106436,1,0,0:0:0:0:
260,44,106522,1,0,0:0:0:0:
308,19,106608,1,0,0:0:0:0:
362,21,106693,5,8,3:2:0:0:
406,52,106779,1,0,0:0:0:0:
429,101,106865,1,0,0:0:0:0:
423,155,106950,1,0,0:0:0:0:
389,197,107036,70,0,L|335:188,1,54.6875,0|0,3:0|0:0,0:0:0:0:
259,352,107207,5,0,3:0:0:0:
255,338,107293,1,0,0:0:0:0:
251,325,107379,2,0,L|260:271,1,54.6875,8|0,3:2|0:0,0:0:0:0:
96,195,107550,69,0,3:0:0:0:
110,191,107636,1,0,0:0:0:0:
123,187,107722,2,0,L|177:196,1,54.6875,0|0,3:0|0:0,0:0:0:0:
253,32,107893,5,0,3:0:0:0:
257,46,107979,1,0,0:0:0:0:
261,59,108065,2,0,L|252:113,1,54.6875,8|0,3:2|0:0,0:0:0:0:
389,197,108236,70,0,L|335:188,1,54.6875,0|0,3:0|0:0,0:0:0:0:
2,250,108407,5,0,3:0:0:0:
15,302,108493,1,0,3:0:0:0:
53,341,108579,1,0,3:0:0:0:
105,356,108665,1,0,3:0:0:0:
158,344,108750,1,0,3:0:0:0:
198,308,108836,1,0,3:0:0:0:
241,275,108922,1,0,3:0:0:0:
294,265,109007,1,0,3:0:0:0:
346,281,109093,69,8,0:3:0:0:
437,300,109179,1,8,0:3:0:0:
484,219,109265,1,0,3:0:0:0:
421,150,109350,1,0,3:0:0:0:
335,188,109436,6,0,P|336:160|341:133,1,54.6875,10|0,0:3|3:0,0:0:0:0:
166,2,109607,2,0,P|170:29|171:56,1,54.6875,8|0,0:3|0:0,0:0:0:0:
4,203,109779,70,0,B|51:195|51:195|97:209|97:209|145:202,1,144.375004405975,4|0,3:2|0:0,0:0:0:0:
174,198,110122,1,8,0:3:0:0:
401,82,110293,2,0,P|360:57|309:63,1,96.250002937317,0|0,3:0|0:0,0:0:0:0:
248,273,110636,1,0,3:0:0:0:
381,253,110807,2,0,L|477:240,1,96.250002937317,8|0,0:3|0:0,0:0:0:0:
284,384,111150,6,0,L|188:371,1,96.250002937317,0|0,3:0|0:0,0:0:0:0:
54,354,111493,1,8,0:3:0:0:
14,115,111665,1,0,3:0:0:0:
25,68,111750,1,0,0:0:0:0:
60,37,111836,1,0,0:0:0:0:
107,32,111922,1,0,0:0:0:0:
149,55,112007,1,0,3:0:0:0:
143,207,112179,2,0,P|134:254|129:303,1,96.250002937317,8|0,0:3|0:0,0:0:0:0:
264,144,112522,70,0,P|316:160|396:52,1,192.500005874634,0|8,3:0|0:3,0:0:0:0:
508,257,113036,2,0,P|465:233|417:233,1,96.250002937317,0|0,3:0|0:0,0:0:0:0:
322,327,113379,1,0,3:0:0:0:
140,260,113550,2,0,P|183:236|231:236,1,96.250002937317,8|0,0:3|0:0,0:0:0:0:
409,130,113893,6,0,B|360:128|324:169|324:169|290:129|240:132,1,192.500005874634,0|8,3:0|0:3,0:0:0:0:
20,201,114407,1,0,3:0:0:0:
7,221,114492,1,0,0:0:0:0:
0,244,114578,1,0,0:0:0:0:
1,268,114664,1,0,0:0:0:0:
9,290,114749,1,0,3:0:0:0:
239,331,114922,2,0,P|235:282|228:234,1,96.250002937317,8|0,0:3|0:0,0:0:0:0:
434,108,115265,70,0,P|427:155|423:203,1,96.250002937317,0|0,3:0|0:0,0:0:0:0:
440,337,115607,1,8,0:3:0:0:
293,164,115779,2,0,P|235:139|137:205,1,192.500005874634,0|0,3:0|3:0,0:0:0:0:
0,155,116293,2,0,P|10:203|14:252,1,96.250002937317,8|0,0:3|0:0,0:0:0:0:
127,324,116636,5,0,3:0:0:0:
228,235,116807,1,0,0:0:0:0:
352,287,116979,1,8,0:3:0:0:
381,58,117150,1,0,3:0:0:0:
382,46,117235,1,0,0:0:0:0:
383,34,117321,1,0,0:0:0:0:
385,22,117407,1,0,0:0:0:0:
386,10,117492,1,0,3:0:0:0:
218,150,117665,2,0,L|207:55,1,96.250002937317,8|0,0:3|0:0,0:0:0:0:
439,278,118007,70,0,L|464:83,1,192.500005874634,0|8,3:0|0:3,0:0:0:0:
330,324,118522,2,0,P|286:304|233:313,1,96.250002937317,0|0,3:0|0:0,0:0:0:0:
112,355,118865,1,0,3:0:0:0:
71,118,119036,1,8,0:3:0:0:
20,265,119207,5,0,0:0:0:0:
20,265,119293,1,0,0:0:0:0:
20,265,119379,1,0,3:0:0:0:
223,206,119550,1,0,0:0:0:0:
0,252,119722,69,8,0:3:0:0:
230,184,119893,2,0,B|243:138|243:138|208:48,1,144.375004405975,0|0,3:0|0:0,0:0:0:0:
194,22,120236,1,0,3:0:0:0:
456,0,120407,2,0,P|448:42|440:96,1,96.250002937317,8|0,0:3|0:0,0:0:0:0:
505,328,120750,6,0,P|477:283|393:284,1,144.375004405975,0|0,3:0|0:0,0:0:0:0:
372,304,121093,1,8,0:3:0:0:
234,373,121265,2,0,P|230:324|223:277,1,96.250002937317,0|0,3:0|0:0,0:0:0:0:
60,338,121607,1,0,3:0:0:0:
112,117,121779,2,0,P|156:99|202:109,1,96.250002937317,8|0,0:3|0:0,0:0:0:0:
457,166,122122,70,0,L|313:181,1,144.375004405975,0|0,3:0|0:0,0:0:0:0:
284,184,122465,1,8,0:3:0:0:
397,0,122636,1,0,3:0:0:0:
403,12,122722,1,0,0:0:0:0:
409,24,122807,2,0,P|404:47|403:72,1,48.1250014686585
401,292,122979,1,0,3:0:0:0:
284,184,123150,1,8,0:3:0:0:
141,243,123322,1,0,0:0:0:0:
71,14,123493,6,0,L|166:22,1,96.250002937317,0|0,3:0|0:0,0:0:0:0:
26,161,123836,1,8,0:3:0:0:
26,161,124007,2,0,L|219:141,1,192.500005874634,0|0,3:0|3:0,0:0:0:0:
344,288,124522,2,0,L|248:276,1,96.250002937317,8|0,0:3|0:0,0:0:0:0:
258,266,124779,1,0,0:0:0:0:
268,255,124865,70,0,L|257:351,1,96.250002937317,0|0,3:0|0:0,0:0:0:0:
26,161,125207,1,8,0:3:0:0:
26,161,125379,2,0,L|37:257,1,96.250002937317,0|0,3:0|0:0,0:0:0:0:
252,120,125722,1,0,3:0:0:0:
229,77,125807,1,0,0:0:0:0:
189,52,125893,1,8,0:3:0:0:
142,48,125979,1,0,0:0:0:0:
99,69,126064,1,0,0:0:0:0:
36,256,126236,5,0,3:0:0:0:
81,242,126322,1,0,0:0:0:0:
128,251,126407,1,0,0:0:0:0:
167,279,126493,1,0,0:0:0:0:
206,306,126579,69,8,0:3:0:0:
253,310,126665,1,0,0:0:0:0:
296,290,126750,1,0,3:0:0:0:
324,251,126836,1,0,0:0:0:0:
328,204,126922,5,0,0:0:0:0:
332,156,127007,1,0,0:0:0:0:
360,117,127093,1,0,3:0:0:0:
403,97,127179,1,0,0:0:0:0:
450,100,127265,69,8,0:3:0:0:
490,127,127350,1,0,0:0:0:0:
512,169,127436,1,0,0:0:0:0:
510,216,127522,1,0,0:0:0:0:
485,257,127607,5,0,3:0:0:0:
443,280,127693,1,0,0:0:0:0:
395,279,127779,1,0,0:0:0:0:
354,256,127864,1,0,0:0:0:0:
330,215,127950,69,8,0:3:0:0:
329,167,128036,1,0,0:0:0:0:
325,119,128121,1,0,3:0:0:0:
305,75,128207,1,0,0:0:0:0:
272,41,128293,5,0,0:0:0:0:
228,21,128379,1,0,0:0:0:0:
181,17,128464,1,0,3:0:0:0:
135,29,128550,1,0,0:0:0:0:
96,57,128636,69,8,0:3:0:0:
69,97,128721,1,0,0:0:0:0:
72,144,128807,1,0,0:0:0:0:
92,188,128893,1,0,0:0:0:0:
125,222,128978,5,0,3:0:0:0:
169,242,129064,1,0,0:0:0:0:
216,246,129150,1,0,0:0:0:0:
262,234,129235,1,0,0:0:0:0:
301,206,129321,69,8,0:3:0:0:
328,166,129407,1,0,0:0:0:0:
362,133,129493,1,0,3:0:0:0:
408,120,129579,1,0,0:0:0:0:
455,129,129665,5,0,0:0:0:0:
492,159,129750,1,0,0:0:0:0:
512,202,129836,1,0,3:0:0:0:
510,250,129921,1,0,0:0:0:0:
486,291,130007,69,8,0:3:0:0:
446,317,130093,1,0,0:0:0:0:
399,322,130179,1,0,0:0:0:0:
354,305,130265,1,0,0:0:0:0:
319,272,130350,6,0,L|327:225,1,48.1250014686585,0|0,3:0|0:0,0:0:0:0:
355,61,130522,2,0,L|347:108,1,48.1250014686585,0|0,3:0|0:0,0:0:0:0:
353,299,130693,70,0,L|346:238,1,48.1250014686585,8|0,0:3|0:0,0:0:0:0:
322,23,130865,2,0,L|329:84,1,48.1250014686585,0|0,3:0|0:0,0:0:0:0:
174,241,131036,5,8,0:3:0:0:
92,213,131122,1,8,0:3:0:0:
92,127,131207,1,0,3:0:0:0:
174,101,131293,1,0,3:0:0:0:
224,170,131379,1,10,0:3:0:0:
224,170,131722,6,0,L|354:156,1,131.25000500679,6|8,0:0|0:0,0:0:0:0:
446,147,132236,1,2,0:0:0:0:
377,39,132407,2,0,P|369:104|364:169,1,131.25000500679,2|10,0:0|0:0,0:0:0:0:
494,262,132922,6,0,L|435:220,1,65.6250025033952,2|0,0:0|0:0,0:0:0:0:
222,242,133265,2,0,L|287:211,1,65.6250025033952,2|8,0:0|0:0,0:0:0:0:
413,323,133607,70,0,B|360:283|360:283|300:311,1,131.25000500679,2|0,0:0|0:0,0:0:0:0:
234,377,134122,1,10,0:0:0:0:
145,352,134293,1,2,0:0:0:0:
127,261,134465,6,0,P|134:194|141:131,1,131.25000500679,2|10,0:0|0:0,0:0:0:0:
231,113,134979,2,0,P|223:178|216:243,1,131.25000500679,2|2,0:0|0:0,0:0:0:0:
295,292,135493,1,8,0:0:0:0:
377,250,135665,1,2,0:0:0:0:
377,250,135836,70,0,P|443:257|511:265,1,131.25000500679,0|8,0:0|0:0,0:0:0:0:
420,160,136350,2,0,P|353:167|286:175,1,131.25000500679
227,105,136865,1,10,0:0:0:0:
271,24,137036,1,2,0:0:0:0:
183,186,137207,6,0,B|192:224|203:315,1,131.25000500679,2|8,0:0|0:0,0:0:0:0:
45,354,137722,1,2,0:0:0:0:
45,354,137893,2,0,P|47:319|51:289,1,65.6250025033952,2|0,0:0|0:0,0:0:0:0:
21,147,138236,1,10,0:0:0:0:
89,207,138407,1,2,0:0:0:0:
21,147,138579,70,0,P|24:107|99:73,1,131.25000500679,0|8,0:0|0:0,0:0:0:0:
186,101,139093,2,0,B|230:92|230:92|271:102|271:102|315:95,1,131.25000500679
364,18,139607,1,10,0:0:0:0:
498,319,139950,6,0,P|434:311|368:304,1,131.25000500679,2|10,0:0|0:0,0:0:0:0:
285,261,140465,2,0,P|276:294|278:327,1,65.6250025033952,2|0,0:0|0:0,0:0:0:0:
197,235,140807,2,0,P|212:206|236:184,1,65.6250025033952,2|8,0:0|0:0,0:0:0:0:
272,90,141150,1,2,0:0:0:0:
272,90,141322,70,0,P|208:82|142:75,1,131.25000500679,0|10,0:0|0:0,0:0:0:0:
48,68,141836,1,0,0:0:0:0:
48,68,142179,21,0,3:0:0:0:
116,276,142350,1,10,0:3:0:0:
324,156,142522,5,0,3:0:0:0:
256,364,142693,2,0,L|388:352,1,131.25,4|0,3:2|0:0,0:0:0:0:
413,349,143036,1,8,0:3:0:0:
324,156,143207,1,0,0:0:0:0:
324,156,143293,1,0,0:0:0:0:
324,156,143379,1,0,0:0:0:0:
219,235,143550,1,0,3:0:0:0:
140,131,143722,1,8,0:3:0:0:
244,51,143893,70,0,L|231:137,1,87.5,0|0,0:0|3:0,0:0:0:0:
393,176,144236,2,0,L|322:227,1,87.5,0|8,0:0|0:3,0:0:0:0:
409,369,144579,2,0,L|322:355,1,87.5
296,352,144836,1,0,0:0:0:0:
296,352,144922,1,0,3:0:0:0:
81,383,145093,1,8,0:3:0:0:
179,296,145265,1,0,0:0:0:0:
52,88,145436,6,0,L|61:179,1,87.5,0|0,3:0|0:0,0:0:0:0:
121,10,145779,1,8,0:3:0:0:
216,55,145950,2,0,L|207:146,1,87.5
206,168,146207,1,0,0:0:0:0:
206,168,146293,1,0,3:0:0:0:
313,228,146465,1,8,0:3:0:0:
407,149,146636,1,0,0:0:0:0:
353,353,146807,70,0,L|310:346,1,43.75,0|0,3:0|0:0,0:0:0:0:
192,328,146979,5,0,0:0:0:0:
166,323,147065,2,0,L|123:316,1,43.75,0|8,0:0|0:3,0:0:0:0:
256,259,147236,1,0,0:0:0:0:
282,254,147322,2,0,L|325:247,1,43.75
443,229,147494,69,0,0:0:0:0:
469,224,147580,2,0,L|512:217,1,43.75,0|0,0:0|3:0,0:0:0:0:
379,160,147750,1,0,0:0:0:0:
353,155,147836,2,0,L|310:148,1,43.75,8|0,0:3|0:0,0:0:0:0:
192,130,148007,6,0,L|149:123,1,43.75
262,0,148179,70,0,B|278:40|278:40|262:84,1,87.5,0|0,3:0|0:0,0:0:0:0:
183,238,148522,1,8,0:3:0:0:
90,119,148693,2,0,P|130:101|173:106,1,87.5
362,226,149036,2,0,P|348:184|316:157,1,87.5,0|8,3:0|0:3,0:0:0:0:
91,321,149379,1,0,0:0:0:0:
91,321,149465,1,0,0:0:0:0:
91,321,149550,6,0,B|134:315|134:315|175:329|175:329|219:323,1,131.25,0|0,3:0|0:0,0:0:0:0:
245,319,149893,1,8,0:3:0:0:
488,289,150065,69,0,0:0:0:0:
239,224,150236,1,0,0:0:0:0:
512,131,150407,5,0,3:0:0:0:
317,268,150578,1,8,0:3:0:0:
279,29,150750,69,0,0:0:0:0:
279,29,150836,1,0,0:0:0:0:
279,29,150922,1,0,3:0:0:0:
176,94,151093,5,0,0:0:0:0:
171,120,151179,2,0,L|162:162,1,43.75,0|8,0:0|0:3,0:0:0:0:
26,166,151350,1,0,0:0:0:0:
31,192,151436,2,0,L|46:278,1,87.5
144,283,151693,70,0,L|135:325,1,43.75,0|0,0:0|3:0,0:0:0:0:
231,359,151865,1,0,0:0:0:0:
235,333,151950,2,0,L|243:290,1,43.75,8|0,0:3|0:0,0:0:0:0:
342,297,152122,2,0,L|334:340,1,43.75
272,155,152293,6,0,L|280:112,1,43.75,0|0,3:0|0:0,0:0:0:0:
187,80,152465,1,0,0:0:0:0:
181,105,152550,2,0,L|172:147,1,43.75,0|8,0:0|0:3,0:0:0:0:
384,94,152722,1,0,0:0:0:0:
379,119,152807,2,0,L|370:161,1,43.75
439,248,152979,69,0,0:0:0:0:
439,248,153065,1,0,0:0:0:0:
439,248,153150,1,0,3:0:0:0:
243,289,153322,2,0,L|157:308,1,87.5,10|0,0:3|0:0,0:0:0:0:
37,101,153665,6,0,P|71:51|137:50,1,131.25,4|0,3:2|0:0,0:0:0:0:
162,60,154007,1,8,0:3:0:0:
166,221,154179,2,0,B|159:264|157:308,1,87.5,0|0,3:0|0:0,0:0:0:0:
258,277,154522,1,0,3:0:0:0:
65,253,154693,1,8,0:3:0:0:
285,282,154865,2,0,B|326:272|373:267,1,87.5,0|0,3:0|0:0,0:0:0:0:
482,90,155207,69,0,3:0:0:0:
361,114,155379,1,8,0:3:0:0:
262,42,155550,1,0,0:0:0:0:
285,282,155722,1,0,3:0:0:0:
163,265,155893,1,0,3:0:0:0:
41,249,156065,2,0,P|51:292|58:337,1,87.5,8|0,0:3|0:0,0:0:0:0:
213,171,156407,6,0,B|194:256|180:342,1,175,0|8,3:0|0:3,0:0:0:0:
368,244,156922,2,0,P|329:267|292:294,1,87.5,0|0,0:0|3:0,0:0:0:0:
461,384,157265,2,0,P|417:372|371:365,1,87.5,0|8,3:0|0:3,0:0:0:0:
180,342,157607,70,0,B|194:256|213:171,1,175,0|0,3:0|3:0,0:0:0:0:
245,39,158122,1,8,0:3:0:0:
129,78,158293,1,0,0:0:0:0:
329,131,158465,2,0,L|415:121,1,87.5,0|0,3:0|3:0,0:0:0:0:
493,316,158807,2,0,L|407:306,1,87.5,8|0,0:3|0:0,0:0:0:0:
143,281,159150,6,0,B|125:320|125:320|135:366,1,87.5,0|0,3:0|0:0,0:0:0:0:
235,331,159493,1,8,0:3:0:0:
217,113,159665,2,0,P|212:67|205:25,1,87.5
306,192,160007,1,0,3:0:0:0:
401,113,160179,2,0,P|440:95|482:102,1,87.5,8|0,0:3|0:0,0:0:0:0:
488,322,160522,70,0,P|402:312|309:303,1,175,0|8,3:0|0:3,0:0:0:0:
115,297,161036,1,0,0:0:0:0:
280,186,161207,1,0,0:0:0:0:
212,373,161379,1,0,3:0:0:0:
157,181,161550,2,0,P|163:137|172:93,1,87.5,8|0,0:3|0:0,0:0:0:0:
427,149,161893,5,0,3:0:0:0:
343,307,162064,1,0,0:0:0:0:
247,158,162236,1,8,0:3:0:0:
429,249,162407,69,0,0:0:0:0:
333,102,162578,1,0,0:0:0:0:
252,261,162750,1,0,3:0:0:0:
338,205,162921,5,8,0:3:0:0:
338,205,163093,1,0,0:0:0:0:
67,165,163265,69,0,3:0:0:0:
163,314,163436,1,0,0:0:0:0:
247,158,163608,1,8,0:3:0:0:
72,264,163779,5,0,0:0:0:0:
156,109,163950,1,0,0:0:0:0:
252,261,164122,1,0,3:0:0:0:
159,212,164293,69,8,0:3:0:0:
159,212,164465,1,0,0:0:0:0:
303,43,164636,53,0,3:0:0:0:
340,65,164722,1,0,0:0:0:0:
383,65,164807,1,0,0:0:0:0:
426,60,164893,1,0,0:0:0:0:
465,78,164979,5,8,3:2:0:0:
488,114,165065,1,0,0:0:0:0:
489,157,165150,1,0,0:0:0:0:
466,194,165236,1,0,0:0:0:0:
427,213,165322,69,0,3:0:0:0:
385,209,165407,1,0,0:0:0:0:
342,205,165493,1,0,0:0:0:0:
303,224,165579,1,0,0:0:0:0:
279,260,165665,5,8,3:2:0:0:
278,303,165750,1,0,0:0:0:0:
299,340,165836,1,0,0:0:0:0:
337,361,165922,1,0,0:0:0:0:
379,365,166007,69,0,3:0:0:0:
418,346,166093,1,0,0:0:0:0:
442,310,166179,1,0,0:0:0:0:
443,267,166265,1,0,0:0:0:0:
422,229,166350,5,8,3:2:0:0:
384,208,166436,1,0,0:0:0:0:
341,204,166522,1,0,0:0:0:0:
300,219,166607,1,0,0:0:0:0:
269,249,166693,69,0,3:0:0:0:
241,283,166779,1,0,0:0:0:0:
203,304,166865,1,0,0:0:0:0:
160,311,166950,1,0,0:0:0:0:
118,302,167036,5,8,3:2:0:0:
81,278,167122,1,0,0:0:0:0:
56,243,167207,1,0,0:0:0:0:
44,201,167293,1,0,0:0:0:0:
49,158,167379,69,0,3:0:0:0:
318,208,167550,1,0,3:0:0:0:
101,78,167722,5,8,3:2:0:0:
274,289,167893,1,0,3:0:0:0:
192,50,168065,69,0,3:0:0:0:
189,322,168236,1,0,3:0:0:0:
279,87,168408,5,8,3:2:0:0:
102,293,168579,1,0,3:0:0:0:
359,285,168750,69,0,3:0:0:0:
398,266,168836,1,0,3:0:0:0:
419,229,168922,1,0,3:0:0:0:
416,186,169007,1,0,3:0:0:0:
388,153,169093,1,0,3:0:0:0:
347,142,169179,1,0,3:0:0:0:
306,156,169265,1,0,3:0:0:0:
281,191,169350,1,0,3:0:0:0:
281,234,169436,21,8,0:3:0:0:
282,322,169522,1,8,0:3:0:0:
195,346,169607,1,0,3:0:0:0:
146,274,169693,1,0,3:0:0:0:
199,204,169779,6,0,L|192:161,1,43.75,10|0,0:3|3:0,0:0:0:0:
307,0,169950,2,0,L|300:43,1,43.75,8|0,0:3|0:0,0:0:0:0:
349,214,170122,6,0,P|402:206|457:199,1,109.375,4|0,3:2|0:0,0:0:0:0:
282,322,170465,1,8,0:3:0:0:
191,160,170636,2,0,L|201:50,1,109.375,0|0,3:0|0:0,0:0:0:0:
24,224,170979,1,0,3:0:0:0:
188,181,171150,1,8,0:3:0:0:
133,378,171322,1,0,0:0:0:0:
133,378,171407,1,0,0:0:0:0:
133,378,171493,6,0,P|78:369|22:363,1,109.375,0|0,3:0|0:0,0:0:0:0:
236,250,171836,1,8,0:3:0:0:
374,357,172007,1,0,3:0:0:0:
474,155,172179,70,0,P|448:142|417:136,1,54.6875,2|2,0:0|0:0,0:0:0:0:
369,40,172350,2,0,P|341:49|315:66,1,54.6875,2|2,3:2|0:0,0:0:0:0:
213,32,172522,2,0,P|200:58|194:89,1,54.6875,8|0,0:3|0:0,0:0:0:0:
97,136,172693,2,0,P|106:163|123:189,1,54.6875
211,249,172865,6,0,L|224:357,1,109.375,0|0,3:0|0:0,0:0:0:0:
327,201,173207,1,8,0:3:0:0:
453,247,173379,2,0,L|440:355,1,109.375,0|0,3:0|0:0,0:0:0:0:
330,181,173722,1,0,3:0:0:0:
429,43,173893,2,0,P|480:59|512:102,1,109.375,8|0,0:3|0:0,0:0:0:0:
433,127,174150,1,0,0:0:0:0:
433,127,174236,70,0,B|380:117|380:117|327:134|327:134|274:125,1,164.0625,0|0,3:0|0:0,0:0:0:0:
241,119,174579,1,8,0:3:0:0:
129,326,174750,1,0,3:0:0:0:
59,182,174922,5,0,0:0:0:0:
85,156,175007,1,0,0:0:0:0:
119,145,175093,1,0,3:0:0:0:
155,150,175179,1,2,0:0:0:0:
188,165,175265,69,8,0:3:0:0:
266,184,175350,1,2,0:0:0:0:
310,115,175436,1,2,0:0:0:0:
258,52,175522,1,2,0:0:0:0:
181,82,175607,6,0,L|200:307,1,218.75,0|8,3:0|0:3,0:0:0:0:
199,299,176293,1,0,3:0:0:0:
58,360,176465,1,0,3:0:0:0:
0,133,176636,2,0,L|109:147,1,109.375,8|0,0:3|0:0,0:0:0:0:
456,126,176979,70,0,B|477:66|442:20|442:20|381:13|346:56,1,218.75,0|8,3:0|0:3,0:0:0:0:
456,258,177493,6,0,B|477:318|442:364|442:364|381:371|346:328,1,218.75,0|0,3:0|3:0,0:0:0:0:
402,115,178007,70,0,L|455:125,1,54.6875,8|0,0:3|0:0,0:0:0:0:
402,269,178179,2,0,L|455:259,1,54.6875
277,188,178350,6,0,B|223:182|223:182|171:200|171:200|116:194,1,164.0625,0|0,3:0|0:0,0:0:0:0:
205,110,178693,2,0,L|187:278,1,164.0625,8|0,0:3|0:0,0:0:0:0:
185,306,179036,69,0,3:0:0:0:
185,306,179207,1,0,3:0:0:0:
214,33,179379,1,8,0:3:0:0:
214,33,179550,1,0,0:0:0:0:
30,219,179722,6,0,L|85:212,1,54.6875,0|0,3:0|0:0,0:0:0:0:
277,188,179893,1,0,3:0:0:0:
74,107,180065,70,0,L|129:119,1,54.6875,8|0,0:3|0:0,0:0:0:0:
373,163,180236,1,0,3:0:0:0:
112,345,180407,5,8,0:3:0:0:
26,311,180493,1,8,0:3:0:0:
30,219,180579,1,0,3:0:0:0:
121,195,180665,1,0,3:0:0:0:
171,273,180750,70,0,L|208:267,1,32.8125,10|0,0:3|0:0,0:0:0:0:
249,338,181093,6,0,L|257:175,1,164.0625,4|0,3:2|0:0,0:0:0:0:
259,141,181436,1,8,0:3:0:0:
121,195,181607,70,0,L|115:304,1,109.375,0|0,3:0|0:0,0:0:0:0:
388,312,181950,2,0,L|393:202,1,109.375,0|8,3:0|0:3,0:0:0:0:
215,51,182293,5,0,0:0:0:0:
215,51,182379,1,0,0:0:0:0:
215,51,182465,2,0,B|269:44|269:44|321:64|321:64|378:57,1,164.0625,0|0,3:0|0:0,0:0:0:0:
407,55,182807,1,8,0:3:0:0:
257,174,182979,1,0,3:0:0:0:
470,224,183150,70,0,P|444:237|413:243,1,54.6875,2|2,0:0|0:0,0:0:0:0:
365,339,183322,2,0,P|337:330|311:313,1,54.6875,2|2,3:2|0:0,0:0:0:0:
209,347,183493,2,0,P|196:321|190:290,1,54.6875,8|0,0:3|0:0,0:0:0:0:
93,243,183665,2,0,P|102:216|119:190,1,54.6875
257,174,183836,6,0,L|421:157,1,164.0625,0|0,3:0|0:0,0:0:0:0:
453,155,184179,1,8,0:3:0:0:
250,48,184350,2,0,B|229:98|229:98|247:151,1,109.375,0|0,3:0|0:0,0:0:0:0:
449,257,184693,2,0,B|470:207|470:207|452:154,1,109.375,0|8,3:0|0:3,0:0:0:0:
258,349,185036,1,0,0:0:0:0:
258,349,185122,1,0,0:0:0:0:
258,349,185207,70,0,L|94:332,1,164.0625,0|0,3:0|0:0,0:0:0:0:
62,330,185550,1,8,0:3:0:0:
4,187,185722,1,0,3:0:0:0:
202,158,185893,5,2,0:0:0:0:
218,190,185978,1,2,0:0:0:0:
217,227,186064,1,2,3:2:0:0:
202,259,186150,1,2,0:0:0:0:
136,210,186236,69,8,0:3:0:0:
119,208,186321,1,2,0:0:0:0:
101,205,186407,1,0,0:0:0:0:
83,202,186493,1,0,0:0:0:0:
4,187,186578,5,0,3:0:0:0:
4,187,186922,69,8,0:3:0:0:
106,150,187093,2,0,L|93:258,1,109.375,0|0,3:0|0:0,0:0:0:0:
393,123,187436,5,0,3:0:0:0:
291,86,187607,2,0,L|304:194,1,109.375,8|0,0:3|0:0,0:0:0:0:
28,69,187950,69,0,3:0:0:0:
28,69,188293,5,8,0:3:0:0:
120,10,188465,2,0,L|228:31,1,109.375,0|0,3:0|0:0,0:0:0:0:
366,325,188807,69,0,3:0:0:0:
274,266,188979,2,0,L|166:287,1,109.375,8|0,0:3|0:0,0:0:0:0:
387,28,189322,6,0,P|446:20|508:95,1,164.0625,0|0,3:0|0:0,0:0:0:0:
447,158,189665,2,0,B|422:206|422:206|443:258,1,109.375,8|0,0:3|0:0,0:0:0:0:
306,380,190007,1,0,3:0:0:0:
306,380,190179,1,0,3:0:0:0:
166,286,190350,2,0,P|112:293|58:302,1,109.375,8|0,0:3|0:0,0:0:0:0:
105,88,190693,70,0,L|158:95,1,54.6875,2|2,3:2|0:0,0:0:0:0:
375,124,190865,2,0,L|321:116,1,54.6875,2|2,3:2|0:0,0:0:0:0:
82,131,191036,6,0,L|145:123,1,54.6875,8|0,0:3|0:0,0:0:0:0:
406,90,191207,2,0,L|341:98,1,54.6875,0|0,3:0|0:0,0:0:0:0:
176,242,191379,69,8,0:3:0:0:
213,328,191465,1,8,0:3:0:0:
306,320,191550,1,2,3:2:0:0:
327,228,191636,1,2,3:2:0:0:
248,181,191722,5,8,0:3:0:0:
248,181,191807,1,0,0:0:0:0:
248,181,191893,1,0,0:0:0:0:
248,181,191979,1,0,0:0:0:0:
254,260,192065,70,0,L|262:372,1,109.375,0|0,3:0|0:0,0:0:0:0:
408,164,192407,5,8,0:3:0:0:
498,227,192579,2,0,L|490:339,1,109.375,0|0,3:0|0:0,0:0:0:0:
336,87,192922,69,0,3:0:0:0:
246,150,193093,2,0,L|254:262,1,109.375,8|0,0:3|0:0,0:0:0:0:
265,248,193350,1,0,0:0:0:0:
277,237,193436,6,0,L|168:226,1,109.375,0|0,3:0|0:0,0:0:0:0:
42,311,193779,1,8,0:3:0:0:
5,77,193950,2,0,P|52:50|107:57,1,109.375,0|0,3:0|0:0,0:0:0:0:
248,113,194293,1,0,3:0:0:0:
389,53,194465,69,8,0:3:0:0:
363,298,194636,1,0,0:0:0:0:
363,298,194722,1,0,0:0:0:0:
363,298,194807,2,0,P|420:290|472:286,1,109.375,0|0,3:0|0:0,0:0:0:0:
248,113,195150,5,8,0:3:0:0:
286,353,195322,2,0,B|233:343|233:343|179:357|179:357|126:347,1,164.0625,0|0,3:0|0:0,0:0:0:0:
96,334,195665,1,0,3:0:0:0:
173,158,195836,2,0,B|194:208|194:208|173:258,1,109.375,8|0,0:3|0:0,0:0:0:0:
8,65,196179,69,0,3:0:0:0:
56,89,196265,1,0,0:0:0:0:
110,85,196350,1,0,0:0:0:0:
154,55,196436,1,0,0:0:0:0:
201,29,196522,5,8,0:3:0:0:
255,34,196607,1,0,0:0:0:0:
296,69,196693,1,0,3:0:0:0:
311,121,196779,1,0,0:0:0:0:
293,171,196865,69,0,0:0:0:0:
267,219,196950,1,0,0:0:0:0:
270,273,197036,1,0,3:0:0:0:
302,316,197122,1,0,0:0:0:0:
352,337,197207,5,8,0:3:0:0:
405,327,197293,1,0,0:0:0:0:
445,290,197379,1,0,0:0:0:0:
459,238,197465,1,0,0:0:0:0:
443,186,197550,70,0,P|346:195|251:207,1,192.500005874634,4|8,3:2|0:3,0:0:0:0:
131,143,198065,2,0,P|109:187|113:237,1,96.250002937317,0|0,3:0|0:0,0:0:0:0:
201,333,198407,1,0,3:0:0:0:
236,104,198579,2,0,P|230:55|224:8,1,96.250002937317,8|0,0:3|0:0,0:0:0:0:
354,42,198922,5,0,3:0:0:0:
483,5,199093,1,0,0:0:0:0:
425,127,199265,1,8,0:3:0:0:
499,329,199436,2,0,P|451:319|404:313,1,96.250002937317,0|0,3:0|0:0,0:0:0:0:
284,375,199779,1,0,3:0:0:0:
201,172,199950,1,8,0:3:0:0:
92,296,200122,1,0,0:0:0:0:
92,296,200207,1,0,0:0:0:0:
92,296,200293,70,0,P|140:286|187:280,1,96.250002937317,0|0,3:0|0:0,0:0:0:0:
284,375,200636,1,8,0:3:0:0:
395,161,200807,2,0,P|382:115|295:99,1,144.375004405975,0|0,3:0|0:0,0:0:0:0:
272,113,201150,1,0,3:0:0:0:
146,9,201322,1,8,0:3:0:0:
86,194,201493,1,0,0:0:0:0:
86,194,201579,1,0,0:0:0:0:
86,194,201665,2,0,B|133:185|133:185|179:200|179:200|226:192,1,144.375004405975,0|0,3:0|0:0,0:0:0:0:
252,204,202007,6,0,P|243:251|238:299,1,96.250002937317,8|0,0:3|3:0,0:0:0:0:
296,98,202350,2,0,P|259:66|220:38,1,96.250002937317,0|0,0:0|3:0,0:0:0:0:
365,189,202693,2,0,P|410:172|454:153,1,96.250002937317,8|0,0:3|0:0,0:0:0:0:
159,160,203036,70,0,P|143:244|134:330,1,144.375004405975,0|0,3:0|0:0,0:0:0:0:
134,331,203379,1,8,0:3:0:0:
319,379,203550,1,0,3:0:0:0:
319,379,203636,1,0,0:0:0:0:
319,379,203722,2,0,L|311:331,1,48.1250014686585
292,247,203893,1,0,3:0:0:0:
355,80,204065,2,0,P|403:59|445:69,1,96.250002937317,8|0,0:3|0:0,0:0:0:0:
274,151,204407,6,0,P|199:140|131:133,1,144.375004405975,0|0,3:0|0:0,0:0:0:0:
102,130,204750,1,8,0:3:0:0:
4,273,204922,1,0,3:0:0:0:
4,273,205007,1,0,0:0:0:0:
4,273,205093,2,0,L|52:266,1,48.1250014686585
139,252,205265,1,0,3:0:0:0:
329,286,205436,2,0,P|351:329|343:377,1,96.250002937317,8|0,0:3|0:0,0:0:0:0:
248,207,205779,70,0,B|230:156|230:156|255:70,1,144.375004405975,0|0,3:0|0:0,0:0:0:0:
265,42,206122,1,8,0:3:0:0:
50,72,206293,1,0,3:0:0:0:
128,2,206465,2,0,P|137:48|148:99,1,96.250002937317,0|0,0:0|3:0,0:0:0:0:
0,186,206807,2,0,P|42:164|89:167,1,96.250002937317,8|0,0:3|0:0,0:0:0:0:
319,247,207150,6,0,B|272:240|272:240|226:256|226:256|179:249,1,144.375004405975,0|0,3:0|0:0,0:0:0:0:
149,245,207493,1,8,0:3:0:0:
190,384,207665,1,0,3:0:0:0:
190,384,207750,1,0,0:0:0:0:
190,384,207836,2,0,L|285:374,1,96.250002937317,0|0,0:0|3:0,0:0:0:0:
414,236,208179,2,0,L|319:246,1,96.250002937317,8|0,0:3|0:0,0:0:0:0:
123,107,208522,69,0,3:0:0:0:
339,129,208693,1,0,0:0:0:0:
103,87,208865,5,8,0:3:0:0:
362,113,209036,1,0,3:0:0:0:
242,7,209207,70,0,L|232:106,1,96.250002937317,0|0,0:0|3:0,0:0:0:0:
221,198,209550,1,8,0:3:0:0:
195,384,209722,1,0,0:0:0:0:
51,290,209893,6,0,P|95:269|141:272,1,96.250002937317,0|0,3:0|0:0,0:0:0:0:
412,328,210236,1,8,0:3:0:0:
320,213,210407,2,0,P|309:274|297:363,1,144.375004405975,0|0,3:0|0:0,0:0:0:0:
295,384,210750,1,0,3:0:0:0:
436,145,210922,69,8,0:3:0:0:
197,175,211093,1,0,0:0:0:0:
309,6,211265,2,0,P|318:61|323:105,1,96.250002937317,0|0,3:0|0:0,0:0:0:0:
228,260,211607,5,8,0:3:0:0:
133,116,211779,2,0,P|175:91|221:91,1,96.250002937317,0|0,3:0|0:0,0:0:0:0:
400,279,212122,69,0,3:0:0:0:
464,220,212293,2,0,P|422:195|376:195,1,96.250002937317,8|0,0:3|0:0,0:0:0:0:
191,349,212636,6,0,B|145:364|145:364|51:346,1,144.375004405975,0|0,3:0|0:0,0:0:0:0:
22,340,212979,1,8,0:3:0:0:
71,126,213150,1,0,3:0:0:0:
156,171,213322,2,0,P|147:219|142:266,1,96.250002937317,0|0,0:0|3:0,0:0:0:0:
334,119,213665,2,0,P|328:71|319:23,1,96.250002937317,8|0,0:3|0:0,0:0:0:0:
237,233,214007,69,0,3:0:0:0:
283,244,214093,1,0,0:0:0:0:
327,226,214179,1,0,0:0:0:0:
368,202,214265,1,0,0:0:0:0:
415,207,214350,1,8,0:3:0:0:
451,238,214436,1,0,0:0:0:0:
462,284,214522,1,0,3:0:0:0:
445,328,214607,1,0,0:0:0:0:
405,353,214693,5,0,0:0:0:0:
357,351,214779,1,0,0:0:0:0:
320,322,214865,1,0,3:0:0:0:
308,276,214950,1,0,0:0:0:0:
323,232,215036,1,8,0:3:0:0:
362,204,215122,1,0,0:0:0:0:
405,184,215207,1,0,0:0:0:0:
432,145,215293,1,0,0:0:0:0:
437,97,215379,69,0,3:0:0:0:
418,54,215465,1,0,0:0:0:0:
379,25,215550,1,0,0:0:0:0:
332,19,215636,1,0,0:0:0:0:
288,37,215722,1,8,0:3:0:0:
258,74,215807,1,0,0:0:0:0:
226,109,215893,1,0,3:0:0:0:
181,121,215979,1,0,0:0:0:0:
135,107,216065,5,0,0:0:0:0:
88,95,216150,1,0,0:0:0:0:
43,109,216236,1,0,3:0:0:0:
10,144,216322,1,0,0:0:0:0:
0,190,216407,1,8,0:3:0:0:
14,236,216493,1,0,0:0:0:0:
50,267,216579,1,0,0:0:0:0:
96,277,216665,1,0,0:0:0:0:
141,261,216750,69,0,3:0:0:0:
88,239,216836,1,0,0:0:0:0:
38,263,216922,1,0,0:0:0:0:
20,315,217007,1,0,0:0:0:0:
45,364,217093,1,8,0:3:0:0:
98,381,217179,1,0,0:0:0:0:
146,354,217265,1,0,3:0:0:0:
196,328,217350,1,0,0:0:0:0:
252,329,217436,5,0,0:0:0:0:
306,342,217522,1,0,0:0:0:0:
361,327,217607,1,0,3:0:0:0:
399,286,217693,1,0,0:0:0:0:
411,230,217779,1,8,0:3:0:0:
393,176,217865,1,0,0:0:0:0:
349,140,217950,1,0,0:0:0:0:
293,130,218036,1,0,0:0:0:0:
239,149,218122,69,0,3:0:0:0:
246,80,218207,1,0,0:0:0:0:
289,24,218293,1,0,0:0:0:0:
355,0,218379,1,0,0:0:0:0:
424,10,218465,1,8,0:3:0:0:
478,54,218550,1,0,0:0:0:0:
502,119,218636,1,0,3:0:0:0:
489,188,218722,1,0,0:0:0:0:
444,241,218807,5,0,0:0:0:0:
377,264,218893,1,0,0:0:0:0:
310,249,218979,1,0,3:0:0:0:
258,203,219065,1,0,0:0:0:0:
240,135,219151,1,8,0:3:0:0:
197,77,219237,1,0,0:0:0:0:
130,53,219323,1,0,0:0:0:0:
61,65,219407,1,0,0:0:0:0:
14,116,219493,5,4,0:0:0:0:
61,322,219665,1,0,0:0:0:0:
13,230,219836,5,8,0:0:0:0:
162,353,220008,1,0,0:0:0:0:
279,285,220179,70,0,P|275:253|272:225,1,61.2499981307984,2|0,0:0|0:0,0:0:0:0:
413,349,220350,2,0,P|416:318|420:288,1,61.2499981307984
364,172,220522,5,10,0:0:0:0:
363,156,220607,1,2,0:0:0:0:
362,141,220693,1,0,0:0:0:0:
361,126,220779,1,2,0:0:0:0:
425,79,220865,70,0,L|301:67,1,122.499996261597,0|2,0:0|0:0,0:0:0:0:
229,36,221122,1,0,0:0:0:0:
238,114,221207,1,10,0:0:0:0:
235,129,221292,1,2,0:0:0:0:
233,144,221378,1,0,0:0:0:0:
230,159,221464,1,0,0:0:0:0:
214,237,221550,6,0,P|221:266|223:297,1,61.2499981307984,2|0,0:0|0:0,0:0:0:0:
176,363,221722,2,0,P|147:370|116:372,1,61.2499981307984,2|0,0:0|0:0,0:0:0:0:
50,325,221893,2,0,P|43:296|41:265,1,61.2499981307984,10|0,0:0|0:0,0:0:0:0:
88,199,222065,2,0,P|117:192|148:190,1,61.2499981307984,2|0,0:0|0:0,0:0:0:0:
133,283,222236,69,0,0:0:0:0:
133,283,222407,1,2,0:0:0:0:
133,283,222579,2,0,L|193:291,1,61.2499981307984,10|0,0:0|0:0,0:0:0:0:
294,244,222750,1,2,0:0:0:0:
323,237,222835,1,2,0:0:0:0:
352,246,222921,1,0,0:0:0:0:
374,267,223007,1,2,0:0:0:0:
383,296,223093,6,0,L|373:358,1,61.2499981307984
502,298,223265,2,0,L|513:359,1,61.2499981307984,10|0,0:0|0:0,0:0:0:0:
437,203,223436,69,0,0:0:0:0:
323,237,223607,6,0,P|299:219|279:193,1,61.2499981307984,2|0,0:0|0:0,0:0:0:0:
308,75,223779,2,0,P|334:61|366:58,1,61.2499981307984,2|0,0:0|0:0,0:0:0:0:
452,144,223950,2,0,P|449:173|436:203,1,61.2499981307984,10|0,0:0|0:0,0:0:0:0:
362,150,224122,69,0,0:0:0:0:
362,150,224293,5,2,0:0:0:0:
327,116,224378,1,2,0:0:0:0:
283,105,224464,1,2,0:0:0:0:
240,117,224550,1,0,0:0:0:0:
206,149,224636,70,0,P|203:181|202:210,1,61.2499981307984,10|0,0:0|0:0,0:0:0:0:
122,345,224807,2,0,P|120:314|117:283,1,61.2499981307984
292,271,224979,6,0,P|352:264|413:259,1,122.499996261597,2|0,0:0|0:0,0:0:0:0:
431,277,225236,1,0,0:0:0:0:
477,210,225322,2,0,P|479:178|472:150,1,61.2499981307984,10|2,0:0|0:0,0:0:0:0:
353,90,225493,1,0,0:0:0:0:
355,105,225578,1,2,0:0:0:0:
357,120,225664,1,2,0:0:0:0:
360,135,225750,1,2,0:0:0:0:
362,150,225836,1,0,0:0:0:0:
216,58,226007,70,0,L|220:27,2,30.6249990653992,10|0|0,0:0|0:0|0:0,0:0:0:0:
204,138,226179,1,0,0:0:0:0:
23,301,226350,5,2,0:0:0:0:
106,323,226522,1,0,0:0:0:0:
75,130,226693,70,0,L|71:99,2,30.6249990653992,10|0|0,0:0|0:0|0:0,0:0:0:0:
133,187,226865,5,0,0:0:0:0:
128,210,226950,1,2,0:0:0:0:
185,265,227036,69,0,0:0:0:0:
208,258,227122,1,0,0:0:0:0:
231,251,227207,1,2,0:0:0:0:
254,244,227293,1,0,0:0:0:0:
272,166,227379,5,8,0:0:0:0:
254,150,227465,1,0,0:0:0:0:
237,134,227550,1,0,0:0:0:0:
219,117,227636,1,0,0:0:0:0:
143,141,227722,69,2,0:0:0:0:
337,223,227893,5,0,0:0:0:0:
360,216,227979,1,0,0:0:0:0:
383,209,228064,1,10,0:0:0:0:
406,202,228150,1,0,0:0:0:0:
464,256,228236,69,0,0:0:0:0:
458,279,228322,1,0,0:0:0:0:
482,355,228407,5,2,0:0:0:0:
444,329,228492,1,0,0:0:0:0:
398,326,228578,1,2,0:0:0:0:
358,346,228664,1,0,0:0:0:0:
332,383,228750,70,0,L|326:350,2,30.6249990653992,10|0|0,0:0|0:0|0:0,0:0:0:0:
309,275,228922,1,2,0:0:0:0:
162,336,229093,5,2,0:0:0:0:
185,177,229265,69,0,0:0:0:0:
157,147,229350,1,2,0:0:0:0:
118,136,229436,1,10,0:0:0:0:
80,147,229522,1,0,0:0:0:0:
34,212,229607,5,2,0:0:0:0:
38,236,229693,1,0,0:0:0:0:
119,214,229779,6,0,L|112:275,1,61.2499981307984,2|0,0:0|0:0,0:0:0:0:
125,295,229950,2,0,L|132:234,1,61.2499981307984,2|0,3:2|0:0,0:0:0:0:
270,74,230122,22,0,L|263:135,1,61.2499981307984,10|0,0:3|0:0,0:0:0:0:
267,207,230293,2,0,L|274:146,1,61.2499981307984,2|0,3:2|0:0,0:0:0:0:
438,295,230465,53,4,3:2:0:0:
263,375,230636,22,0,P|227:383|192:379,1,70
298,238,230807,2,0,P|311:269|314:304,1,70,8|0,0:3|0:0,0:0:0:0:
132,314,230979,2,0,P|129:277|139:243,1,70
273,146,231150,54,0,B|242:155|217:186|217:186|193:158|159:148,1,140,0|0,0:0|3:0,0:0:0:0:
340,78,231407,21,0,0:0:0:0:
351,95,231493,2,0,P|365:133|364:162,1,70,8|0,0:3|0:0,0:0:0:0:
71,165,231665,2,0,P|70:130|83:97,1,70
214,70,231836,53,0,3:0:0:0:
221,290,232007,1,0,0:0:0:0:
221,290,232093,1,0,0:0:0:0:
221,290,232179,2,0,L|226:365,1,70,8|0,0:3|0:0,0:0:0:0:
437,293,232350,2,0,L|432:363,1,70,0|0,0:3|0:0,0:0:0:0:
262,182,232522,6,0,P|305:209|332:255,1,105
331,254,232693,2,0,P|358:210|404:183,1,105,0|0,3:0|0:0,0:0:0:0:
404,183,232865,2,0,P|360:155|333:109,1,105,8|0,0:3|0:0,0:0:0:0:
335,112,233036,2,0,P|307:155|261:182,1,105
261,181,233207,6,0,L|192:170,1,70,0|0,3:0|0:0,0:0:0:0:
8,139,233379,2,0,L|77:150,1,70
266,45,233550,54,0,P|232:50|200:69,1,70,8|0,0:3|0:0,0:0:0:0:
49,10,233722,2,0,P|81:24|103:54,1,70
117,241,233893,21,0,0:0:0:0:
117,241,233979,1,0,0:0:0:0:
117,241,234065,1,0,3:0:0:0:
251,248,234236,54,0,P|249:213|261:181,1,70,8|0,0:3|0:0,0:0:0:0:
472,211,234407,2,0,P|474:246|463:279,1,70
352,358,234579,22,0,L|359:289,1,70,0|0,3:0|0:0,0:0:0:0:
369,179,234750,2,0,L|376:110,1,70
99,61,234922,54,0,L|106:131,1,70,8|0,0:3|0:0,0:0:0:0:
116,240,235093,2,0,L|123:310,1,70
441,48,235265,21,0,0:0:0:0:
402,27,235350,1,0,0:0:0:0:
359,23,235436,1,0,3:0:0:0:
318,38,235522,1,0,0:0:0:0:
286,68,235607,54,0,L|217:57,1,70,8|0,0:3|0:0,0:0:0:0:
116,240,235779,2,0,L|185:229,1,70
359,288,235950,22,0,P|371:319|370:358,3,70,0|0|0|0,3:0|0:0|0:0|0:0,0:0:0:0:
268,305,236293,2,0,P|267:270|279:237,1,70,8|0,3:2|0:0,0:0:0:0:
488,180,236465,53,0,0:0:0:0:
466,206,236550,1,0,0:0:0:0:
434,221,236636,1,0,3:0:0:0:
399,220,236722,1,0,0:0:0:0:
369,203,236807,22,0,P|370:168|364:135,1,70
216,207,236979,2,0,P|246:225|278:236,1,70,8|0,3:2|0:0,0:0:0:0:
289,72,237150,2,0,P|257:89|231:111,1,70
108,5,237322,54,0,P|115:73|122:144,1,140,0|0,3:0|0:0,0:0:0:0:
89,237,237579,1,0,0:0:0:0:
72,226,237665,2,0,P|41:215|4:215,1,70,8|0,3:2|0:0,0:0:0:0:
140,348,237836,21,0,0:0:0:0:
140,348,237922,1,0,0:0:0:0:
140,348,238007,2,0,P|174:348|207:336,1,70,0|0,3:0|0:0,0:0:0:0:
372,348,238179,2,0,P|338:348|305:336,1,70
112,198,238350,54,0,P|130:228|157:251,1,70,8|0,3:2|0:0,0:0:0:0:
399,197,238522,2,0,P|381:227|354:251,1,70
252,58,238693,21,0,3:0:0:0:
207,335,238865,1,0,3:0:0:0:
254,40,239035,53,8,3:2:0:0:
102,275,239207,1,0,3:0:0:0:
257,23,239379,21,0,3:0:0:0:
322,294,239550,1,0,3:0:0:0:
260,6,239722,53,8,3:2:0:0:
47,187,239893,1,0,3:0:0:0:
322,294,240065,21,0,3:0:0:0:
352,242,240150,1,0,3:0:0:0:
336,184,240236,1,0,3:0:0:0:
311,128,240322,1,0,3:0:0:0:
326,70,240407,1,0,3:0:0:0:
373,32,240493,1,0,3:0:0:0:
433,31,240579,1,0,3:0:0:0:
481,66,240665,1,0,3:0:0:0:
404,120,240750,53,8,0:3:0:0:
403,134,240836,1,8,0:3:0:0:
484,158,240922,21,0,3:0:0:0:
483,172,241008,1,0,3:0:0:0:
407,213,241093,54,0,B|424:250|424:250|415:294,1,87.5,10|0,0:3|0:0,0:0:0:0:
187,318,241265,2,0,B|169:280|169:280|178:236,1,87.5,8|0,0:3|0:0,0:0:0:0:
289,201,241436,54,0,L|306:335,1,131.25000500679,6|2,0:0|0:0,0:0:0:0:
305,330,241950,1,2,0:0:0:0:
157,282,242293,2,0,L|165:348,1,65.6250025033952,2|0,0:0|0:0,0:0:0:0:
57,374,242636,6,0,L|66:243,1,131.25000500679,2|0,0:0|0:0,0:0:0:0:
0,170,243150,1,2,0:0:0:0:
73,104,243322,1,2,0:0:0:0:
139,177,243493,5,2,0:0:0:0:
149,182,243579,1,2,0:0:0:0:
161,186,243665,1,2,0:0:0:0:
173,188,243750,1,2,0:0:0:0:
185,189,243836,1,0,0:0:0:0:
198,187,243922,1,0,0:0:0:0:
210,184,244007,1,2,0:0:0:0:
221,180,244093,1,0,0:0:0:0:
232,173,244179,54,0,L|223:42,1,131.25000500679,2|2,0:0|0:0,0:0:0:0:
223,42,244693,1,2,0:0:0:0:
431,32,245036,2,0,L|435:97,1,65.6250025033952,2|0,0:0|0:0,0:0:0:0:
339,79,245379,6,0,L|330:210,1,131.25000500679,2|0,0:0|0:0,0:0:0:0:
396,283,245893,1,2,0:0:0:0:
323,349,246065,1,2,0:0:0:0:
257,276,246236,5,0,0:0:0:0:
242,269,246322,1,0,0:0:0:0:
226,266,246407,1,2,0:0:0:0:
209,267,246493,1,0,0:0:0:0:
194,272,246579,5,2,0:0:0:0:
157,288,246665,1,2,0:0:0:0:
118,279,246750,1,2,0:0:0:0:
92,248,246836,1,0,0:0:0:0:
89,208,246922,38,0,P|98:281|103:341,1,131.25000500679,2|0,0:0|0:0,0:0:0:0:
241,42,247607,6,0,P|232:115|227:175,1,131.25000500679,2|0,0:0|0:0,0:0:0:0:
485,255,248293,70,0,P|442:207|378:203,1,131.25000500679,2|2,0:0|0:0,0:0:0:0:
294,255,248807,2,0,P|306:332|312:385,1,131.25000500679,2|0,0:0|0:0,0:0:0:0:
215,333,249322,1,2,0:0:0:0:
394,306,249493,1,2,0:0:0:0:
191,337,249665,5,2,0:0:0:0:
111,127,250007,1,2,0:0:0:0:
321,47,250350,1,2,0:0:0:0:
401,257,250693,1,2,0:0:0:0:
191,337,251036,21,2,0:0:0:0:
157,314,251121,1,2,0:0:0:0:
117,310,251207,1,0,0:0:0:0:
79,326,251293,1,0,0:0:0:0:
55,358,251379,38,0,L|50:320,3,32.8125012516976,2|0|0|0,0:0|0:0|0:0|0:0,0:0:0:0:
212,250,251722,2,0,L|217:211,3,32.8125012516976,2|0|0|0,0:0|0:0|0:0|0:0,0:0:0:0:
30,142,252065,2,0,L|24:103,3,32.8125012516976,2|0|0|0,0:3|0:0|0:0|0:0,0:0:0:0:
248,41,252407,54,0,B|298:6|352:33,1,109.375,4|0,3:2|0:0,0:0:0:0:
457,304,252750,1,8,0:3:0:0:
505,197,252922,2,0,B|451:186|451:186|399:202|399:202|345:191,1,164.0625,0|0,3:0|0:0,0:0:0:0:
314,184,253265,1,0,3:0:0:0:
107,229,253436,2,0,L|117:339,1,109.375,8|0,0:3|0:0,0:0:0:0:
145,355,253693,1,0,0:0:0:0:
145,355,253779,6,0,L|130:191,1,164.0625,0|0,3:0|0:0,0:0:0:0:
127,159,254122,1,8,0:3:0:0:
241,26,254293,1,0,3:0:0:0:
450,91,254465,70,0,P|461:119|463:146,1,54.6875,2|2,0:0|0:0,0:0:0:0:
243,151,254636,2,0,P|232:179|230:206,1,54.6875,2|2,3:2|0:0,0:0:0:0:
464,226,254807,2,0,P|459:255|447:280,1,54.6875,8|0,0:3|0:0,0:0:0:0:
233,288,254979,2,0,P|237:317|249:342,1,54.6875
347,280,255150,6,0,B|353:225|353:225|332:174|332:174|339:120,1,164.0625,0|0,3:0|0:0,0:0:0:0:
343,88,255493,1,8,0:3:0:0:
149,9,255665,2,0,P|159:69|165:119,1,109.375,0|0,3:0|0:0,0:0:0:0:
4,303,256007,2,0,P|10:248|19:194,1,109.375,0|8,3:0|0:3,0:0:0:0:
176,360,256350,1,0,0:0:0:0:
176,360,256436,1,0,0:0:0:0:
176,360,256522,70,0,B|261:320|260:387|336:357,1,164.0625,0|0,3:0|0:0,0:0:0:0:
365,346,256865,1,8,0:3:0:0:
312,79,257036,1,0,3:0:0:0:
440,178,257207,5,2,0:0:0:0:
456,210,257292,1,2,0:0:0:0:
455,247,257378,1,2,3:2:0:0:
440,279,257464,1,2,0:0:0:0:
374,230,257550,69,8,0:3:0:0:
357,228,257635,1,2,0:0:0:0:
339,225,257721,1,0,0:0:0:0:
321,222,257807,1,0,0:0:0:0:
242,207,257892,5,0,3:0:0:0:
242,207,258236,69,8,0:3:0:0:
155,274,258407,2,0,L|171:382,1,109.375,0|0,3:0|0:0,0:0:0:0:
414,121,258750,5,0,3:0:0:0:
501,188,258921,2,0,L|485:296,1,109.375,8|0,0:3|0:0,0:0:0:0:
123,44,259265,69,0,3:0:0:0:
123,44,259607,5,8,0:3:0:0:
92,149,259779,2,0,L|200:134,1,109.375,0|0,3:0|0:0,0:0:0:0:
470,270,260122,69,0,3:0:0:0:
501,375,260294,2,0,L|393:360,1,109.375,8|0,0:3|0:0,0:0:0:0:
435,24,260636,6,0,B|468:100|468:100|434:173,1,164.0625,0|0,3:0|0:0,0:0:0:0:
421,204,260979,1,8,0:3:0:0:
421,204,261322,69,0,3:0:0:0:
263,128,261493,1,0,3:0:0:0:
121,232,261665,2,0,P|127:284|134:343,1,109.375,8|0,0:3|0:0,0:0:0:0:
263,128,262007,5,2,3:2:0:0:
214,104,262093,1,2,0:0:0:0:
161,116,262179,1,2,0:0:0:0:
115,134,262265,1,2,0:0:0:0:
71,121,262350,69,8,0:3:0:0:
48,84,262436,1,0,0:0:0:0:
52,43,262522,1,0,3:0:0:0:
76,14,262607,1,0,0:0:0:0:
110,3,262693,5,0,0:0:0:0:
143,9,262779,1,0,0:0:0:0:
167,28,262865,1,2,3:2:0:0:
178,53,262950,1,2,0:0:0:0:
179,72,263036,70,0,P|172:99|169:128,1,54.6875,8|0,0:3|0:0,0:0:0:0:
332,194,263207,2,0,P|304:189|277:189,1,54.6875
36,273,263379,6,0,B|91:267|91:267|140:289|140:289|196:283,1,164.0625,0|0,3:0|0:0,0:0:0:0:
227,278,263722,1,8,0:3:0:0:
499,253,263893,2,0,B|520:304|520:304|505:356,1,109.375,0|0,0:0|3:0,0:0:0:0:
277,188,264236,2,0,B|262:136|262:136|283:85,1,109.375,0|8,3:0|0:3,0:0:0:0:
423,313,264579,69,0,0:0:0:0:
411,324,264665,1,0,0:0:0:0:
399,335,264750,2,0,L|236:319,1,164.0625,0|0,3:0|0:0,0:0:0:0:
203,316,265093,1,8,0:3:0:0:
203,316,265436,5,0,3:0:0:0:
32,356,265607,1,0,3:0:0:0:
11,84,265779,2,0,B|64:74|64:74|118:91|118:91|171:82,1,164.0625,8|0,0:3|0:0,0:0:0:0:
203,78,266122,1,0,3:0:0:0:
203,77,266465,70,0,P|182:128|192:181,1,109.375,8|0,0:3|0:0,0:0:0:0:
371,99,266807,2,0,P|337:56|286:38,1,109.375,0|0,3:0|3:0,0:0:0:0:
268,233,267150,2,0,P|321:225|362:190,1,109.375,8|0,0:3|0:0,0:0:0:0:
281,138,267493,5,0,3:0:0:0:
280,137,267836,70,0,P|321:102|375:95,1,109.375,8|0,0:3|0:0,0:0:0:0:
357,288,268179,2,0,P|306:270|273:228,1,109.375,0|0,3:0|3:0,0:0:0:0:
450,146,268522,2,0,P|460:199|440:250,1,109.375,8|0,0:3|0:0,0:0:0:0:
362,192,268865,6,0,L|376:29,1,164.0625,0|0,3:0|0:0,0:0:0:0:
346,41,269207,2,0,B|295:59|295:59|244:38,1,109.375,8|0,0:3|0:0,0:0:0:0:
123,133,269550,1,0,3:0:0:0:
21,90,269722,1,0,3:0:0:0:
86,297,269893,2,0,L|195:288,1,109.375,8|0,0:3|0:0,0:0:0:0:
469,271,270236,69,0,3:0:0:0:
195,164,270407,1,0,3:0:0:0:
473,63,270579,5,8,0:3:0:0:
179,172,270750,1,0,3:0:0:0:
469,271,270922,69,8,0:3:0:0:
504,196,271008,1,8,0:3:0:0:
445,140,271094,1,0,3:0:0:0:
372,178,271180,1,0,3:0:0:0:
386,259,271265,6,0,L|378:300,1,32.8125,8|0,0:3|0:0,0:0:0:0:
308,328,271607,69,0,3:0:0:0:
262,298,271693,1,0,0:0:0:0:
208,297,271779,1,0,0:0:0:0:
162,324,271865,1,0,0:0:0:0:
115,351,271950,5,8,3:2:0:0:
62,348,272036,1,0,0:0:0:0:
19,315,272122,1,0,0:0:0:0:
2,264,272207,1,0,0:0:0:0:
16,212,272293,69,0,3:0:0:0:
57,177,272379,1,0,0:0:0:0:
110,167,272465,1,0,0:0:0:0:
158,191,272550,1,0,0:0:0:0:
208,211,272636,5,8,3:2:0:0:
262,203,272722,1,0,0:0:0:0:
304,170,272807,1,0,0:0:0:0:
325,119,272893,1,0,0:0:0:0:
317,66,272979,69,0,3:0:0:0:
285,23,273065,1,0,0:0:0:0:
235,2,273150,1,0,0:0:0:0:
181,9,273236,1,0,0:0:0:0:
138,41,273322,5,8,3:2:0:0:
116,91,273407,1,0,0:0:0:0:
121,145,273493,1,0,0:0:0:0:
153,188,273579,1,0,0:0:0:0:
202,211,273665,69,0,3:0:0:0:
256,205,273750,1,0,0:0:0:0:
309,195,273836,1,0,0:0:0:0:
357,217,273922,1,0,0:0:0:0:
384,264,274007,5,8,3:2:0:0:
378,318,274093,1,0,0:0:0:0:
342,358,274179,1,0,0:0:0:0:
289,369,274265,1,0,0:0:0:0:
240,348,274350,70,0,L|248:295,1,54.6875,0|0,3:0|0:0,0:0:0:0:
72,195,274522,5,0,3:0:0:0:
86,185,274608,1,0,0:0:0:0:
100,176,274694,2,0,L|153:184,1,54.6875,8|0,3:2|0:0,0:0:0:0:
253,8,274865,69,0,3:0:0:0:
263,22,274951,1,0,0:0:0:0:
272,36,275037,2,0,L|264:89,1,54.6875,0|0,3:0|0:0,0:0:0:0:
440,189,275207,5,0,3:0:0:0:
426,199,275293,1,0,0:0:0:0:
412,208,275379,2,0,L|359:200,1,54.6875,8|0,3:2|0:0,0:0:0:0:
240,348,275550,70,0,L|248:295,1,54.6875,0|0,3:0|0:0,0:0:0:0:
106,56,275722,5,0,3:0:0:0:
150,25,275807,1,0,3:0:0:0:
204,24,275893,1,0,3:0:0:0:
249,53,275979,1,0,3:0:0:0:
271,102,276065,1,0,3:0:0:0:
294,150,276150,1,0,3:0:0:0:
340,179,276236,1,0,3:0:0:0:
393,178,276322,1,0,3:0:0:0:
439,149,276407,69,8,0:3:0:0:
492,85,276493,1,8,0:3:0:0:
452,15,276579,1,0,3:0:0:0:
371,29,276665,1,0,3:0:0:0:
359,110,276750,6,0,L|368:166,1,54.6875,10|0,0:3|3:0,0:0:0:0:
246,382,276922,2,0,L|254:328,1,54.6875,8|0,0:3|0:0,0:0:0:0:
170,97,277093,38,0,P|105:82|39:110,1,140,4|0,3:2|0:0,0:0:0:0:
8,195,277350,1,0,0:0:0:0:
8,195,277436,2,0,P|15:230|32:260,1,70,8|0,0:3|0:0,0:0:0:0:
206,242,277607,2,0,P|218:206|217:174,1,70
113,191,277779,22,0,L|124:330,1,140,0|0,0:0|3:0,0:0:0:0:
325,269,278036,53,0,0:0:0:0:
323,290,278122,2,0,L|316:362,1,70,8|0,0:3|0:0,0:0:0:0:
511,366,278293,2,0,L|505:297,1,70
364,169,278465,22,0,B|398:177|421:207|421:207|450:181|484:179,1,140,0|0,3:0|0:0,0:0:0:0:
440,6,278722,53,0,0:0:0:0:
438,26,278807,2,0,L|431:97,1,70,8|0,0:3|0:0,0:0:0:0:
279,206,278979,2,0,L|272:136,1,70
126,97,279150,6,0,P|74:99|28:125,1,105
28,124,279322,2,0,P|26:72|0:26,1,105,0|0,3:0|0:0,0:0:0:0:
0,26,279493,2,0,P|52:24|98:-2,1,105,8|0,0:3|0:0,0:0:0:0:
97,0,279665,2,0,P|99:52|125:98,1,105
126,97,279836,6,0,L|195:88,1,70,0|0,3:0|0:0,0:0:0:0:
404,60,280007,2,0,L|335:69,1,70
175,239,280179,54,0,P|201:217|217:183,1,70,8|0,0:3|0:0,0:0:0:0:
395,212,280350,2,0,P|362:194|339:169,1,70
253,7,280522,21,0,0:0:0:0:
253,7,280607,1,0,0:0:0:0:
253,7,280693,1,0,3:0:0:0:
289,246,280865,54,0,L|308:384,1,140,8|0,0:3|0:0,0:0:0:0:
430,361,281122,21,0,0:0:0:0:
431,340,281207,2,0,L|437:270,1,70,0|0,3:0|0:0,0:0:0:0:
451,160,281379,2,0,L|457:90,1,70
180,45,281550,54,0,L|186:114,1,70,8|0,0:3|0:0,0:0:0:0:
200,225,281722,2,0,L|206:294,1,70
512,19,281893,21,0,0:0:0:0:
480,3,281978,1,0,0:0:0:0:
446,0,282064,1,0,3:0:0:0:
412,10,282150,1,0,0:0:0:0:
385,32,282236,54,0,P|352:28|315:22,1,70,8|0,0:3|0:0,0:0:0:0:
200,225,282407,2,0,P|233:221|270:215,1,70
451,331,282579,21,0,3:0:0:0:
493,138,282750,53,0,0:0:0:0:
493,138,282836,1,0,0:0:0:0:
493,138,282922,2,0,P|457:122|416:125,1,70,8|0,0:3|0:0,0:0:0:0:
269,215,283093,1,0,0:0:0:0:
218,226,283179,1,0,0:0:0:0:
171,205,283265,1,0,0:0:0:0:
146,159,283350,1,0,0:0:0:0:
153,108,283436,22,0,P|166:149|168:178,1,70,0|0,3:0|0:0,0:0:0:0:
2,125,283607,2,0,P|32:92|56:76,1,70,8|0,0:3|0:0,0:0:0:0:
93,247,283779,2,0,P|50:237|24:224,1,70
268,324,283950,54,0,P|311:314|337:301,1,70,0|0,3:0|0:0,0:0:0:0:
388,140,284122,2,0,P|375:182|373:211,1,70
487,336,284293,2,0,P|456:303|432:287,1,70,8|0,0:3|0:0,0:0:0:0:
156,344,284465,21,0,0:0:0:0:
156,344,284550,1,0,0:0:0:0:
156,344,284636,2,0,L|88:332,1,70
208,204,284807,2,0,L|276:192,1,70,0|0,3:0|0:0,0:0:0:0:
12,84,284979,53,8,0:3:0:0:
51,9,285065,1,0,0:0:0:0:
134,24,285150,1,0,0:0:0:0:
146,106,285236,1,0,0:0:0:0:
70,143,285322,1,0,3:0:0:0:
248,356,285493,21,0,0:0:0:0:
248,356,285579,1,0,0:0:0:0:
248,356,285665,2,0,P|244:321|233:288,1,70,8|0,0:3|0:0,0:0:0:0:
432,356,285836,2,0,P|436:321|447:288,1,70
216,184,286007,54,0,P|256:184|284:196,1,70
464,184,286179,2,0,P|424:184|396:196,1,70,0|0,3:0|0:0,0:0:0:0:
264,39,286350,22,0,B|285:105,1,70,8|0,0:3|0:0,0:0:0:0:
416,39,286522,2,0,B|395:105,1,70
340,276,286693,53,0,3:0:0:0:
155,249,286865,21,0,0:0:0:0:
122,259,286950,1,0,0:0:0:0:
87,254,287036,1,8,0:3:0:0:
60,233,287122,1,0,0:0:0:0:
45,201,287207,2,0,P|53:168|59:131,1,70
232,21,287379,54,0,L|247:107,1,70
290,365,287550,2,0,L|275:279,1,70,0|0,3:0|0:0,0:0:0:0:
274,54,287722,22,0,L|268:124,1,70,10|0,0:3|0:0,0:0:0:0:
248,332,287893,2,0,L|254:262,1,70
489,190,288065,54,0,B|350:201,1,140,0|0,3:0|0:0,0:0:0:0:
370,291,288322,1,0,0:0:0:0:
390,298,288407,2,0,P|425:302|466:291,1,70,8|0,0:3|0:0,0:0:0:0:
448,93,288579,2,0,P|412:88|371:99,1,70
269,268,288750,22,0,B|239:204|239:204|263:140,1,140,0|0,0:0|3:0,0:0:0:0:
83,141,289007,53,0,0:0:0:0:
101,131,289093,2,0,L|170:143,1,70,8|0,0:3|0:0,0:0:0:0:
108,281,289265,2,0,L|177:269,1,70
364,366,289436,22,0,P|296:356|226:348,1,140,0|0,3:0|0:0,0:0:0:0:
269,268,289693,53,0,0:0:0:0:
287,257,289779,2,0,L|279:187,1,70,8|0,0:3|0:0,0:0:0:0:
479,262,289950,2,0,L|487:192,1,70
314,85,290122,6,0,P|357:112|384:158,1,105
383,157,290293,2,0,P|410:113|456:86,1,105,0|0,3:0|0:0,0:0:0:0:
456,86,290465,2,0,P|412:58|385:12,1,105,8|0,0:3|0:0,0:0:0:0:
387,15,290636,2,0,P|359:58|313:85,1,105
313,84,290807,6,0,L|243:76,1,70,0|0,3:0|0:0,0:0:0:0:
23,50,290979,2,0,L|93:58,1,70
260,219,291150,54,0,L|216:163,1,70,8|0,0:3|0:0,0:0:0:0:
43,194,291322,2,0,L|98:150,1,70
176,0,291493,21,0,0:0:0:0:
176,0,291579,1,0,0:0:0:0:
176,0,291665,1,0,3:0:0:0:
95,278,291836,54,0,B|150:233|150:233|194:286,1,140,8|0,0:3|0:0,0:0:0:0:
134,384,292093,21,0,0:0:0:0:
136,362,292179,2,0,L|143:292,1,70,0|0,3:0|0:0,0:0:0:0:
155,184,292350,2,0,L|162:114,1,70
434,33,292522,54,0,L|441:103,1,70,8|0,0:3|0:0,0:0:0:0:
453,211,292693,2,0,L|460:281,1,70
88,45,292865,21,0,0:0:0:0:
115,23,292950,1,0,0:0:0:0:
148,13,293036,1,0,3:0:0:0:
183,15,293122,1,0,0:0:0:0:
215,29,293207,54,0,P|249:21|285:16,1,70,8|0,0:3|0:0,0:0:0:0:
453,211,293379,2,0,P|419:202|383:197,1,70
142,292,293550,21,0,3:0:0:0:
190,316,293636,1,0,0:0:0:0:
240,298,293722,1,0,0:0:0:0:
261,249,293807,1,0,0:0:0:0:
241,200,293893,53,8,0:3:0:0:
191,182,293979,1,0,0:0:0:0:
143,205,294065,1,0,0:0:0:0:
93,226,294150,1,0,0:0:0:0:
41,214,294236,21,0,0:0:0:0:
6,173,294322,1,0,0:0:0:0:
1,120,294407,1,0,3:0:0:0:
30,74,294493,1,0,0:0:0:0:
79,52,294579,54,0,L|146:64,1,70,8|0,0:3|0:0,0:0:0:0:
239,85,294750,2,0,L|306:97,1,70
497,129,294922,21,0,3:0:0:0:
512,68,295007,1,0,0:0:0:0:
475,20,295093,1,0,0:0:0:0:
412,21,295179,1,0,0:0:0:0:
376,71,295265,53,8,0:3:0:0:
395,130,295350,1,0,0:0:0:0:
419,188,295436,1,0,0:0:0:0:
413,251,295522,1,0,0:0:0:0:
380,304,295607,21,0,0:0:0:0:
325,336,295693,1,0,0:0:0:0:
262,339,295779,1,0,3:0:0:0:
204,313,295865,1,0,0:0:0:0:
169,261,295950,53,8,0:3:0:0:
99,195,296036,1,0,0:0:0:0:
18,239,296122,1,0,0:0:0:0:
37,335,296207,1,0,0:0:0:0:
127,341,296293,22,0,P|161:329|195:325,1,70,0|0,3:0|0:0,0:0:0:0:
413,251,296465,2,0,P|379:241|344:237,1,70
0,113,296636,53,8,0:3:0:0:
44,47,296722,1,0,0:0:0:0:
118,19,296807,1,0,0:0:0:0:
195,42,296893,1,0,0:0:0:0:
243,104,296979,21,0,0:0:0:0:
291,167,297065,1,0,0:0:0:0:
368,189,297150,1,0,3:0:0:0:
441,162,297236,1,0,0:0:0:0:
478,92,297322,54,0,P|464:136|461:171,1,70,8|0,0:3|0:0,0:0:0:0:
495,367,297493,2,0,P|463:332|435:312,1,70
249,244,297665,2,0,P|294:234|325:219,1,70,0|0,3:0|0:0,0:0:0:0:
79,15,297836,21,0,0:0:0:0:
34,62,297922,1,0,0:0:0:0:
32,128,298007,1,8,0:3:0:0:
77,177,298093,1,0,0:0:0:0:
121,225,298179,1,0,0:0:0:0:
119,291,298265,1,0,0:0:0:0:
81,343,298350,54,0,B|150:334,1,70
486,295,298522,2,0,B|416:303,1,70,0|0,3:0|0:0,0:0:0:0:
119,291,298693,22,0,B|187:300,1,70,10|0,0:3|0:0,0:0:0:0:
446,343,298865,2,0,B|376:332,1,70
245,183,299036,54,0,B|280:191|300:214|300:214|328:194|363:197,1,131.25000500679,12|0,3:2|0:0,0:0:0:0:
444,157,299293,37,0,0:0:0:0:
454,172,299379,2,0,L|443:236,1,65.6250025033952,8|0,0:3|0:0,0:0:0:0:
158,141,299550,2,0,L|152:206,1,65.6250025033952
420,57,299722,38,0,P|396:79|378:106,1,65.6250025033952
216,40,299893,2,0,P|233:68|243:99,1,65.6250025033952,0|0,3:0|0:0,0:0:0:0:
296,249,300065,37,8,0:3:0:0:
293,265,300150,1,0,0:0:0:0:
291,281,300236,1,0,0:0:0:0:
289,297,300322,1,0,0:0:0:0:
343,364,300407,38,0,L|215:339,1,131.25000500679,8|0,3:2|0:0,0:0:0:0:
131,362,300665,1,0,0:0:0:0:
151,280,300750,1,8,0:3:0:0:
149,263,300836,1,0,0:0:0:0:
147,247,300922,1,0,0:0:0:0:
146,230,301007,1,0,0:0:0:0:
133,146,301093,38,0,L|127:81,1,65.6250025033952
233,222,301265,2,0,L|239:157,1,65.6250025033952,0|0,3:0|0:0,0:0:0:0:
267,76,301436,38,0,L|261:141,1,65.6250025033952,8|0,0:3|0:0,0:0:0:0:
367,0,301607,2,0,L|373:65,1,65.6250025033952
396,296,301779,37,8,3:2:0:0:
396,296,301950,1,0,0:0:0:0:
396,296,302122,2,0,P|363:289|332:285,1,65.6250025033952,8|0,0:3|0:0,0:0:0:0:
159,335,302293,1,0,0:0:0:0:
130,350,302378,1,0,0:0:0:0:
97,350,302464,1,0,0:0:0:0:
68,335,302550,1,0,0:0:0:0:
49,309,302636,38,0,L|63:245,1,65.6250025033952,0|0,3:0|0:0,0:0:0:0:
98,85,302807,2,0,L|84:149,1,65.6250025033952,8|0,0:3|0:0,0:0:0:0:
0,182,302979,37,0,0:0:0:0:
150,217,303150,38,0,L|214:204,1,65.6250025033952,8|0,3:2|0:0,0:0:0:0:
388,218,303322,2,0,L|324:205,1,65.6250025033952
201,286,303493,38,0,P|190:317|190:355,1,65.6250025033952,8|0,0:3|0:0,0:0:0:0:
345,350,303665,2,0,P|343:317|334:286,1,65.6250025033952
210,119,303836,37,0,0:0:0:0:
237,101,303921,1,0,0:0:0:0:
269,95,304007,1,0,3:0:0:0:
301,102,304093,1,0,0:0:0:0:
329,119,304178,1,8,0:3:0:0:
267,333,304350,37,0,0:0:0:0:
150,217,304522,38,0,L|20:233,1,131.25000500679,8|0,3:2|0:0,0:0:0:0:
2,225,304779,1,0,0:0:0:0:
9,139,304865,2,0,P|41:128|74:131,1,65.6250025033952,8|0,0:3|0:0,0:0:0:0:
238,211,305036,1,0,0:0:0:0:
267,224,305121,1,0,0:0:0:0:
300,223,305207,1,0,0:0:0:0:
329,209,305293,1,0,0:0:0:0:
350,184,305379,38,0,P|345:220|344:256,1,65.6250025033952,0|0,3:0|0:0,0:0:0:0:
336,80,305550,2,0,P|307:57|277:38,1,65.6250025033952,8|0,0:3|0:0,0:0:0:0:
433,119,305722,2,0,P|466:105|498:89,1,65.6250025033952
192,136,305893,38,0,L|60:120,1,131.25000500679,8|0,3:2|0:0,0:0:0:0:
48,108,306150,1,0,0:0:0:0:
16,188,306236,2,0,P|23:218|28:252,1,65.6250025033952,8|0,0:3|0:0,0:0:0:0:
108,280,306407,37,0,0:0:0:0:
104,295,306493,1,0,0:0:0:0:
164,356,306579,37,0,0:0:0:0:
179,351,306665,1,0,0:0:0:0:
195,346,306750,1,0,3:0:0:0:
211,342,306836,1,0,0:0:0:0:
233,260,306922,37,8,0:3:0:0:
221,249,307007,1,0,0:0:0:0:
208,238,307093,1,0,0:0:0:0:
197,226,307179,1,0,0:0:0:0:
116,247,307265,37,8,3:2:0:0:
293,324,307436,37,0,0:0:0:0:
308,319,307522,1,0,0:0:0:0:
324,314,307607,1,8,0:3:0:0:
340,310,307693,1,0,0:0:0:0:
420,340,307779,37,0,0:0:0:0:
436,336,307865,1,0,0:0:0:0:
462,255,307950,37,0,0:0:0:0:
448,225,308035,1,0,0:0:0:0:
423,205,308121,1,0,3:0:0:0:
390,200,308207,1,0,0:0:0:0:
360,211,308293,38,0,L|370:146,1,65.6250025033952,8|0,0:3|0:0,0:0:0:0:
290,20,308465,2,0,L|280:85,1,65.6250025033952
82,84,308636,37,8,3:2:0:0:
116,247,308807,37,0,0:0:0:0:
116,247,308893,1,0,0:0:0:0:
116,247,308979,2,0,L|182:237,1,65.6250025033952,8|0,0:3|0:0,0:0:0:0:
360,211,309150,2,0,L|295:220,1,65.6250025033952
216,77,309322,38,0,L|226:143,1,65.6250025033952
261,377,309493,2,0,L|251:312,1,65.6250025033952,0|0,3:0|0:0,0:0:0:0:
255,99,309665,38,0,L|246:165,1,65.6250025033952,10|0,0:3|0:0,0:0:0:0:
222,362,309836,2,0,L|230:296,1,65.6250025033952
398,177,310007,38,0,B|419:240|419:240|384:296,1,131.25000500679,8|0,3:2|0:0,0:0:0:0:
350,372,310265,37,0,0:0:0:0:
364,384,310350,2,0,L|429:376,1,65.6250025033952,8|0,0:3|0:0,0:0:0:0:
370,88,310522,2,0,L|435:93,1,65.6250025033952
250,315,310693,38,0,P|276:291|307:283,1,65.6250025033952
266,135,310865,2,0,P|285:159|315:177,1,65.6250025033952,0|0,3:0|0:0,0:0:0:0:
183,219,311036,37,8,0:3:0:0:
166,217,311121,1,0,0:0:0:0:
150,216,311207,1,0,0:0:0:0:
133,215,311293,1,0,0:0:0:0:
70,157,311379,38,0,L|84:287,1,131.25000500679,8|0,3:2|0:0,0:0:0:0:
53,367,311636,1,0,0:0:0:0:
137,353,311722,1,8,0:3:0:0:
153,355,311807,1,0,0:0:0:0:
169,357,311893,1,0,0:0:0:0:
185,359,311979,1,0,0:0:0:0:
270,370,312065,38,0,P|303:362|334:359,1,65.6250025033952
382,288,312236,2,0,P|374:255|371:224,1,65.6250025033952,0|0,3:0|0:0,0:0:0:0:
300,176,312407,2,0,P|267:184|236:187,1,65.6250025033952,8|0,0:3|0:0,0:0:0:0:
188,258,312579,2,0,P|196:291|199:322,1,65.6250025033952
285,273,312750,37,8,3:2:0:0:
285,273,312922,1,0,0:0:0:0:
285,273,313093,2,0,L|294:208,1,65.6250025033952,8|0,0:3|0:0,0:0:0:0:
203,89,313265,1,0,0:0:0:0:
174,72,313350,1,0,0:0:0:0:
142,70,313436,1,0,0:0:0:0:
112,82,313522,1,0,0:0:0:0:
91,107,313607,1,0,3:0:0:0:
180,355,313779,38,0,L|244:346,1,65.6250025033952,8|0,0:3|0:0,0:0:0:0:
484,315,313950,2,0,L|420:324,1,65.6250025033952
192,218,314122,38,0,L|243:256,1,65.6250025033952,8|0,3:2|0:0,0:0:0:0:
434,187,314293,2,0,L|395:238,1,65.6250025033952
302,119,314465,38,0,L|311:183,1,65.6250025033952,8|0,0:3|0:0,0:0:0:0:
330,334,314636,1,0,0:0:0:0:
364,54,314807,37,0,0:0:0:0:
336,35,314893,1,0,0:0:0:0:
304,29,314979,1,0,3:0:0:0:
272,34,315065,1,0,0:0:0:0:
244,50,315150,1,8,0:3:0:0:
315,206,315322,37,0,0:0:0:0:
144,189,315493,38,0,L|12:178,1,131.25000500679,8|0,3:2|0:0,0:0:0:0:
1,193,315750,1,0,0:0:0:0:
26,274,315836,2,0,P|59:276|91:265,1,65.6250025033952,8|0,0:3|0:0,0:0:0:0:
230,324,316007,1,0,0:0:0:0:
254,302,316092,1,0,0:0:0:0:
284,290,316178,1,0,0:0:0:0:
317,291,316264,1,0,0:0:0:0:
347,303,316350,38,0,P|341:273|340:239,1,65.6250025033952,0|0,3:0|0:0,0:0:0:0:
457,120,316522,2,0,P|433:141|404:158,1,65.6250025033952,8|0,0:3|0:0,0:0:0:0:
243,117,316693,2,0,P|272:126|302:142,1,65.6250025033952
140,153,316865,38,0,P|111:168|80:178,1,65.6250025033952,8|0,3:2|0:0,0:0:0:0:
3,117,317036,2,0,P|3:84|10:52,1,65.6250025033952
102,17,317207,2,0,P|129:34|154:56,1,65.6250025033952,8|0,0:3|0:0,0:0:0:0:
215,202,317379,37,0,0:0:0:0:
215,202,317465,1,0,0:0:0:0:
215,202,317550,2,0,L|205:269,1,65.6250025033952
378,352,317722,2,0,L|368:287,1,65.6250025033952,0|0,3:0|0:0,0:0:0:0:
336,59,317893,37,8,0:3:0:0:
363,41,317978,1,0,0:0:0:0:
395,34,318064,1,0,0:0:0:0:
427,41,318150,1,0,0:0:0:0:
399,124,318235,37,8,3:2:0:0:
512,233,318407,37,0,0:0:0:0:
512,233,318493,1,0,0:0:0:0:
512,233,318579,2,0,L|447:226,1,65.6250025033952,8|0,0:3|0:0,0:0:0:0:
215,202,318750,2,0,L|280:209,1,65.6250025033952
460,350,318922,38,0,P|430:334|407:311,1,65.6250025033952
242,327,319093,2,0,P|274:318|301:300,1,65.6250025033952,0|0,3:0|0:0,0:0:0:0:
364,220,319265,37,8,0:3:0:0:
256,125,319436,1,0,0:0:0:0:
130,195,319607,1,8,3:2:0:0:
81,21,319779,37,0,0:0:0:0:
81,21,319865,1,0,0:0:0:0:
81,21,319950,2,0,L|146:14,1,65.6250025033952,8|0,0:3|0:0,0:0:0:0:
321,132,320122,2,0,L|256:125,1,65.6250025033952
59,241,320293,38,0,P|50:270|52:304,1,65.6250025033952
110,365,320465,2,0,P|143:369|175:361,1,65.6250025033952,0|0,3:0|0:0,0:0:0:0:
191,212,320636,2,0,P|164:198|130:194,1,65.6250025033952,8|0,0:3|0:0,0:0:0:0:
136,281,320807,37,0,0:0:0:0:
162,285,320893,2,0,L|230:295,1,65.6250025033952,0|4,0:0|0:0,0:0:0:0:
