osu file format v14

[General]
AudioFilename: audio.mp3
AudioLeadIn: 0
PreviewTime: 157182
Countdown: 0
SampleSet: Soft
StackLeniency: 0.7
Mode: 0
LetterboxInBreaks: 0
WidescreenStoryboard: 1

[Editor]
Bookmarks: 31079,43137,101961,139608,163137,205490
DistanceSpacing: 1
BeatDivisor: 8
GridSize: 32
TimelineZoom: 3.099999

[Metadata]
Title:CheerS
TitleUnicode:CheerS
Artist:ClariS
ArtistUnicode:ClariS
Creator:never FC on osu
Version:Aurorance's Hard
Source:はたらく細胞
Tags:Hataraku Saibou Cells at Work! full album 10th Anniversary BEST Green Star j-pop pop jpop anime japanese ED ending クラリス Clara クララ Karen カレン Aurorance
BeatmapID:3844128
BeatmapSetID:1868545

[Difficulty]
HPDrainRate:4
CircleSize:4.7
OverallDifficulty:7
ApproachRate:8
SliderMultiplier:2.6
SliderTickRate:1

[Events]
//Background and Video events
0,0,"CheerS.jpeg",0,0
//Break Periods
2,83337,91799
2,158432,162387
//Storyboard Layer 0 (Background)
//Storyboard Layer 1 (Fail)
//Storyboard Layer 2 (Pass)
//Storyboard Layer 3 (Foreground)
//Storyboard Layer 4 (Overlay)
//Storyboard Sound Samples

[TimingPoints]
785,588.235294117647,4,2,1,50,1,0
785,-111.111111111111,4,2,1,50,0,0
5490,-90.9090909090909,4,2,1,50,0,0
14902,-100,4,2,1,50,0,0
33726,-111.111111111111,4,2,1,50,0,0
43137,-83.3333333333333,4,2,1,50,0,0
48137,-90.9090909090909,4,2,1,50,0,0
48358,-83.3333333333333,4,2,1,5,0,0
48432,-71.4285714285714,4,2,1,50,0,0
48652,-83.3333333333333,4,2,1,5,0,0
48726,-83.3333333333333,4,2,1,50,0,0
49314,-90.9090909090909,4,2,1,50,0,0
49535,-83.3333333333333,4,2,1,5,0,0
49608,-71.4285714285714,4,2,1,50,0,0
49829,-83.3333333333333,4,2,1,5,0,0
49902,-83.3333333333333,4,2,1,50,0,0
61961,-100,4,2,1,50,0,0
66667,-83.3333333333333,4,2,1,50,0,0
69020,-111.111111111111,4,2,1,50,0,0
71373,-90.9090909090909,4,2,1,50,0,0
92549,-100,4,2,1,50,0,0
111373,-83.3333333333333,4,2,1,50,0,0
116373,-90.9090909090909,4,2,1,50,0,0
116593,-83.3333333333333,4,2,1,5,0,0
116667,-71.4285714285714,4,2,1,50,0,0
116887,-83.3333333333333,4,2,1,5,0,0
116961,-83.3333333333333,4,2,1,50,0,0
117549,-90.9090909090909,4,2,1,50,0,0
117770,-83.3333333333333,4,2,1,5,0,0
117843,-71.4285714285714,4,2,1,50,0,0
118064,-83.3333333333333,4,2,1,5,0,0
118137,-83.3333333333333,4,2,1,50,0,0
130196,-100,4,2,1,50,0,0
134902,-83.3333333333333,4,2,1,50,0,0
137255,-111.111111111111,4,2,1,50,0,0
139608,-90.9090909090909,4,2,1,50,0,0
163137,-100,4,2,1,50,0,0
168137,-111.111111111111,4,2,1,50,0,0
177255,-83.3333333333333,4,2,1,50,0,0
182255,-90.9090909090909,4,2,1,50,0,0
182476,-83.3333333333333,4,2,1,5,0,0
182549,-71.4285714285714,4,2,1,50,0,0
182770,-83.3333333333333,4,2,1,5,0,0
182843,-83.3333333333333,4,2,1,50,0,0
183432,-90.9090909090909,4,2,1,50,0,0
183652,-83.3333333333333,4,2,1,5,0,0
183726,-71.4285714285714,4,2,1,50,0,0
183946,-83.3333333333333,4,2,1,5,0,0
184020,-83.3333333333333,4,2,1,50,0,0
196079,-100,4,2,1,50,0,0
200784,-90.9090909090909,4,2,1,50,0,0
203137,-111.111111111111,4,2,1,50,0,0
205490,-90.9090909090909,4,2,1,50,0,0
224314,-133.333333333333,4,2,1,50,0,0
229240,-111.111111111111,4,2,1,50,0,0
233726,-111.111111111111,4,2,100,50,0,0

[Colours]
Combo1 : 255,255,128
Combo2 : 255,128,192
Combo3 : 0,191,255
Combo4 : 128,255,0

[HitObjects]
247,49,785,6,0,B|371:10|347:114|468:78,1,233.999992858887,2|2,0:2|0:2,0:0:0:0:
265,195,1961,2,0,P|201:170|186:102,2,116.999996429443,2|2|0,0:2|0:2|0:0,0:0:0:0:
475,92,3137,1,2,0:2:0:0:
421,42,4608,5,2,1:2:0:0:
421,42,4902,2,0,L|279:22,1,116.999996429443,10|0,0:2|0:0,0:0:0:0:
187,106,5490,5,4,1:2:0:0:
67,35,5784,1,2,0:2:0:0:
67,35,6079,2,0,P|89:96|107:193,1,143.000004364014,10|2,0:2|0:2,0:0:0:0:
12,281,6667,2,0,P|51:346|136:347,1,143.000004364014,2|2,1:2|0:2,0:0:0:0:
223,265,7255,1,10,0:2:0:0:
215,235,7402,1,2,0:2:0:0:
208,204,7549,1,2,0:2:0:0:
111,98,7843,5,0,1:2:0:0:
240,33,8137,1,2,0:2:0:0:
240,33,8432,2,0,P|307:44|333:134,1,143.000004364014,10|2,0:2|0:2,0:0:0:0:
271,232,9020,2,0,L|288:326,1,71.5000021820069,2|8,1:2|0:2,0:0:0:0:
328,357,9314,1,2,0:2:0:0:
450,283,9608,1,10,0:2:0:0:
455,252,9755,1,2,0:2:0:0:
461,221,9902,1,2,0:2:0:0:
376,105,10196,5,0,1:2:0:0:
260,187,10490,1,2,0:2:0:0:
260,187,10784,2,0,P|258:265|336:304,1,143.000004364014,10|2,0:2|0:2,0:0:0:0:
433,366,11373,2,0,P|447:298|474:196,1,143.000004364014,2|2,1:2|0:2,0:0:0:0:
423,90,11961,1,10,0:2:0:0:
392,85,12108,1,2,0:2:0:0:
361,80,12255,1,2,0:2:0:0:
254,175,12549,5,0,1:2:0:0:
178,59,12843,1,10,0:2:0:0:
178,59,13137,2,0,P|100:41|49:103,1,143.000004364014,10|2,0:2|0:2,0:0:0:0:
26,145,13579,1,8,0:2:0:0:
26,145,13726,1,2,0:2:0:0:
124,248,14020,1,2,1:2:0:0:
243,168,14314,2,0,B|304:119|304:119|267:284,1,214.500006546021,14|0,0:2|0:0,0:0:0:0:
286,322,14902,6,0,P|379:346|465:274,1,195,6|2,1:2|0:2,0:0:0:0:
443,223,15490,2,0,P|350:199|264:271,1,195,2|2,0:2|0:2,0:0:0:0:
218,298,16079,2,0,P|156:297|70:329,2,130,2|2|2,0:2|0:2|0:2,0:0:0:0:
113,228,16961,1,0,1:2:0:0:
113,228,17255,6,0,P|63:189|66:100,1,130,2|2,1:2|0:2,0:0:0:0:
141,29,17843,2,0,L|290:46,1,130,2|2,0:2|0:2,0:0:0:0:
382,110,18432,1,2,0:2:0:0:
482,27,18726,1,2,0:2:0:0:
441,286,19314,5,2,1:2:0:0:
441,286,19608,2,0,P|375:264|295:259,1,130,2|0,1:2|0:0,0:0:0:0:
196,204,20196,1,2,0:2:0:0:
298,123,20490,1,0,1:2:0:0:
298,123,20784,2,0,L|309:50,1,65,2|2,0:2|0:2,0:0:0:0:
354,12,21079,2,0,P|419:30|447:96,1,130,2|0,0:2|0:0,0:0:0:0:
366,185,21667,1,2,1:2:0:0:
216,140,21961,6,0,B|143:125|158:178|81:162,2,130,2|2|2,1:2|0:2|0:2,0:0:0:0:
254,264,22843,1,6,1:2:0:0:
4,85,24314,6,0,P|67:82|127:205,1,195,6|2,1:2|0:2,0:0:0:0:
113,245,24902,2,0,P|171:153|272:166,1,195,2|2,1:2|0:2,0:0:0:0:
300,191,25490,2,0,L|313:288,2,86.6666666666667,2|2|2,1:2|0:2|0:2,0:0:0:0:
365,133,26079,2,0,L|383:40,2,65,2|0|2,1:2|0:0|1:2,0:0:0:0:
321,10,26667,6,0,P|259:22|178:35,1,130,2|2,1:2|0:2,0:0:0:0:
65,9,27255,1,2,1:2:0:0:
108,131,27549,1,2,0:2:0:0:
193,32,27843,2,0,P|257:46|271:128,1,130,2|2,1:2|0:2,0:0:0:0:
254,163,28284,1,0,0:0:0:0:
254,163,28432,1,0,1:2:0:0:
350,249,28726,1,2,0:2:0:0:
454,171,29020,6,0,P|470:109|408:63,1,130,2|0,1:2|0:0,0:0:0:0:
360,60,29461,1,2,0:2:0:0:
360,60,29608,2,0,B|305:73|305:73|219:54,1,130,2|0,1:2|0:0,0:0:0:0:
168,39,30049,1,2,0:2:0:0:
168,39,30196,1,2,1:2:0:0:
79,134,30490,2,0,L|5:142,2,65,2|0|0,1:2|0:0|1:2,0:0:0:0:
170,226,31079,1,2,0:2:0:0:
280,157,31373,6,0,B|313:159|340:138|340:138|367:154|406:143,1,130,10|2,0:2|1:2,0:0:0:0:
413,274,31961,2,0,B|379:271|352:292|352:292|325:276|286:287,1,130,10|6,0:2|1:2,0:0:0:0:
349,217,32843,5,10,0:2:0:0:
349,217,33137,1,6,1:2:0:0:
132,307,33726,6,0,B|89:314|65:357|65:357|75:280|33:216,1,233.999992858887,6|2,1:2|0:2,0:0:0:0:
93,116,34608,1,0,1:2:0:0:
181,192,34902,2,0,P|276:215|321:101,1,233.999992858887,10|0,0:2|0:0,0:0:0:0:
406,24,35784,1,0,1:2:0:0:
488,106,36079,6,0,B|485:259|402:154|401:315,1,233.999992858887,2|2,1:2|0:2,0:0:0:0:
299,254,36961,1,2,1:2:0:0:
232,350,37255,2,0,B|180:366|180:366|122:318|145:239,1,175.499994644165,10|0,0:2|1:2,0:0:0:0:
184,203,37843,1,6,1:2:0:0:
111,111,38137,1,2,1:2:0:0:
235,44,38432,5,6,1:2:0:0:
40,130,40784,5,2,1:2:0:0:
55,253,41079,1,2,1:2:0:0:
71,376,41373,1,6,1:2:0:0:
7,228,43137,6,0,B|78:246|78:246|167:192,1,155.999995239258,6|2,1:2|0:2,0:0:0:0:
227,68,43726,1,10,0:2:0:0:
372,122,44020,1,2,0:2:0:0:
435,77,44167,1,2,0:2:0:0:
502,116,44314,2,0,L|493:203,1,77.999997619629,2|0,1:2|0:0,0:0:0:0:
430,239,44608,2,0,L|421:326,1,77.999997619629,2|0,0:2|0:0,0:0:0:0:
361,365,44902,2,0,P|288:328|201:321,1,155.999995239258,10|2,0:2|0:2,0:0:0:0:
147,280,45343,1,2,0:2:0:0:
192,216,45490,6,0,P|262:195|310:276,2,155.999995239258,2|2|10,1:2|0:2|0:2,0:0:0:0:
99,342,46373,1,2,0:2:0:0:
74,188,46667,2,0,P|32:189|-14:166,1,77.999997619629,2|0,1:2|0:0,0:0:0:0:
12,98,46961,2,0,P|53:96|100:119,1,77.999997619629,2|0,0:2|0:0,0:0:0:0:
145,161,47255,1,10,0:2:0:0:
251,47,47549,1,2,0:2:0:0:
328,38,47696,1,2,0:2:0:0:
383,92,47843,1,2,1:2:0:0:
421,234,48137,6,0,P|373:215|333:246,1,107.25000327301,2|0,0:2|0:0,0:0:0:0:
303,278,48432,2,0,P|238:255|250:190,1,136.499995834351,10|0,0:2|0:0,0:0:0:0:
278,169,48726,1,2,0:2:0:0:
387,300,49020,1,0,1:2:0:0:
404,125,49314,6,0,P|354:111|315:145,1,107.25000327301,2|0,0:2|0:0,0:0:0:0:
278,169,49608,2,0,P|210:152|217:87,1,136.499995834351,10|0,0:2|0:0,0:0:0:0:
249,73,49902,1,2,0:2:0:0:
371,192,50196,1,0,1:2:0:0:
249,304,50490,5,2,0:2:0:0:
173,286,50637,1,2,0:2:0:0:
115,338,50784,2,0,P|48:287|83:203,1,155.999995239258,10|0,0:2|0:0,0:0:0:0:
187,135,51373,2,0,L|278:127,1,77.999997619629,2|8,1:2|0:2,0:0:0:0:
332,167,51667,2,0,L|423:159,1,77.999997619629,2|0,0:2|0:0,0:0:0:0:
475,118,51961,1,6,1:2:0:0:
347,28,52255,2,0,L|256:36,1,77.999997619629,8|8,0:2|0:2,0:0:0:0:
193,18,52549,6,0,P|131:28|119:136,1,155.999995239258,6|2,1:2|0:2,0:0:0:0:
213,218,53137,1,10,0:2:0:0:
133,352,53432,1,2,0:2:0:0:
54,323,53579,1,2,0:2:0:0:
14,249,53726,2,0,L|30:144,1,77.999997619629,2|0,1:2|0:0,0:0:0:0:
108,146,54020,2,0,L|124:41,1,77.999997619629,2|0,0:2|0:0,0:0:0:0:
187,29,54314,2,0,P|276:30|301:110,1,155.999995239258,10|2,0:2|0:2,0:0:0:0:
262,147,54755,1,2,0:2:0:0:
191,179,54902,6,0,P|149:243|212:326,1,155.999995239258,2|2,1:2|0:2,0:0:0:0:
323,366,55490,1,10,0:2:0:0:
367,216,55784,1,2,0:2:0:0:
436,252,55932,1,2,0:2:0:0:
457,326,56079,2,0,B|383:338|369:267|296:288,1,155.999995239258,2|2,1:2|0:2,0:0:0:0:
252,336,56520,1,0,1:2:0:0:
252,336,56667,1,10,0:2:0:0:
148,219,56961,2,0,B|110:207|110:207|55:228,1,77.999997619629,2|2,1:2|0:2,0:0:0:0:
113,287,57255,1,6,1:2:0:0:
266,257,57549,6,0,B|312:252|337:282|337:282|354:248|409:240,2,155.999995239258,2|2|2,0:2|0:2|1:2,0:0:0:0:
317,109,58432,1,14,0:2:0:0:
196,207,58726,6,0,B|149:202|124:232|124:232|107:198|52:190,2,155.999995239258,2|2|2,0:2|0:2|1:2,0:0:0:0:
145,59,59608,1,6,1:2:0:0:
0,0,59902,5,2,0:2:0:0:
46,62,60049,1,2,0:2:0:0:
2,126,60196,2,0,P|30:181|137:178,1,155.999995239258,2|0,0:2|1:2,0:0:0:0:
263,137,60784,1,10,0:2:0:0:
155,27,61079,1,2,1:2:0:0:
139,106,61226,1,6,1:2:0:0:
169,258,61520,2,0,P|95:290|35:244,1,155.999995239258,6|0,1:2|0:0,0:0:0:0:
8,178,61961,6,0,B|95:166|95:166|130:185|130:185|222:172,1,195,6|2,1:2|0:2,0:0:0:0:
250,120,62549,2,0,P|346:129|372:232,1,195,2|2,0:2|0:2,0:0:0:0:
306,242,63137,2,0,P|311:302|367:279,2,130,10|2|2,0:2|0:2|0:2,0:0:0:0:
410,153,64020,1,0,1:2:0:0:
306,242,64314,6,0,P|255:225|156:206,1,130,2|2,1:2|0:2,0:0:0:0:
57,247,64902,1,2,0:2:0:0:
95,123,65196,1,2,3:2:0:0:
180,209,65490,2,0,P|155:279|144:346,1,130,10|2,0:2|1:2,0:0:0:0:
57,247,66079,1,4,1:2:0:0:
9,329,66373,1,0,0:0:0:0:
2,173,66667,6,0,B|115:117|140:232|242:185,1,233.999992858887,6|2,1:2|0:2,0:0:0:0:
283,139,67255,2,0,P|394:137|431:263,1,233.999992858887,10|2,0:2|0:2,0:0:0:0:
488,297,67843,1,2,1:2:0:0:
416,328,67990,1,2,0:2:0:0:
369,266,68137,1,2,0:2:0:0:
249,366,68432,1,10,0:2:0:0:
172,230,68726,1,2,0:2:0:0:
277,180,69020,6,0,P|303:123|261:61,1,116.999996429443,2|0,1:2|0:0,0:0:0:0:
182,16,69608,2,0,P|156:73|198:135,1,116.999996429443
371,256,70490,5,8,0:2:0:0:
371,256,70784,1,8,0:2:0:0:
6,365,71373,5,4,1:2:0:0:
104,261,71667,1,2,0:2:0:0:
104,261,71961,2,0,L|88:165,2,71.5000021820069,10|0|2,0:2|0:0|0:2,0:0:0:0:
229,192,72549,2,0,P|300:203|329:289,1,143.000004364014,2|2,1:2|0:2,0:0:0:0:
249,377,73137,1,10,0:2:0:0:
219,369,73284,1,2,0:2:0:0:
188,362,73432,1,2,0:2:0:0:
71,278,73726,5,0,1:2:0:0:
199,212,74020,1,2,0:2:0:0:
199,212,74314,2,0,P|274:228|372:243,1,143.000004364014,10|2,0:2|0:2,0:0:0:0:
475,194,74902,1,2,1:2:0:0:
446,334,75196,1,2,0:2:0:0:
339,238,75490,1,14,0:2:0:0:
347,208,75637,1,2,0:2:0:0:
356,178,75784,1,2,0:2:0:0:
280,55,76079,5,4,1:2:0:0:
147,101,76373,1,2,0:2:0:0:
147,101,76667,2,0,P|111:90|64:88,2,71.5000021820069,10|0|2,0:2|0:0|0:2,0:0:0:0:
209,229,77255,2,0,P|183:289|91:313,1,143.000004364014,2|2,1:2|0:2,0:0:0:0:
12,216,77843,1,10,0:2:0:0:
20,186,77990,1,2,0:2:0:0:
27,155,78137,1,2,0:2:0:0:
110,38,78432,5,0,1:2:0:0:
169,167,78726,1,10,0:2:0:0:
298,107,79020,2,0,B|397:94|397:94|453:123,1,143.000004364014,14|0,0:2|1:2,0:0:0:0:
501,240,79608,2,0,L|412:254,1,71.5000021820069,10|10,0:2|0:2,0:0:0:0:
368,304,79902,1,2,3:2:0:0:
246,228,80196,2,0,L|94:202,1,143.000004364014,6|2,1:2|0:2,0:0:0:0:
196,94,80784,6,0,B|293:80|293:80|321:94|321:94|410:79,2,214.500006546021,6|10|8,1:2|0:2|0:2,0:0:0:0:
333,350,82255,1,10,0:2:0:0:
333,350,82549,1,14,0:2:0:0:
405,81,83137,5,6,0:2:0:0:
328,50,92549,6,0,P|421:26|507:98,1,195,6|2,1:2|0:2,0:0:0:0:
486,149,93137,2,0,P|393:173|307:101,1,195,2|2,1:2|0:2,0:0:0:0:
260,74,93726,2,0,P|216:59|178:70,3,86.6666666666667,2|2|2|2,1:2|0:2|0:2|1:2,0:0:0:0:
61,148,94608,1,0,0:0:0:0:
61,148,94755,1,2,0:2:0:0:
61,148,94902,6,0,B|66:218|66:218|78:225|78:225|84:298,1,130,2|2,1:2|0:2,0:0:0:0:
173,363,95490,2,0,P|241:348|262:279,1,130,2|2,1:2|0:2,0:0:0:0:
186,192,96079,1,2,1:2:0:0:
81,270,96373,1,2,0:2:0:0:
224,54,96961,5,2,0:2:0:0:
224,54,97255,2,0,P|255:115|251:200,1,130,2|0,1:2|0:0,0:0:0:0:
143,239,97843,1,2,1:2:0:0:
253,316,98137,1,0,0:0:0:0:
253,316,98432,2,0,P|283:307|321:342,1,65,2|2,1:2|0:2,0:0:0:0:
355,370,98726,2,0,P|419:351|444:285,1,130,2|0,0:2|1:2,0:0:0:0:
361,196,99314,1,2,0:2:0:0:
240,244,99608,6,0,B|193:254|193:254|147:236|147:236|102:245,2,130,10|2|10,0:2|1:2|0:2,0:0:0:0:
259,115,100490,1,6,1:2:0:0:
442,305,101079,5,2,1:2:0:0:
442,305,101373,1,6,1:2:0:0:
496,33,101961,5,6,1:2:0:0:
384,99,102255,1,2,0:2:0:0:
352,93,102402,1,2,0:2:0:0:
319,90,102549,2,0,L|334:224,1,130,2|10,1:2|0:2,0:0:0:0:
340,290,102990,1,2,1:2:0:0:
313,308,103137,1,2,1:2:0:0:
280,313,103284,1,2,0:2:0:0:
248,307,103432,2,0,P|183:313|150:372,2,130,10|0|8,0:2|1:2|0:2,0:0:0:0:
368,355,104314,5,6,1:2:0:0:
462,266,104608,1,10,0:2:0:0:
468,234,104755,1,2,0:2:0:0:
475,202,104902,2,0,B|416:170|406:229|347:197,1,130,2|10,1:2|0:2,0:0:0:0:
300,147,105343,1,2,0:2:0:0:
267,149,105490,1,2,1:2:0:0:
241,168,105637,1,2,0:2:0:0:
229,198,105784,2,0,L|236:275,1,65,10|0,0:2|3:2,0:0:0:0:
285,313,106079,2,0,L|349:307,1,65,0|0,1:2|3:2,0:0:0:0:
400,256,106373,1,2,3:2:0:0:
323,119,106667,5,6,1:2:0:0:
353,266,109020,5,2,1:2:0:0:
338,143,109314,1,2,1:2:0:0:
322,20,109608,1,6,1:2:0:0:
57,90,110196,6,0,P|117:75|157:122,1,130,8|2,0:2|1:2,0:0:0:0:
170,186,110637,1,8,0:2:0:0:
183,250,110784,2,0,P|223:296|283:282,1,130,10|2,0:2|3:2,0:0:0:0:
423,165,111373,6,0,P|405:91|398:7,1,155.999995239258,6|2,1:2|0:2,0:0:0:0:
279,111,111961,1,10,0:2:0:0:
156,13,112255,1,2,0:2:0:0:
101,69,112402,1,2,0:2:0:0:
129,141,112549,2,0,L|218:125,1,77.999997619629,2|0,1:2|0:0,0:0:0:0:
218,203,112843,2,0,L|129:219,1,77.999997619629,2|0,0:2|0:0,0:0:0:0:
65,197,113137,2,0,B|34:233|34:233|75:341,1,155.999995239258,10|2,0:2|0:2,0:0:0:0:
145,362,113579,1,2,0:2:0:0:
209,291,113726,6,0,P|241:356|333:336,2,155.999995239258,2|2|10,1:2|0:2|0:2,0:0:0:0:
287,155,114608,1,2,0:2:0:0:
351,198,114755,1,2,0:2:0:0:
396,134,114902,2,0,P|427:114|481:109,1,77.999997619629,2|0,1:2|0:0,0:0:0:0:
499,179,115196,2,0,P|468:199|414:204,1,77.999997619629,2|0,0:2|0:0,0:0:0:0:
351,198,115490,1,10,0:2:0:0:
372,352,115784,1,2,0:2:0:0:
295,361,115932,1,2,0:2:0:0:
240,307,116079,1,0,1:2:0:0:
351,198,116373,6,0,P|373:140|322:104,1,107.25000327301,2|0,0:2|0:0,0:0:0:0:
305,104,116667,2,0,P|263:137|197:90,1,136.499995834351,10|0,0:2|0:0,0:0:0:0:
186,58,116961,1,2,0:2:0:0:
139,214,117255,1,0,1:2:0:0:
35,109,117549,6,0,P|71:146|59:196,1,107.25000327301,2|0,0:2|0:0,0:0:0:0:
26,216,117843,2,0,P|22:281|94:302,1,136.499995834351,10|0,0:2|0:0,0:0:0:0:
116,287,118137,1,2,0:2:0:0:
227,177,118432,1,0,1:2:0:0:
317,302,118726,5,2,0:2:0:0:
390,275,118873,1,2,0:2:0:0:
411,200,119020,2,0,P|403:137|311:108,1,155.999995239258,10|0,0:2|0:0,0:0:0:0:
230,229,119608,2,0,L|221:142,1,77.999997619629,2|8,1:2|0:2,0:0:0:0:
144,149,119902,2,0,L|152:226,1,77.999997619629,2|0,0:2|0:0,0:0:0:0:
189,295,120196,1,6,1:2:0:0:
301,187,120490,2,0,B|335:209|335:209|325:247,1,77.999997619629,2|0,1:2|1:2,0:0:0:0:
267,334,120784,6,0,P|317:326|429:314,1,155.999995239258,6|2,1:2|0:2,0:0:0:0:
506,183,121373,1,10,0:2:0:0:
420,51,121667,1,2,0:2:0:0:
347,80,121814,1,2,0:2:0:0:
313,150,121961,2,0,L|329:255,1,77.999997619629,2|0,1:2|0:0,0:0:0:0:
395,259,122255,2,0,L|411:364,1,77.999997619629,2|0,0:2|0:0,0:0:0:0:
342,380,122549,2,0,P|268:350|180:338,1,155.999995239258,10|2,0:2|0:2,0:0:0:0:
119,362,122990,1,2,0:2:0:0:
66,304,123137,6,0,P|78:241|93:144,1,155.999995239258,2|2,1:2|0:2,0:0:0:0:
18,17,123726,1,10,0:2:0:0:
159,81,124020,1,2,0:2:0:0:
230,47,124167,1,2,0:2:0:0:
295,88,124314,2,0,P|298:137|273:169,1,77.999997619629,2|8,1:2|0:2,0:0:0:0:
212,193,124608,2,0,P|194:227|200:265,1,77.999997619629,10|0,0:2|1:2,0:0:0:0:
256,320,124902,1,10,0:2:0:0:
404,273,125196,2,0,B|419:187,1,77.999997619629,2|2,1:2|1:2,0:0:0:0:
382,126,125490,1,6,1:2:0:0:
240,61,125784,6,0,P|174:40|130:109,2,155.999995239258,2|2|2,0:2|0:2|1:2,0:0:0:0:
130,173,126667,1,8,0:2:0:0:
217,301,126961,6,0,P|283:322|327:253,2,155.999995239258,2|2|2,0:2|0:2|1:2,0:0:0:0:
327,189,127843,1,0,1:2:0:0:
191,111,128137,5,2,0:2:0:0:
124,152,128284,1,2,0:2:0:0:
114,229,128432,2,0,P|142:295|232:298,1,155.999995239258,2|0,0:2|0:0,0:0:0:0:
290,274,128873,1,2,1:2:0:0:
227,227,129020,1,10,0:2:0:0:
330,110,129314,1,2,1:2:0:0:
267,63,129461,1,6,1:2:0:0:
164,180,129755,2,0,P|134:115|50:93,1,155.999995239258,6|0,1:2|0:0,0:0:0:0:
2,146,130196,6,0,L|30:288,1,130,6|0,1:2|0:0,0:0:0:0:
127,357,130784,2,0,L|101:229,1,130,2|0,0:2|1:2,0:0:0:0:
133,165,131226,1,2,0:2:0:0:
201,184,131373,2,0,B|267:161|262:233|324:213,2,130,10|2|2,0:2|0:2|0:2,0:0:0:0:
78,227,132255,1,0,1:2:0:0:
193,331,132549,6,0,P|265:319|332:316,1,130,2|2,1:2|0:2,0:0:0:0:
437,375,133137,1,2,0:2:0:0:
500,261,133432,1,2,1:2:0:0:
374,168,133726,2,0,P|387:234|357:296,1,130,10|2,0:2|1:2,0:0:0:0:
257,365,134314,1,0,3:2:0:0:
191,252,134608,2,0,P|187:215|206:179,1,65,2|0,0:2|3:2,0:0:0:0:
262,148,134902,6,0,P|268:92|119:37,1,233.999992858887,6|2,1:2|0:2,0:0:0:0:
69,78,135490,2,0,B|45:204|127:171|105:311,1,233.999992858887,10|2,0:2|0:2,0:0:0:0:
154,365,136079,1,2,1:2:0:0:
212,313,136226,1,2,0:2:0:0:
260,376,136373,1,2,0:2:0:0:
375,270,136667,1,8,0:2:0:0:
244,184,136961,1,2,0:2:0:0:
350,136,137255,6,0,P|407:158|467:148,1,116.999996429443,2|0,1:2|0:0,0:0:0:0:
476,34,137843,2,0,P|419:12|359:22,1,116.999996429443
171,150,138726,5,8,0:2:0:0:
171,150,139020,1,12,0:2:0:0:
380,343,139608,5,6,1:2:0:0:
462,227,139902,1,2,0:2:0:0:
462,227,140196,1,10,0:2:0:0:
358,128,140490,1,2,0:2:0:0:
326,144,140637,1,2,0:2:0:0:
294,160,140784,2,0,P|308:230|319:308,2,143.000004364014,2|0|8,1:2|0:0|0:2,0:0:0:0:
169,90,141667,5,2,0:2:0:0:
169,232,141961,1,2,1:2:0:0:
294,160,142255,1,2,0:2:0:0:
169,90,142549,2,0,L|112:94,3,47.6666681213379,10|2|2|2,0:2|0:2|0:2|0:2,0:0:0:0:
287,23,143137,2,0,B|353:9|362:71|424:61,1,143.000004364014,2|2,1:2|0:2,0:0:0:0:
510,172,143726,1,10,0:2:0:0:
391,252,144020,1,2,0:2:0:0:
318,96,144314,5,2,1:2:0:0:
202,179,144608,1,2,0:2:0:0:
202,179,144902,1,10,0:2:0:0:
136,51,145196,1,2,0:2:0:0:
101,47,145343,1,0,0:0:0:0:
65,42,145490,2,0,P|14:79|37:151,2,143.000004364014,2|0|8,1:2|0:0|0:2,0:0:0:0:
195,100,146373,5,2,0:2:0:0:
91,198,146667,1,2,1:2:0:0:
151,327,146961,1,2,0:2:0:0:
282,271,147255,2,0,L|275:214,3,47.6666681213379,10|2|2|10,0:2|0:2|0:2|0:2,0:0:0:0:
381,369,147843,2,0,P|447:356|466:284,1,143.000004364014,2|2,1:2|0:2,0:0:0:0:
348,209,148432,2,0,P|287:182|285:107,1,143.000004364014,10|6,0:2|1:2,0:0:0:0:
427,22,149020,6,0,B|449:54|485:57|485:57|446:116|394:149|414:201|475:215|491:166,1,286.000008728028,6|0,1:2|0:0,0:0:0:0:
378,77,149902,1,2,0:2:0:0:
343,87,150049,1,2,0:2:0:0:
308,96,150196,6,0,B|200:116|232:10|112:37|112:37|156:39|185:83,1,286.000008728028,10|0,0:2|0:0,0:0:0:0:
77,174,151079,1,2,1:2:0:0:
219,166,151373,6,0,B|239:227|192:260|192:260|165:278|158:318|185:353|185:353|236:345|245:310,1,286.000008728028,2|2,1:2|0:2,0:0:0:0:
156,199,152255,1,2,0:2:0:0:
273,113,152549,6,0,P|354:124|390:252,1,214.500006546021,14|0,0:2|0:0,0:0:0:0:
335,276,153137,2,0,P|292:273|257:252,1,71.5000021820069,14|0,0:2|0:0,0:0:0:0:
197,243,153432,2,0,P|177:204|178:163,1,71.5000021820069,2|0,1:2|0:0,0:0:0:0:
200,109,153726,6,0,B|150:85|138:23|138:23|70:40|45:103|76:164,1,286.000008728028,6|0,1:2|0:0,0:0:0:0:
10,288,154608,1,2,0:2:0:0:
44,297,154755,1,2,0:2:0:0:
78,307,154902,6,0,B|138:283|149:351|215:327,1,143.000004364014,10|2,0:2|0:2,0:0:0:0:
302,255,155490,1,2,1:2:0:0:
207,166,155784,1,10,0:2:0:0:
272,38,156079,5,14,0:2:0:0:
115,22,156373,1,14,0:2:0:0:
207,166,156667,2,0,B|311:236|403:189|392:95|326:85|296:117,1,286.000008728028,14|0,0:2|0:0,0:0:0:0:
354,192,163137,5,6,1:2:0:0:
478,228,163432,2,0,P|485:291|492:370,2,130,2|2|2,0:2|0:2|0:2,0:0:0:0:
391,98,164314,5,6,1:2:0:0:
267,134,164608,2,0,P|260:197|253:276,2,130,2|2|2,0:2|1:2|3:2,0:0:0:0:
362,11,165490,5,4,1:2:0:0:
483,58,165784,1,2,0:2:0:0:
476,89,165932,1,2,1:2:0:0:
469,120,166079,1,14,0:2:0:0:
292,310,166667,5,2,0:2:0:0:
165,281,166961,1,2,0:2:0:0:
195,154,167255,1,2,3:2:0:0:
321,184,167549,1,2,3:2:0:0:
294,30,167843,5,6,1:2:0:0:
180,58,168137,2,0,P|147:51|134:17,2,58.4999982147217,2|2|2,0:2|0:2|1:2,0:0:0:0:
238,159,168726,1,2,1:2:0:0:
226,185,168873,1,2,0:2:0:0:
213,211,169020,2,0,P|155:184|96:180,1,116.999996429443,2|2,1:2|0:2,0:0:0:0:
25,266,169608,1,10,0:2:0:0:
116,346,169902,1,2,0:2:0:0:
116,346,170049,6,0,L|183:337,1,58.4999982147217,2|0,0:2|1:2,0:0:0:0:
283,297,170490,2,0,P|316:301|326:329,2,58.4999982147217,2|2|10,0:2|0:2|0:2,0:0:0:0:
189,225,171079,1,2,0:2:0:0:
160,229,171226,1,2,0:2:0:0:
131,233,171373,2,0,L|141:157,2,58.4999982147217,2|8|10,1:2|0:2|0:2,0:0:0:0:
30,172,171961,1,2,1:2:0:0:
91,72,172255,1,2,1:2:0:0:
119,81,172402,1,2,1:2:0:0:
147,90,172549,6,0,P|202:84|384:47,1,233.999992858887,6|0,1:2|0:0,0:0:0:0:
472,3,173432,1,2,1:2:0:0:
511,125,173726,6,0,B|506:251|381:167|386:317,1,233.999992858887,6|0,1:2|0:0,0:0:0:0:
306,370,174608,1,2,1:2:0:0:
204,290,174902,6,0,B|174:285|150:305|150:305|131:278|98:274,1,116.999996429443,6|0,1:2|1:2,0:0:0:0:
172,167,175490,1,6,1:2:0:0:
435,264,177255,6,0,B|468:220|468:220|444:112,1,155.999995239258,6|2,1:2|0:2,0:0:0:0:
330,17,177843,1,10,0:2:0:0:
257,155,178137,1,2,0:2:0:0:
184,126,178284,1,2,0:2:0:0:
125,177,178432,2,0,P|113:216|130:263,1,77.999997619629,2|0,1:2|0:0,0:0:0:0:
121,329,178726,2,0,P|160:319|192:281,1,77.999997619629,2|0,0:2|0:0,0:0:0:0:
230,230,179020,2,0,P|309:244|392:264,1,155.999995239258,10|2,0:2|0:2,0:0:0:0:
456,235,179461,1,2,0:2:0:0:
378,179,179608,6,0,P|387:105|457:81,2,155.999995239258,2|2|10,1:2|0:2|0:2,0:0:0:0:
304,316,180490,1,2,0:2:0:0:
242,268,180637,1,2,0:2:0:0:
169,299,180784,2,0,P|170:341|147:387,1,77.999997619629,2|0,1:2|0:0,0:0:0:0:
79,361,181079,2,0,P|77:320|100:273,1,77.999997619629,2|0,0:2|0:0,0:0:0:0:
143,228,181373,1,10,0:2:0:0:
58,97,181667,1,2,0:2:0:0:
123,56,181814,1,2,0:2:0:0:
196,80,181961,1,2,1:2:0:0:
306,199,182255,6,0,P|305:148|347:117,1,107.25000327301,2|0,0:2|0:0,0:0:0:0:
376,86,182549,2,0,P|438:89|472:150,1,136.499995834351,14|0,0:2|0:0,0:0:0:0:
497,188,182843,1,2,0:2:0:0:
400,306,183137,1,0,1:2:0:0:
306,199,183432,6,0,P|270:153|213:154,1,107.25000327301,2|0,0:2|0:0,0:0:0:0:
179,141,183726,2,0,P|114:177|122:236,1,136.499995834351,14|0,0:2|0:0,0:0:0:0:
118,278,184020,1,2,0:2:0:0:
17,151,184314,1,0,1:2:0:0:
140,32,184608,5,2,0:2:0:0:
213,81,184755,1,2,0:2:0:0:
289,41,184902,2,0,P|360:51|384:132,1,155.999995239258,10|0,0:2|0:0,0:0:0:0:
278,256,185490,2,0,L|186:263,1,77.999997619629,2|0,1:2|0:0,0:0:0:0:
160,185,185784,2,0,L|237:178,1,77.999997619629,2|8,0:2|0:2,0:0:0:0:
300,120,186079,1,14,0:2:0:0:
420,219,186373,1,2,1:2:0:0:
484,175,186520,1,0,1:2:0:0:
466,99,186667,6,0,P|427:40|347:32,1,155.999995239258,6|2,1:2|0:2,0:0:0:0:
209,105,187255,1,10,0:2:0:0:
320,214,187549,1,2,0:2:0:0:
372,156,187696,1,2,0:2:0:0:
420,219,187843,2,0,L|404:324,1,77.999997619629,2|0,1:2|0:0,0:0:0:0:
353,351,188137,2,0,L|248:335,1,77.999997619629,2|0,0:2|0:0,0:0:0:0:
202,367,188432,2,0,P|119:334|124:250,1,155.999995239258,10|2,0:2|0:2,0:0:0:0:
163,218,188873,1,2,1:2:0:0:
216,161,189020,6,0,P|197:88|125:69,1,155.999995239258,2|2,1:2|0:2,0:0:0:0:
3,167,189608,1,10,0:2:0:0:
111,275,189902,1,2,0:2:0:0:
163,218,190049,1,2,0:2:0:0:
230,256,190196,2,0,P|273:259|315:234,1,77.999997619629,10|2,0:2|1:2,0:0:0:0:
380,232,190490,2,0,P|404:196|403:147,1,77.999997619629,2|0,1:2|1:2,0:0:0:0:
362,97,190784,1,10,0:2:0:0:
211,139,191079,2,0,B|119:129,1,77.999997619629,2|2,0:2|0:2,0:0:0:0:
66,90,191373,1,4,1:2:0:0:
26,240,191667,6,0,P|78:292|99:221,2,155.999995239258,2|2|2,0:2|0:2|1:2,0:0:0:0:
66,90,192549,1,12,0:2:0:0:
199,170,192843,6,0,P|231:236|274:176,2,155.999995239258,2|2|2,0:2|0:2|1:2,0:0:0:0:
285,41,193726,1,6,1:2:0:0:
415,127,194020,5,2,0:2:0:0:
452,58,194167,1,2,0:2:0:0:
493,124,194314,2,0,P|484:184|460:282,1,155.999995239258,2|0,0:2|1:2,0:0:0:0:
412,337,194755,1,0,1:2:0:0:
412,337,194902,1,10,0:2:0:0:
281,251,195196,1,2,1:2:0:0:
331,191,195343,1,6,1:2:0:0:
219,81,195637,2,0,P|149:91|136:165,1,155.999995239258,6|0,1:2|0:0,0:0:0:0:
177,231,196079,6,0,P|157:293|85:294,1,130,6|0,1:2|0:0,0:0:0:0:
9,207,196667,1,2,0:2:0:0:
105,119,196961,1,0,1:2:0:0:
105,119,197255,2,0,P|158:128|240:145,1,130,10|2,0:2|0:2,0:0:0:0:
333,225,197843,2,0,P|396:211|460:200,1,130,2|0,0:2|1:2,0:0:0:0:
507,138,198284,1,0,0:0:0:0:
507,138,198432,6,0,P|472:83|395:84,1,130,2|2,1:2|0:2,0:0:0:0:
295,135,199020,1,2,0:2:0:0:
243,20,199314,1,2,1:2:0:0:
243,20,199608,2,0,P|192:72|126:68,1,130,10|2,0:2|1:2,0:0:0:0:
14,33,200196,1,14,0:2:0:0:
42,159,200490,1,0,0:0:0:0:
73,153,200637,1,0,0:0:0:0:
105,148,200784,6,0,P|135:207|93:266,1,143.000004364014,6|2,1:2|0:2,0:0:0:0:
33,301,201226,1,2,0:2:0:0:
93,339,201373,2,0,P|164:327|244:322,1,143.000004364014,10|0,0:2|0:0,0:0:0:0:
293,362,201814,1,2,0:2:0:0:
349,317,201961,1,2,1:2:0:0:
323,249,202108,1,2,0:2:0:0:
250,252,202255,1,2,0:2:0:0:
279,112,202549,5,8,0:2:0:0:
411,165,202843,1,2,0:2:0:0:
488,77,203137,6,0,P|449:55|372:55,1,116.999996429443,2|0,1:2|0:0,0:0:0:0:
301,141,203726,2,0,P|340:163|417:163,1,116.999996429443
235,16,204608,5,8,0:2:0:0:
235,16,204902,1,12,0:2:0:0:
11,194,205490,5,4,1:2:0:0:
133,276,205784,1,2,0:2:0:0:
133,276,206079,2,0,P|194:254|291:236,1,143.000004364014,10|2,0:2|0:2,0:0:0:0:
358,125,206667,2,0,P|316:65|233:70,1,143.000004364014,2|2,1:2|0:2,0:0:0:0:
127,133,207255,1,10,0:2:0:0:
97,125,207402,1,2,0:2:0:0:
66,118,207549,1,2,0:2:0:0:
63,260,207843,5,0,1:2:0:0:
204,226,208137,1,2,0:2:0:0:
204,226,208432,2,0,P|267:249|267:344,1,143.000004364014,10|2,0:2|0:2,0:0:0:0:
154,382,209020,2,0,P|117:367|106:320,1,71.5000021820069,2|8,1:2|0:2,0:0:0:0:
94,269,209314,1,2,0:2:0:0:
183,157,209608,1,10,0:2:0:0:
214,162,209755,1,2,0:2:0:0:
245,168,209902,1,2,0:2:0:0:
362,250,210196,5,4,1:2:0:0:
446,136,210490,1,2,0:2:0:0:
446,136,210784,2,0,P|434:58|351:44,1,143.000004364014,10|2,0:2|0:2,0:0:0:0:
247,87,211373,2,0,P|264:156|279:226,1,143.000004364014,2|2,1:2|0:2,0:0:0:0:
200,345,211961,1,10,0:2:0:0:
169,340,212108,1,2,0:2:0:0:
138,335,212255,1,2,0:2:0:0:
24,248,212549,5,0,1:2:0:0:
133,155,212843,1,10,0:2:0:0:
133,155,213137,2,0,P|209:177|224:256,1,143.000004364014,10|10,0:2|0:2,0:0:0:0:
267,297,213579,1,0,0:0:0:0:
267,297,213726,2,0,P|310:292|335:260,2,71.5000021820069,2|8|2,0:2|0:2|1:2,0:0:0:0:
141,365,214314,1,14,0:2:0:0:
110,360,214461,1,2,0:2:0:0:
79,355,214608,1,2,1:2:0:0:
12,228,214902,5,4,1:2:0:0:
140,162,215196,1,2,0:2:0:0:
140,162,215490,2,0,P|206:181|221:256,1,143.000004364014,2|0,0:2|1:2,0:0:0:0:
307,363,216079,2,0,P|319:289|339:207,1,143.000004364014,12|0,0:2|0:0,0:0:0:0:
450,139,216667,1,2,0:2:0:0:
445,108,216814,1,2,0:2:0:0:
440,77,216961,1,2,1:2:0:0:
284,4,217255,5,0,1:2:0:0:
230,138,217549,1,2,0:2:0:0:
230,138,217843,1,2,0:2:0:0:
98,193,218137,2,0,P|78:227|86:274,1,71.5000021820069,0|0,1:2|0:0,0:0:0:0:
129,309,218432,2,0,L|288:292,1,143.000004364014,12|0,0:2|1:2,0:0:0:0:
381,203,219020,1,10,0:2:0:0:
474,311,219314,2,0,P|454:346|417:358,1,71.5000021820069,10|8,0:2|0:2,0:0:0:0:
362,325,219608,6,0,P|304:303|219:291,2,143.000004364014,4|2|10,1:2|0:2|0:2,0:0:0:0:
466,227,220490,1,0,1:2:0:0:
368,121,220784,2,0,P|293:127|263:199,1,143.000004364014,8|0,0:2|1:2,0:0:0:0:
187,302,221373,2,0,P|200:343|206:392,2,71.5000021820069,10|2|2,0:2|0:2|1:2,0:0:0:0:
77,210,221961,6,0,P|55:147|94:84,1,143.000004364014,4|2,1:2|0:2,0:0:0:0:
208,31,222549,1,8,2:2:0:0:
183,157,222843,1,8,2:2:0:0:
321,120,223137,1,8,2:2:0:0:
208,31,223432,1,8,2:2:0:0:
55,69,223726,1,8,2:2:0:0:
183,157,224020,1,8,2:2:0:0:
309,27,224314,6,0,B|399:-7|400:95|493:66|493:66|430:86|399:139|404:219|443:270|443:270|490:256|515:213|500:155|500:155|433:217|369:170|341:104|341:104|320:211|352:297|402:348|402:348|345:288|270:264|270:264|195:243|150:283|177:384|283:359|270:264|270:264|250:196|263:95,1,1633.12506229878,4|0,1:2|0:0,0:0:0:0:
