osu file format v14

[General]
AudioFilename: audio.mp3
AudioLeadIn: 0
PreviewTime: 42212
Countdown: 0
SampleSet: Soft
StackLeniency: 0.7
Mode: 0
LetterboxInBreaks: 0
WidescreenStoryboard: 1

[Editor]
Bookmarks: 5822,14058,15234,24646,31705,34058,38764,41117,43469,62293,66999,69352,71705,81117
DistanceSpacing: 1
BeatDivisor: 16
GridSize: 16
TimelineZoom: 2.999999

[Metadata]
Title:CheerS (TV Size)
TitleUnicode:CheerS (TV Size)
Artist:ClariS
ArtistUnicode:ClariS
Creator:hypercyte
Version:Seto's Hard
Source:はたらく細胞
Tags:cells at work work! hataraku saibou biology cyte cell seto kousuke
BeatmapID:1711700
BeatmapSetID:814145

[Difficulty]
HPDrainRate:5
CircleSize:4
OverallDifficulty:7
ApproachRate:8
SliderMultiplier:2.6
SliderTickRate:1

[Events]
//Background and Video events
0,0,"i spent waaay too long looking for a high res background lmao.png",0,0
//Break Periods
//Storyboard Layer 0 (Background)
//Storyboard Layer 1 (Fail)
//Storyboard Layer 2 (Pass)
//Storyboard Layer 3 (Foreground)
//Storyboard Sound Samples

[TimingPoints]
1119,588.235294117647,4,2,0,60,1,0
1119,-117.647058823529,4,2,0,60,0,0
4942,-100,4,2,0,60,0,0
5236,-100,4,2,42,40,0,0
5751,-100,4,2,42,5,0,0
5824,-100,4,2,1,50,0,0
13471,577.478344562079,4,2,1,60,1,0
14048,592.300098716683,4,2,1,40,1,0
14048,-100,4,2,1,40,0,0
14640,-100,4,2,1,20,0,0
15232,588.235294117647,4,2,1,40,1,0
15232,-117.647058823529,4,2,1,40,0,0
24570,-117.647058823529,4,2,1,5,0,0
24643,-100,4,2,1,50,0,0
26408,570.884871550904,4,2,1,50,1,0
26978,593.002569677802,4,2,1,50,1,0
30536,588.235294117647,4,2,1,50,1,0
31712,585.365853658537,4,2,1,30,1,0
31712,-100,4,2,1,30,0,0
33468,-133.333333333333,4,2,1,30,0,0
34053,588.235294117647,4,2,1,25,1,0
34053,-153.846153846153,4,2,1,25,0,0
37582,628.272251308901,4,2,1,40,1,0
37582,-153.846153846154,4,2,1,40,0,0
37896,588.235294117647,4,2,1,40,1,0
38190,-153.846153846153,4,2,42,50,0,0
38778,583.373845405931,4,2,1,40,1,0
38778,-153.846153846153,4,2,1,40,0,0
41111,587.371512481645,4,2,1,50,1,0
41112,-153.846153846153,4,2,1,50,0,0
41700,-153.846153846153,4,2,42,50,0,0
42873,-117.647058823529,4,2,42,50,0,0
43460,-100,4,2,1,70,0,1
45809,588.235294117647,4,2,1,70,1,1
48750,-100,4,2,1,90,0,1
49339,-100,4,2,1,70,0,1
49927,-100,4,2,1,90,0,1
50515,-100,4,2,1,70,0,1
57500,-100,4,2,1,70,0,0
57573,-126.582278481013,4,2,1,70,0,1
57647,-100,4,2,1,70,0,0
57867,604.229607250755,4,2,1,50,1,0
57867,-100,4,2,1,50,0,0
58169,588.235294117647,4,2,1,80,1,0
58169,-100,4,2,1,80,0,0
58757,-125,4,2,1,50,0,1
58830,-100,4,2,1,50,0,0
59347,-100,4,2,1,80,0,0
59933,588.235294117647,4,2,1,50,1,1
59933,-125,4,2,1,50,0,1
60006,-100,4,2,1,50,0,0
61112,-100,4,2,1,70,0,0
62288,-100,4,2,1,42,0,0
66404,-133.333333333333,4,2,42,42,0,0
66773,-133.333333333333,4,2,42,5,0,0
66991,-100,4,2,1,50,0,1
69344,-100,4,2,1,30,0,0
71626,-100,4,2,1,5,0,0
71697,-100,4,2,1,60,0,1
71771,-100,4,2,1,60,0,0
81700,-100,4,2,1,50,0,0
82288,-100,4,2,1,40,0,0
82876,-100,4,2,1,30,0,0
83464,-100,4,2,1,20,0,0
84053,-100,4,2,1,10,0,0
84641,-100,4,2,1,5,0,0
85817,-100,4,2,1,15,0,0
86075,-100,4,2,1,30,0,0

[Colours]
Combo1 : 153,214,232
Combo2 : 245,169,118
Combo3 : 242,210,145

[HitObjects]
171,140,824,5,0,0:0:0:0:
171,140,1119,2,0,B|222:156|238:128|297:147,1,110.50000210762,2|0,0:0|0:0,0:0:0:0:
358,177,1560,1,0,0:0:0:0:
358,177,1707,2,0,P|334:225|364:277,1,110.50000210762,8|0,0:0|0:0,0:0:0:0:
428,319,2148,1,0,0:0:0:0:
428,319,2295,2,0,L|498:322,2,55.2500010538101,2|0|0,0:0|0:0|0:0,0:0:0:0:
286,344,2883,1,8,0:0:0:0:
286,344,3177,1,0,0:0:0:0:
209,292,3471,5,2,0:0:0:0:
126,333,3766,1,2,0:0:0:0:
132,240,4060,1,2,0:0:0:0:
215,198,4354,1,2,0:0:0:0:
36,143,4942,5,2,0:0:0:0:
36,143,5236,1,10,0:0:0:0:
152,15,5530,2,0,P|137:62|169:101,1,97.5
192,114,5824,6,0,B|248:101|270:131|335:108,1,130,12|0,0:1|0:0,0:0:0:0:
399,88,6266,1,0,0:0:0:0:
399,88,6413,2,0,P|353:111|371:188,1,130,8|0,0:0|0:0,0:0:0:0:
409,246,6854,1,0,0:0:0:0:
409,246,7001,2,0,L|501:251,1,65,8|0,0:1|0:0,0:0:0:0:
482,331,7295,2,0,L|390:336,1,65,2|0,0:0|0:0,0:0:0:0:
343,297,7589,2,0,P|331:330|339:371,2,65,8|2|2,0:0|0:0|0:0,0:0:0:0:
336,215,8030,1,0,0:0:0:0:
256,237,8177,6,0,B|207:236|207:236|180:253|180:253|126:253,1,130,8|0,0:1|0:0,0:0:0:0:
73,193,8619,1,0,0:0:0:0:
73,193,8766,2,0,P|97:234|62:305,1,130,8|0,0:0|0:0,0:0:0:0:
119,364,9207,1,0,0:0:0:0:
119,364,9354,2,0,L|183:364,1,65,8|8,0:1|0:0,0:0:0:0:
247,312,9648,1,0,0:0:0:0:
312,368,9795,1,0,0:0:0:0:
312,368,9942,2,0,L|405:368,2,65,8|2|2,0:1|0:0|0:0,0:0:0:0:
247,312,10383,1,0,0:0:0:0:
300,250,10530,6,0,P|313:192|267:143,1,130,8|0,0:1|0:0,0:0:0:0:
188,125,10971,1,0,0:0:0:0:
188,125,11119,2,0,L|324:63,1,130,8|0,0:0|0:0,0:0:0:0:
369,18,11560,1,0,0:0:0:0:
369,18,11707,2,0,P|342:53|376:128,1,130,8|2,0:1|0:0,0:0:0:0:
443,165,12148,1,0,0:0:0:0:
443,165,12295,2,0,L|534:165,2,65,8|2|2,0:0|0:0|0:0,0:0:0:0:
370,202,12736,1,0,0:0:0:0:
370,202,12883,6,0,P|344:267|393:333,1,130,8|8,0:1|0:0,0:0:0:0:
297,357,13324,1,0,0:0:0:0:
297,357,13471,2,0,P|253:301|172:311,1,130,8|2,0:0|0:3,0:0:0:0:
122,330,13904,1,0,0:0:0:0:
122,330,14048,2,0,B|53:338|53:338|-1:294,2,130,2|2|12,0:0|0:0|0:0,0:0:0:0:
122,330,15232,6,0,P|113:273|166:232,1,110.50000210762,12|0,0:1|0:0,0:0:0:0:
227,219,15673,1,0,0:0:0:0:
227,219,15820,2,0,L|208:97,1,110.50000210762
155,52,16261,1,0,0:0:0:0:
155,52,16408,2,0,P|100:67|42:46,2,110.50000210762,2|0|0,0:0|0:0|0:0,0:0:0:0:
291,25,17290,1,8,0:1:0:0:
291,25,17584,6,0,P|285:70|342:119,1,110.50000210762,8|0,0:1|0:0,0:0:0:0:
442,191,18173,2,0,L|312:212,1,110.50000210762
259,174,18614,1,0,0:0:0:0:
259,174,18761,2,0,P|251:227|282:272,1,110.50000210762,2|0,0:0|0:0,0:0:0:0:
410,326,19349,1,0,0:0:0:0:
442,191,19643,1,8,0:1:0:0:
282,272,19937,6,0,L|151:270,1,110.50000210762,8|0,0:1|0:0,0:0:0:0:
62,356,20526,2,0,P|80:305|40:252,1,110.50000210762,2|8,0:0|0:1,0:0:0:0:
19,187,20967,1,0,0:0:0:0:
19,187,21114,2,0,L|76:156,1,55.2500010538101,8|0,0:1|0:0,0:0:0:0:
139,124,21408,1,0,0:0:0:0:
246,212,21702,1,0,0:0:0:0:
320,94,21996,1,8,0:1:0:0:
320,94,22290,6,0,P|261:99|200:57,1,110.50000210762,8|0,0:1|0:0,0:0:0:0:
89,18,22879,2,0,P|84:72|52:116,1,110.50000210762,2|8,0:0|0:1,0:0:0:0:
52,116,23761,1,2,0:0:0:0:
184,158,24055,2,0,P|140:171|153:300,1,193.375003688335,2|0,0:3|0:0,0:0:0:0:
180,316,24643,6,0,B|237:295|245:336|319:310,1,130,12|0,0:1|0:0,0:0:0:0:
317,231,25084,1,0,0:0:0:0:
317,231,25232,2,0,B|254:253|246:212|189:233,1,130,8|0,0:1|0:0,0:0:0:0:
113,265,25673,1,0,0:0:0:0:
113,265,25820,2,0,P|65:267|16:225,2,97.5,8|2|2,0:1|0:0|0:0,0:0:0:0:
90,182,26408,2,0,B|105:122|63:105|97:48,1,130,8|8,0:1|0:1,0:0:0:0:
162,11,26836,1,0,0:0:0:0:
231,53,26978,6,0,L|372:47,1,130,8|0,0:1|0:0,0:0:0:0:
439,71,27422,1,0,0:0:0:0:
439,71,27571,2,0,P|408:125|447:181,1,130,8|2,0:1|0:0,0:0:0:0:
484,246,28016,1,0,0:0:0:0:
412,285,28164,2,0,L|321:293,1,65,8|0,0:1|0:0,0:0:0:0:
279,335,28460,2,0,P|317:286|296:227,1,130,0|8,0:0|0:1,0:0:0:0:
160,136,29054,2,0,L|154:215,1,65,8|0,0:1|0:0,0:0:0:0:
202,267,29350,6,0,P|161:234|103:273,1,130,8|0,0:1|0:0,0:0:0:0:
23,286,29794,1,0,0:0:0:0:
47,207,29943,2,0,L|56:68,1,130,8|8,0:1|0:1,0:0:0:0:
118,25,30388,1,0,0:0:0:0:
118,25,30536,2,0,L|185:42,1,65,8|0,0:1|0:0,0:0:0:0:
261,26,30830,2,0,P|212:49|214:125,1,130,0|8,0:0|0:1,0:0:0:0:
284,263,31418,1,2,0:0:0:0:
375,127,31712,5,8,0:2:0:0:
464,305,32004,1,8,0:1:0:0:
473,185,32297,1,8,0:2:0:0:
284,263,32590,1,8,0:1:0:0:
422,44,33175,1,8,0:1:0:0:
422,44,33468,2,0,P|360:67|292:16,1,146.250005578995,8|0,0:2|0:0,0:0:0:0:
211,29,34053,6,0,P|230:60|156:160,1,168.999992263794,4|2,0:2|0:0,0:0:0:0:
66,187,34935,1,8,0:1:0:0:
161,314,35229,2,0,L|344:286,1,168.999992263794,8|0,0:2|0:0,0:0:0:0:
404,213,36111,1,8,0:1:0:0:
288,93,36405,6,0,P|237:146|301:183,1,168.999992263794,8|2,0:1|0:3,0:0:0:0:
388,121,37288,1,8,0:1:0:0:
253,22,37582,2,0,L|128:53,1,124,8|8,0:2|0:1,0:0:0:0:
54,77,38190,1,8,0:0:0:0:
132,148,38484,1,8,0:3:0:0:
37,267,38778,6,0,L|67:346,1,84.4999961318971,4|0,0:0|0:0,0:0:0:0:
172,349,39361,2,0,L|142:270,1,84.4999961318971
247,273,39944,2,0,L|277:352,1,84.4999961318971,2|0,0:0|0:0,0:0:0:0:
382,355,40528,2,0,L|352:276,1,84.4999961318971
251,187,41111,5,8,0:2:0:0:
251,187,41404,1,8,0:2:0:0:
251,187,41698,1,12,0:2:0:0:
373,94,42285,6,0,P|331:98|280:79,1,84.4999961318971,2|2,0:0|0:0,0:0:0:0:
149,123,42873,6,0,P|188:85|199:31,1,110.50000210762,2|2,0:0|0:0,0:0:0:0:
251,187,43460,6,0,P|248:254|309:302,1,130,12|0,0:1|0:0,0:0:0:0:
372,295,43901,1,0,0:0:0:0:
372,295,44047,2,0,L|436:256,1,65,8|0,0:0|0:0,0:0:0:0:
384,193,44341,2,0,L|327:224,1,65,2|2,0:0|0:0,0:0:0:0:
465,185,44635,2,0,P|433:124|376:110,1,130,8|2,0:1|0:0,0:0:0:0:
303,144,45075,1,0,0:0:0:0:
303,144,45222,2,0,L|238:182,1,65,8|0,0:0|0:0,0:0:0:0:
170,78,45516,2,0,L|171:143,1,65,2|2,0:0|0:0,0:0:0:0:
47,158,45809,6,0,L|116:198,1,65,8|0,0:1|0:0,0:0:0:0:
180,237,46103,2,0,L|124:270,1,65
51,317,46397,2,0,L|108:350,1,65,8|0,0:0|0:0,0:0:0:0:
243,297,46691,2,0,L|187:330,1,65,2|0,0:0|0:0,0:0:0:0:
264,218,46985,2,0,P|319:256|316:325,1,130,8|2,0:1|0:0,0:0:0:0:
380,371,47426,1,0,0:0:0:0:
439,315,47573,2,0,L|445:226,1,65,8|0,0:0|0:0,0:0:0:0:
386,130,47867,2,0,L|382:195,1,65,2|2,0:0|0:0,0:0:0:0:
464,165,48161,6,0,B|468:98|468:98|449:55|401:61,1,130,8|2,0:1|0:0,0:0:0:0:
339,52,48603,1,0,0:0:0:0:
339,52,48750,2,0,L|245:81,1,65,10|0,0:0|0:0,0:0:0:0:
133,51,49044,2,0,L|195:70,1,65,2|0,0:0|0:0,0:0:0:0:
280,180,49338,2,0,P|239:143|203:212,1,130,8|2,0:1|0:0,0:0:0:0:
240,254,49779,1,0,0:0:0:0:
321,253,49926,2,0,L|385:253,1,65,10|0,0:0|0:0,0:0:0:0:
384,105,50220,2,0,L|290:106,1,65,2|0,0:0|0:0,0:0:0:0:
237,112,50514,5,8,0:1:0:0:
194,186,50661,1,0,0:0:0:0:
240,254,50808,2,0,B|320:254,1,65,2|2,0:0|0:0,0:0:0:0:
377,214,51103,2,0,P|340:265|360:325,1,130,8|0,0:0|0:0,0:0:0:0:
427,278,51544,1,0,0:0:0:0:
457,201,51691,2,0,L|456:136,2,65,8|8|2,0:0|0:0|0:0,0:0:0:0:
374,132,52132,1,0,0:0:0:0:
305,177,52279,2,0,L|223:175,1,65,4|0,0:0|0:0,0:0:0:0:
122,223,52573,1,8,0:0:0:0:
122,223,52720,1,8,0:0:0:0:
122,223,52867,6,0,P|102:287|151:345,1,130,12|0,0:1|0:0,0:0:0:0:
209,367,53308,1,0,0:0:0:0:
209,367,53455,2,0,L|298:367,1,65,8|0,0:0|0:0,0:0:0:0:
417,340,53750,2,0,L|352:340,1,65,2|0,0:0|0:0,0:0:0:0:
289,287,54044,2,0,P|269:224|324:170,1,130,8|2,0:1|0:0,0:0:0:0:
439,134,54485,1,0,0:0:0:0:
439,134,54632,2,0,L|374:134,1,65,8|0,0:0|0:0,0:0:0:0:
369,52,54926,2,0,L|434:52,1,65,2|2,0:0|0:0,0:0:0:0:
299,94,55220,6,0,B|251:109|229:75|171:92,1,130,8|0,0:1|0:0,0:0:0:0:
111,148,55661,1,0,0:0:0:0:
111,148,55808,2,0,P|102:183|126:229,1,65,8|0,0:0|0:0,0:0:0:0:
119,291,56103,2,0,P|153:281|181:237,1,65,2|2,0:0|0:0,0:0:0:0:
236,209,56397,2,0,P|210:183|158:181,1,65,8|0,0:1|0:0,0:0:0:0:
45,261,56691,2,0,P|36:296|59:342,1,65,2|0,0:0|0:0,0:0:0:0:
102,379,56985,1,8,0:0:0:0:
177,347,57132,1,10,0:3:0:0:
255,371,57279,2,0,L|332:369,1,65,12|4,0:3|0:3,0:0:0:0:
401,363,57573,6,0,P|358:350|393:223,1,208,12|2,0:1|0:0,0:0:0:0:
496,278,58462,1,8,0:1:0:0:
425,119,58757,2,0,B|364:87|302:165|216:107,1,208,12|2,0:0|0:0,0:0:0:0:
80,191,59639,1,8,0:1:0:0:
223,310,59933,6,0,P|219:258|145:322,1,208,12|2,0:0|0:0,0:0:0:0:
297,359,60815,1,8,0:1:0:0:
443,270,61110,2,0,P|452:196|416:153,1,130,12|8,0:0|0:1,0:0:0:0:
419,155,61551,1,8,0:0:0:0:
267,133,61845,1,12,0:0:0:0:
267,133,62286,6,0,B|219:133|219:133|191:148|191:148|124:148,1,130,12|0,0:1|0:0,0:0:0:0:
159,227,62727,1,0,0:0:0:0:
159,227,62874,2,0,B|209:227|209:227|237:212|237:212|285:212,1,130,2|8,0:0|0:1,0:0:0:0:
308,290,63315,1,0,0:0:0:0:
308,290,63462,2,0,B|257:290|257:290|229:305|229:305|181:305,2,130,8|2|2,0:0|0:0|0:0,0:0:0:0:
428,163,64345,1,8,0:1:0:0:
382,337,64639,6,0,P|401:277|365:226,1,130,8|2,0:1|0:0,0:0:0:0:
285,212,65080,1,0,0:0:0:0:
285,212,65227,2,0,L|144:213,1,130,2|8,0:0|0:1,0:0:0:0:
77,182,65668,2,0,P|69:214|79:245,1,65,0|8,0:0|0:0,0:0:0:0:
131,89,66110,1,10,0:3:0:0:
327,132,66404,6,0,P|399:118|417:48,1,146.250005578995,8|0,0:2|0:0,0:0:0:0:
335,51,66992,6,0,L|195:52,1,130,12|0,0:1|0:0,0:0:0:0:
131,89,67433,1,2,0:0:0:0:
131,89,67580,2,0,P|164:130|134:211,1,130,8|0,0:0|0:0,0:0:0:0:
90,260,68021,1,2,0:0:0:0:
139,324,68168,2,0,L|203:330,2,65,8|2|2,0:1|0:0|0:0,0:0:0:0:
213,248,68610,1,0,0:0:0:0:
277,298,68757,2,0,L|341:304,1,65,8|0,0:0|0:0,0:0:0:0:
463,238,69051,2,0,L|399:245,1,65,2|0,0:3|0:0,0:0:0:0:
270,183,69345,5,8,0:1:0:0:
333,100,69639,1,0,0:0:0:0:
230,87,69933,1,2,0:0:0:0:
270,183,70227,1,2,0:0:0:0:
36,143,70815,5,8,0:2:0:0:
36,143,71109,1,8,0:2:0:0:
121,282,71403,2,0,P|106:235|138:196,1,97.5,0|0,0:0|0:0,0:0:0:0:
161,183,71697,6,0,B|217:196|239:166|304:189,1,130,12|0,0:1|0:0,0:0:0:0:
349,241,72139,1,0,0:0:0:0:
349,241,72286,2,0,P|315:191|346:136,1,130,8|0,0:0|0:0,0:0:0:0:
406,80,72727,1,0,0:0:0:0:
336,37,72874,2,0,L|186:45,1,130,8|2,0:1|0:0,0:0:0:0:
140,93,73315,1,0,0:0:0:0:
198,150,73462,2,0,L|262:146,2,65,8|2|2,0:0|0:0|0:0,0:0:0:0:
134,202,73904,1,0,0:0:0:0:
178,270,74051,6,0,P|238:287|311:239,1,130,8|0,0:1|0:0,0:0:0:0:
337,188,74492,1,0,0:0:0:0:
337,188,74639,2,0,L|473:175,1,130,8|0,0:0|0:0,0:0:0:0:
502,102,75080,1,0,0:0:0:0:
446,42,75227,2,0,L|381:48,1,65,8|0,0:1|0:0,0:0:0:0:
255,109,75521,2,0,L|320:103,1,65,2|0,0:0|0:0,0:0:0:0:
200,47,75815,2,0,L|135:53,2,65,12|2|2,0:0|0:0|0:0,0:0:0:0:
281,32,76257,1,0,0:0:0:0:
320,103,76404,6,0,P|327:168|284:219,1,130,12|0,0:1|0:0,0:0:0:0:
286,300,76845,1,0,0:0:0:0:
286,300,76992,2,0,P|267:240|207:226,1,130,8|0,0:0|0:0,0:0:0:0:
125,197,77433,1,0,0:0:0:0:
125,197,77580,2,0,P|174:236|167:298,1,130,8|2,0:1|0:0,0:0:0:0:
110,357,78021,1,0,0:0:0:0:
189,378,78168,2,0,L|253:368,2,65,8|2|2,0:0|0:0|0:0,0:0:0:0:
251,285,78610,1,0,0:0:0:0:
322,325,78756,6,0,L|450:306,1,130,8|0,0:1|0:0,0:0:0:0:
491,235,79198,1,0,0:0:0:0:
491,235,79345,2,0,P|491:170|429:134,1,130,12|0,0:0|0:0,0:0:0:0:
360,128,79786,1,0,0:0:0:0:
303,187,79933,2,0,L|218:187,2,65,8|8|8,0:0|0:0|0:0,0:0:0:0:
410,63,80521,1,12,0:0:0:0:
246,63,80815,1,0,0:0:0:0:
383,210,81110,5,12,0:1:0:0:
256,192,81183,12,2,86073,0:0:0:0:
