osu file format v14

[General]
AudioFilename: audio.mp3
AudioLeadIn: 0
PreviewTime: 42212
Countdown: 0
SampleSet: Soft
StackLeniency: 0.7
Mode: 0
LetterboxInBreaks: 0
WidescreenStoryboard: 0

[Editor]
Bookmarks: 5822,14058,15234,24646,31705,34058,38764,41117,43469,62293,66999,69352,71705,81117
DistanceSpacing: 0.4
BeatDivisor: 16
GridSize: 16
TimelineZoom: 1.799999

[Metadata]
Title:CheerS (TV Size)
TitleUnicode:CheerS (TV Size)
Artist:ClariS
ArtistUnicode:ClariS
Creator:hypercyte
Version:Phagocytosis
Source:はたらく細胞
Tags:cells at work work! hataraku saibou biology cyte cell seto kousuke
BeatmapID:1707404
BeatmapSetID:814145

[Difficulty]
HPDrainRate:6
CircleSize:4.2
OverallDifficulty:8
ApproachRate:9
SliderMultiplier:3.4
SliderTickRate:1

[Events]
//Background and Video events
0,0,"i spent waaay too long looking for a high res background lmao.png",0,0
//Break Periods
//Storyboard Layer 0 (Background)
//Storyboard Layer 1 (Fail)
//Storyboard Layer 2 (Pass)
//Storyboard Layer 3 (Foreground)
//Storyboard Sound Samples

[TimingPoints]
1119,588.235294117647,4,2,0,60,1,0
5236,-100,4,2,42,40,0,0
5824,-100,4,2,1,50,0,0
8104,-100,4,2,1,5,0,0
8177,-100,4,2,1,50,0,0
10457,-100,4,2,1,5,0,0
10530,-100,4,2,1,50,0,0
12810,-100,4,2,1,5,0,0
12883,-100,4,2,1,50,0,0
13471,577.478344562079,4,2,1,60,1,0
13759,-250,4,2,1,50,0,0
13976,-250,4,2,1,5,0,0
14048,592.300098716683,4,2,1,40,1,0
14048,-125,4,2,1,40,0,0
14640,-200,4,2,1,30,0,0
15232,588.235294117647,4,2,1,40,1,0
15232,-133.333333333333,4,2,1,40,0,0
17512,-133.333333333333,4,2,1,5,0,0
17585,-133.333333333333,4,2,1,40,0,0
19865,-133.333333333333,4,2,1,5,0,0
19938,-133.333333333333,4,2,1,40,0,0
21041,-133.333333333333,4,2,1,5,0,0
21115,-133.333333333333,4,2,1,40,0,0
22217,-133.333333333333,4,2,1,5,0,0
22291,-133.333333333333,4,2,1,40,0,0
23982,-133.333333333333,4,2,1,5,0,0
24056,-133.333333333333,4,2,1,40,0,0
24643,-117.647058823529,4,2,1,50,0,0
24644,-117.647058823529,4,2,1,50,0,0
26408,570.884871550904,4,2,1,50,1,0
26408,-117.647058823529,4,2,1,50,0,0
26978,593.002569677802,4,2,1,50,1,0
26978,-117.647058823529,4,2,1,50,0,0
29350,-117.647058823529,4,2,1,50,0,0
30536,588.235294117647,4,2,1,50,1,0
30536,-117.647058823529,4,2,1,50,0,0
31712,585.365853658537,4,2,1,35,1,0
31712,-105.263157894737,4,2,1,35,0,0
33394,-105.263157894737,4,2,1,5,0,0
33468,-105.263157894737,4,2,1,30,0,0
34053,588.235294117647,4,2,1,25,1,0
34053,-142.857142857143,4,2,1,25,0,0
37582,628.272251308901,4,2,1,40,1,0
37582,-142.857142857143,4,2,1,40,0,0
37896,588.235294117647,4,2,1,40,1,0
38190,-142.857142857143,4,2,42,50,0,0
38778,583.373845405931,4,2,1,25,1,0
38778,-166.666666666667,4,2,1,25,0,0
41111,587.371512481645,4,2,1,50,1,0
41112,-111.111111111111,4,2,1,50,0,0
41700,-111.111111111111,4,2,42,50,0,0
42285,-181.818181818181,4,2,42,50,0,0
42873,-153.846153846153,4,2,42,50,0,0
43460,-80,4,2,1,70,0,1
45809,588.235294117647,4,2,1,70,1,1
45809,-80,4,2,1,70,0,1
48750,-80,4,2,1,90,0,1
49338,-80,4,2,1,70,0,1
49926,-80,4,2,1,90,0,1
50514,-80,4,2,1,70,0,1
57573,-90.9090909090909,4,2,1,70,0,0
57867,604.229607250755,4,2,1,70,1,0
57867,-90.9090909090909,4,2,1,70,0,0
58169,588.235294117647,4,2,1,80,1,0
58169,-90.9090909090909,4,2,1,80,0,0
58757,-90.9090909090909,4,2,1,50,0,0
59346,-90.9090909090909,4,2,1,80,0,0
59933,588.235294117647,4,2,1,50,1,0
59933,-90.9090909090909,4,2,1,50,0,0
60227,-111.111111111111,4,2,1,50,0,0
61109,-86.9565217391304,4,2,1,70,0,1
61331,-86.9565217391304,4,2,1,5,0,1
61405,-86.9565217391304,4,2,1,70,0,1
61772,-86.9565217391304,4,2,1,5,0,1
61846,-86.9565217391304,4,2,1,70,0,1
62285,-125,4,2,1,42,0,0
63390,-125,4,2,1,5,0,0
63464,-125,4,2,1,42,0,0
64567,-125,4,2,1,5,0,0
64640,-125,4,2,1,42,0,0
65743,-125,4,2,1,5,0,0
65817,-125,4,2,1,42,0,0
66404,-66.6666666666667,4,2,42,30,0,0
66699,-66.6666666666667,4,2,42,42,0,0
66991,-105.263157894737,4,2,1,50,0,1
69344,-181.818181818181,4,2,1,30,0,0
71700,-95.2380952380952,4,2,1,60,0,0
71994,-95.2380952380952,4,2,1,60,0,0
73979,-95.2380952380952,4,2,1,5,0,0
74053,-95.2380952380952,4,2,1,60,0,0
76332,-95.2380952380952,4,2,1,5,0,0
76406,-95.2380952380952,4,2,1,60,0,0
78685,-95.2380952380952,4,2,1,5,0,0
78759,-95.2380952380952,4,2,1,60,0,0
81700,-95.2380952380952,4,2,1,50,0,0
82288,-95.2380952380952,4,2,1,40,0,0
82876,-95.2380952380952,4,2,1,30,0,0
83464,-95.2380952380952,4,2,1,20,0,0
84053,-95.2380952380952,4,2,1,10,0,0
84641,-95.2380952380952,4,2,1,5,0,0
85817,-95.2380952380952,4,2,1,15,0,0
86075,-100,4,2,1,30,0,0

[Colours]
Combo1 : 153,214,232
Combo2 : 245,169,118
Combo3 : 242,210,145

[HitObjects]
122,123,1119,5,2,0:0:0:0:
205,71,1413,1,0,0:0:0:0:
274,142,1707,1,8,0:0:0:0:
247,334,2295,5,2,0:0:0:0:
178,263,2589,1,0,0:0:0:0:
95,315,2883,1,8,0:0:0:0:
461,119,3471,5,2,0:0:0:0:
437,206,3766,1,2,0:0:0:0:
417,198,4060,1,2,0:0:0:0:
400,184,4354,1,2,0:0:0:0:
405,14,4942,5,2,0:0:0:0:
410,10,5236,1,10,0:0:0:0:
136,93,5824,5,12,0:1:0:0:
186,215,6118,2,0,P|226:197|270:192,1,85
430,172,6413,2,0,P|386:164|345:146,1,85,8|0,0:0|0:0,0:0:0:0:
291,57,6707,1,0,0:0:0:0:
396,61,6854,1,0,0:0:0:0:
420,264,7001,6,0,L|333:255,1,85,8|0,0:1|0:0,0:0:0:0:
266,192,7295,2,0,L|158:202,1,85,2|0,0:0|0:0,0:0:0:0:
168,374,7589,1,8,0:0:0:0:
234,298,7736,1,2,0:0:0:0:
91,177,7883,2,0,P|103:253|156:292,1,127.5,2|0,0:0|0:0,0:0:0:0:
234,298,8177,1,8,0:1:0:0:
228,287,8471,6,0,P|265:275|318:277,1,85
91,347,8766,2,0,P|56:344|13:322,1,85,8|0,0:0|0:0,0:0:0:0:
19,178,9060,2,0,P|56:179|100:202,1,85
212,273,9354,5,8,0:1:0:0:
202,184,9501,1,8,0:0:0:0:
150,315,9648,2,0,P|194:292|239:285,1,85
412,286,9942,1,8,0:1:0:0:
422,198,10089,1,2,0:0:0:0:
467,341,10236,2,0,P|411:311|335:334,1,127.5,2|0,0:0|0:0,0:0:0:0:
285,384,10530,1,8,0:1:0:0:
275,372,10824,6,0,L|280:278,1,85
204,150,11118,2,0,L|209:244,1,85,8|0,0:0|0:0,0:0:0:0:
157,308,11413,1,0,0:0:0:0:
117,227,11560,1,0,0:0:0:0:
275,372,11707,6,0,P|318:359|378:358,1,85,8|0,0:1|0:0,0:0:0:0:
489,299,12001,2,0,P|446:295|406:283,1,85,2|0,0:0|0:0,0:0:0:0:
385,121,12295,1,8,0:0:0:0:
473,182,12442,1,2,0:0:0:0:
341,190,12589,2,0,P|353:115|311:68,1,127.5,2|0,0:0|0:0,0:0:0:0:
245,56,12883,1,8,0:1:0:0:
233,70,13177,6,0,P|193:82|139:78,1,85,8|0,0:0|0:0,0:0:0:0:
0,19,13471,2,0,P|42:17|82:29,1,85,8|0,0:0|0:0,0:0:0:0:
150,80,13759,6,0,L|146:140,1,51,2|0,0:3|0:0,0:0:0:0:
141,210,14048,5,2,0:0:0:0:
243,291,14344,1,2,0:0:0:0:
24,384,14640,1,12,0:0:0:0:
95,201,15232,6,0,B|150:164|217:200|217:200|288:239|345:201,1,255.000009727478,12|0,0:1|0:0,0:0:0:0:
284,117,16114,1,0,0:0:0:0:
317,17,16408,2,0,P|374:-4|443:27,2,127.5,2|0|0,0:0|0:0|0:0,0:0:0:0:
284,117,17290,2,0,P|337:127|390:115,1,95.6250036478044,8|0,0:1|0:0,0:0:0:0:
472,166,17584,6,0,P|421:147|332:163,1,127.500004863739,8|0,0:1|0:0,0:0:0:0:
302,278,18173,2,0,P|251:297|162:281,1,127.500004863739
123,171,18761,2,0,P|72:152|-17:168,1,127.500004863739,2|0,0:0|0:0,0:0:0:0:
93,272,19349,1,0,0:0:0:0:
120,79,19643,2,0,P|110:120|124:173,1,95.6250036478044,8|0,0:1|0:0,0:0:0:0:
93,272,19937,6,0,P|103:231|79:150,1,127.500004863739,8|0,0:1|0:0,0:0:0:0:
0,76,20525,1,2,0:0:0:0:
183,38,20819,2,0,L|296:46,1,95.6250036478044,8|0,0:1|0:0,0:0:0:0:
396,73,21114,6,0,L|246:85,1,127.500004863739,8|0,0:1|0:0,0:0:0:0:
212,172,21702,1,0,0:0:0:0:
369,269,21996,2,0,L|359:172,1,95.6250036478044,8|0,0:1|0:0,0:0:0:0:
396,73,22290,6,0,L|381:217,1,127.500004863739,8|0,0:1|0:0,0:0:0:0:
304,303,22879,1,2,0:0:0:0:
191,104,23173,1,8,0:1:0:0:
147,246,23761,6,0,L|243:240,1,95.6250036478044,2|0,0:0|0:0,0:0:0:0:
294,176,24055,2,0,L|357:179,1,63.7500024318696,2|0,0:3|0:0,0:0:0:0:
413,292,24349,1,2,0:0:0:0:
467,235,24496,1,2,0:0:0:0:
448,378,24643,6,0,P|409:321|332:308,1,144.500002756119,12|0,0:1|0:0,0:0:0:0:
318,316,25084,1,0,0:0:0:0:
397,227,25231,2,0,P|360:220|257:252,1,144.500002756119,8|0,0:1|0:0,0:0:0:0:
251,262,25672,1,0,0:0:0:0:
326,140,25819,5,8,0:1:0:0:
219,7,26040,5,2,0:0:0:0:
161,169,26261,5,2,0:0:0:0:
91,122,26408,6,0,P|76:160|81:199,1,72.2500013780594,8|0,0:1|0:0,0:0:0:0:
242,188,26693,2,0,P|243:152|229:119,1,72.2500013780594,8|0,0:1|0:0,0:0:0:0:
191,90,26907,1,0,0:0:0:0:
191,90,26978,6,0,P|246:90|276:73,1,72.2500013780594,8|0,0:1|0:0,0:0:0:0:
330,22,27274,2,0,P|365:18|399:29,1,72.2500013780594
410,222,27571,2,0,P|375:226|341:215,1,72.2500013780594,8|0,0:1|0:0,0:0:0:0:
311,181,27793,1,0,0:0:0:0:
311,181,27867,2,0,P|256:181|226:198,1,72.2500013780594,2|0,0:0|0:0,0:0:0:0:
152,330,28164,5,8,0:1:0:0:
83,263,28312,1,2,0:0:0:0:
124,164,28460,2,0,L|116:84,1,72.2500013780594,2|0,0:0|0:0,0:0:0:0:
15,0,28757,2,0,L|7:80,1,72.2500013780594,8|0,0:1|0:0,0:0:0:0:
146,170,29054,2,0,L|138:98,1,72.2500013780594,8|0,0:1|0:0,0:0:0:0:
191,25,29276,5,0,0:0:0:0:
191,25,29350,2,0,B|265:7|264:56|348:37,1,144.500002756119,8|0,0:1|0:0,0:0:0:0:
355,33,29794,1,0,0:0:0:0:
264,115,29943,2,0,P|326:123|411:93,1,144.500002756119,8|8,0:1|0:1,0:0:0:0:
420,84,30388,1,0,0:0:0:0:
419,222,30536,6,0,P|373:206|326:209,1,72.2500013780594,8|0,0:1|0:0,0:0:0:0:
195,219,30830,2,0,P|230:215|264:202,1,72.2500013780594
109,170,31124,2,0,L|109:255,1,72.2500013780594,8|0,0:1|0:0,0:0:0:0:
201,45,31418,1,2,0:0:0:0:
257,298,31712,5,8,0:2:0:0:
355,228,32004,1,8,0:1:0:0:
379,72,32297,1,8,0:2:0:0:
427,302,32590,1,8,0:1:0:0:
242,156,33175,6,0,P|207:147|132:185,1,121.124996765614,8|0,0:1|0:0,0:0:0:0:
37,206,33468,2,0,P|109:204|167:278,1,161.499995687485,8|0,0:2|0:0,0:0:0:0:
374,287,34053,5,4,0:2:0:0:
370,302,34641,1,2,0:0:0:0:
420,130,34935,1,8,0:1:0:0:
296,32,35229,5,8,0:2:0:0:
284,25,35817,1,0,0:0:0:0:
410,139,36112,1,8,0:1:0:0:
358,280,36406,5,8,0:1:0:0:
353,291,36994,1,2,0:3:0:0:
392,150,37288,1,8,0:1:0:0:
270,47,37582,5,8,0:2:0:0:
92,274,38043,5,8,0:1:0:0:
70,179,38190,2,0,P|97:190|126:194,1,59.4999981842042,8|0,0:0|0:0,0:0:0:0:
75,91,38484,2,0,P|45:94|18:106,1,59.4999981842042,8|0,0:3|0:0,0:0:0:0:
163,119,38778,6,0,B|258:85|256:170|370:129,1,203.999993774414,4|0,0:0|0:0,0:0:0:0:
407,54,39653,1,2,0:0:0:0:
494,88,39944,2,0,L|486:197,1,101.999996887207,2|0,0:0|0:0,0:0:0:0:
472,283,40528,2,0,L|479:384,1,101.999996887207,2|0,0:0|0:0,0:0:0:0:
177,112,41111,5,8,0:2:0:0:
292,307,41405,1,8,0:2:0:0:
291,13,41699,1,12,0:2:0:0:
238,143,42285,6,0,P|279:126|331:135,1,93.5000028533936,2|2,0:0|0:0,0:0:0:0:
262,210,42873,2,0,P|229:174|164:163,1,110.499994941712,2|2,0:0|0:0,0:0:0:0:
340,32,43460,6,0,B|321:65|321:65|330:173,1,106.25,12|0,0:1|0:0,0:0:0:0:
468,279,43754,2,0,P|439:227|350:199,1,106.25
204,254,44047,2,0,P|263:254|331:192,1,106.25,8|0,0:0|0:0,0:0:0:0:
340,32,44341,1,2,0:0:0:0:
253,81,44488,1,2,0:0:0:0:
64,18,44635,6,0,L|176:24,1,106.25,8|0,0:1|0:0,0:0:0:0:
154,120,44928,2,0,L|258:78,1,106.25,2|0,0:0|0:0,0:0:0:0:
45,106,45222,2,0,P|129:134|154:259,1,212.5,8|2,0:0|0:0,0:0:0:0:
33,311,45663,1,2,0:0:0:0:
178,327,45809,6,0,P|230:290|242:245,1,106.25,8|0,0:1|0:0,0:0:0:0:
323,295,46103,2,0,P|329:234|310:191,1,106.25
466,226,46397,1,8,0:0:0:0:
371,117,46544,1,2,0:0:0:0:
437,24,46691,2,0,P|478:74|484:125,1,106.25,2|0,0:0|0:0,0:0:0:0:
260,112,46985,6,0,P|282:51|323:20,1,106.25,8|0,0:1|0:0,0:0:0:0:
415,219,47279,2,0,P|351:229|304:209,1,106.25,2|0,0:0|0:0,0:0:0:0:
158,115,47573,2,0,P|208:99|259:111,1,106.25,8|0,0:0|0:0,0:0:0:0:
179,230,47867,1,2,0:0:0:0:
83,197,48014,1,2,0:0:0:0:
87,339,48161,6,0,L|199:325,1,106.25,8|0,0:1|0:0,0:0:0:0:
179,230,48456,2,0,L|286:264,1,106.25,2|0,0:0|0:0,0:0:0:0:
419,78,48750,6,0,P|371:101|345:149,1,106.25,10|0,0:0|0:0,0:0:0:0:
488,29,49044,2,0,P|444:-1|389:0,1,106.25,2|0,0:0|0:0,0:0:0:0:
262,76,49338,5,8,0:1:0:0:
166,43,49485,1,2,0:0:0:0:
83,143,49632,2,0,L|203:134,1,106.25,2|0,0:0|0:0,0:0:0:0:
369,310,49926,6,0,P|353:264|302:234,1,106.25,10|0,0:0|0:0,0:0:0:0:
415,384,50220,2,0,P|446:347|447:287,1,106.25,2|0,0:0|0:0,0:0:0:0:
286,317,50514,5,8,0:1:0:0:
223,256,50661,1,8,0:0:0:0:
327,126,50808,1,2,0:0:0:0:
305,234,50955,1,10,0:0:0:0:
260,73,51103,2,0,P|205:58|143:75,1,106.25,8|0,0:0|0:0,0:0:0:0:
330,142,51397,2,0,P|385:157|447:140,1,106.25,0|0,0:0|0:0,0:0:0:0:
512,0,51691,5,8,0:0:0:0:
323,0,51838,1,8,0:0:0:0:
327,126,51985,1,2,0:0:0:0:
414,66,52132,1,2,0:0:0:0:
512,193,52279,2,0,B|502:232|502:232|514:264|514:264|504:306,1,106.25,4|0,0:0|0:0,0:0:0:0:
384,181,52573,1,8,0:0:0:0:
330,336,52720,1,8,0:0:0:0:
228,202,52867,6,0,P|288:209|324:244,1,106.25,12|0,0:1|0:0,0:0:0:0:
384,181,53161,2,0,P|407:236|395:285,1,106.25,0|0,0:0|0:0,0:0:0:0:
487,309,53455,2,0,P|450:357|402:371,1,106.25,8|0,0:0|0:0,0:0:0:0:
248,288,53750,1,2,0:0:0:0:
172,353,53897,1,0,0:0:0:0:
125,157,54044,6,0,L|114:274,1,106.25,8|0,0:1|0:0,0:0:0:0:
11,254,54338,2,0,L|50:364,1,106.25,2|0,0:0|0:0,0:0:0:0:
232,126,54632,2,0,P|121:117|83:30,1,212.5,8|2,0:0|0:0,0:0:0:0:
184,37,55073,1,2,0:0:0:0:
125,157,55220,6,0,P|68:174|21:157,1,106.25,8|0,0:1|0:0,0:0:0:0:
216,151,55514,2,0,P|202:208|163:241,1,106.25,0|0,0:0|0:0,0:0:0:0:
256,68,55808,1,8,0:0:0:0:
308,152,55955,1,0,0:0:0:0:
456,89,56103,1,2,0:0:0:0:
421,209,56250,1,2,0:0:0:0:
356,63,56397,6,0,P|344:114|307:151,1,106.25,8|0,0:1|0:0,0:0:0:0:
158,108,56691,1,2,0:0:0:0:
221,257,56838,1,2,0:3:0:0:
223,251,56911,1,2,0:3:0:0:
225,245,56985,1,8,0:0:0:0:
256,68,57132,1,10,0:3:0:0:
316,270,57279,1,12,0:3:0:0:
307,151,57426,1,4,0:3:0:0:
404,378,57573,6,0,P|338:356|290:372,1,93.5000028533936,12|0,0:1|0:0,0:0:0:0:
163,324,57867,2,0,P|215:277|219:226,1,93.5000028533936,2|0,0:0|0:0,0:0:0:0:
481,82,58169,2,0,L|473:195,1,93.5000028533936,2|0,0:0|0:0,0:0:0:0:
389,36,58463,2,0,L|397:149,1,93.5000028533936,8|0,0:1|0:0,0:0:0:0:
256,192,58757,1,12,0:0:0:0:
267,204,59051,6,0,L|260:304,1,93.5000028533936,2|0,0:0|0:0,0:0:0:0:
120,34,59345,2,0,L|111:127,1,93.5000028533936,2|0,0:0|0:0,0:0:0:0:
19,5,59639,2,0,L|27:98,1,93.5000028533936,8|0,0:1|0:0,0:0:0:0:
256,192,59933,1,12,0:0:0:0:
248,203,60227,6,0,P|324:229|386:188,1,152.999995330811,2|2,0:0|0:0,0:0:0:0:
373,185,60816,1,8,0:1:0:0:
96,99,61110,6,0,P|51:156|85:249,1,146.62500279665,12|0,0:0|0:0,0:0:0:0:
62,224,61404,1,8,0:1:0:0:
171,51,61551,2,0,P|181:121|137:176,1,146.62500279665,8|0,0:0|0:0,0:0:0:0:
88,7,61845,2,0,P|77:53|95:98,1,97.7500018644333,12|0,0:0|0:0,0:0:0:0:
442,109,62286,6,0,B|354:112|343:36|343:36|354:112|264:145,1,272,12|2,0:1|0:0,0:0:0:0:
97,343,63169,6,0,P|159:345|194:366,1,102,8|0,0:1|0:0,0:0:0:0:
314,347,63463,2,0,P|241:333|185:373,1,136,8|2,0:0|0:0,0:0:0:0:
256,192,64051,5,2,0:0:0:0:
71,245,64345,6,0,L|91:122,1,102,8|0,0:1|0:0,0:0:0:0:
65,10,64639,2,0,L|88:155,1,136,8|2,0:1|0:0,0:0:0:0:
256,192,65227,5,2,0:0:0:0:
274,50,65521,6,0,P|335:64|375:42,1,102,8|0,0:1|0:0,0:0:0:0:
492,47,65816,2,0,P|429:23|366:49,1,136,8|10,0:0|0:3,0:0:0:0:
259,198,66404,6,0,L|263:241,6,31.8750012159348,10|0|0|0|0|0|0,0:2|0:0|0:0|0:0|0:0|0:0|0:0,0:0:0:0:
247,268,66698,1,2,0:0:0:0:
221,289,66771,1,2,0:0:0:0:
188,299,66845,1,2,0:0:0:0:
155,296,66918,1,2,0:0:0:0:
126,279,66992,6,0,P|97:241|95:195,1,80.7499978437424,12|0,0:1|0:0,0:0:0:0:
6,191,67286,2,0,P|24:146|63:122,1,80.7499978437424,0|2,0:0|0:0,0:0:0:0:
187,358,67580,2,0,P|216:320|218:274,1,80.7499978437424,8|0,0:0|0:0,0:0:0:0:
307,270,67874,2,0,P|288:225|249:201,1,80.7499978437424,0|2,0:0|0:0,0:0:0:0:
249,51,68168,5,8,0:1:0:0:
167,182,68315,1,2,0:0:0:0:
97,110,68462,2,0,P|145:83|194:88,1,80.7499978437424,2|0,0:0|0:0,0:0:0:0:
464,62,68757,2,0,L|452:144,1,80.7499978437424,8|0,0:0|0:0,0:0:0:0:
357,6,69051,2,0,L|368:85,1,80.7499978437424,2|0,0:3|0:0,0:0:0:0:
256,192,69345,6,0,P|214:161|158:155,1,93.5000028533936
118,213,69933,1,2,0:0:0:0:
56,114,70227,1,2,0:0:0:0:
423,10,70816,5,8,0:2:0:0:
429,13,71110,1,8,0:2:0:0:
256,192,71698,5,12,0:1:0:0:
111,51,71992,2,0,P|137:101|135:143,1,89.2499972763062,0|0,0:0|0:0,0:0:0:0:
33,263,72286,2,0,P|36:218|59:181,1,89.2499972763062,8|0,0:0|0:0,0:0:0:0:
88,338,72580,1,0,0:0:0:0:
171,272,72727,1,2,0:0:0:0:
264,344,72874,6,0,L|363:336,1,89.2499972763062,8|0,0:1|0:0,0:0:0:0:
413,268,73168,2,0,L|512:276,1,89.2499972763062,2|0,0:0|0:0,0:0:0:0:
403,79,73462,1,8,0:0:0:0:
379,175,73610,1,2,0:0:0:0:
474,46,73757,2,0,L|334:36,1,133.874995914459,2|0,0:0|0:0,0:0:0:0:
266,29,74051,1,8,0:1:0:0:
246,40,74345,6,0,P|238:90|253:133,1,89.2499972763062,0|0,0:0|0:0,0:0:0:0:
166,238,74639,2,0,P|177:195|169:151,1,89.2499972763062,8|0,0:0|0:0,0:0:0:0:
68,49,74933,1,2,0:0:0:0:
4,109,75080,1,2,0:0:0:0:
72,254,75227,6,0,L|85:160,1,89.2499972763062,8|0,0:1|0:0,0:0:0:0:
156,63,75521,2,0,L|169:157,1,89.2499972763062,2|0,0:0|0:0,0:0:0:0:
269,282,75815,1,14,0:0:0:0:
324,208,75962,1,2,0:0:0:0:
320,344,76110,2,0,P|262:308|183:303,1,133.874995914459,2|0,0:0|0:0,0:0:0:0:
128,348,76404,1,12,0:1:0:0:
109,339,76698,6,0,L|116:246,1,89.2499972763062,0|0,0:0|0:0,0:0:0:0:
188,123,76992,2,0,L|195:216,1,89.2499972763062,8|0,0:0|0:0,0:0:0:0:
317,161,77286,1,2,0:0:0:0:
290,76,77433,1,2,0:0:0:0:
475,98,77580,6,0,P|436:124|392:124,1,89.2499972763062,8|0,0:1|0:0,0:0:0:0:
290,76,77874,2,0,P|251:50|207:50,1,89.2499972763062,2|0,0:0|0:0,0:0:0:0:
112,165,78168,1,8,0:0:0:0:
205,165,78315,1,2,0:0:0:0:
57,104,78462,2,0,P|75:172|63:257,1,133.874995914459,2|0,0:0|0:0,0:0:0:0:
32,300,78757,1,8,0:1:0:0:
39,285,79051,6,0,P|82:274|128:291,1,89.2499972763062,0|0,0:0|0:0,0:0:0:0:
289,162,79345,2,0,P|247:175|204:164,1,89.2499972763062,12|0,0:0|0:0,0:0:0:0:
164,76,79639,1,0,0:0:0:0:
159,87,79933,5,8,0:0:0:0:
207,260,80080,1,8,0:0:0:0:
245,40,80227,1,8,0:0:0:0:
250,52,80521,5,12,0:0:0:0:
255,62,80815,1,0,0:0:0:0:
256,192,81110,5,12,0:1:0:0:
256,192,81183,12,2,86073,0:0:0:0:
