osu file format v14

[General]
AudioFilename: audio.mp3
AudioLeadIn: 0
PreviewTime: 42212
Countdown: 0
SampleSet: Soft
StackLeniency: 0.7
Mode: 0
LetterboxInBreaks: 0
WidescreenStoryboard: 1

[Editor]
Bookmarks: 5822,7440,14058,15234,24646,31705,34058,38764,41117,43469,62293,66999,69352,71705,81117
DistanceSpacing: 1
BeatDivisor: 8
GridSize: 16
TimelineZoom: 1.6

[Metadata]
Title:CheerS (TV Size)
TitleUnicode:CheerS (TV Size)
Artist:ClariS
ArtistUnicode:ClariS
Creator:hypercyte
Version:Normal
Source:はたらく細胞
Tags:cells at work work! hataraku saibou biology cyte cell seto kousuke
BeatmapID:1709822
BeatmapSetID:814145

[Difficulty]
HPDrainRate:4
CircleSize:3.5
OverallDifficulty:4
ApproachRate:5
SliderMultiplier:1.6
SliderTickRate:1

[Events]
//Background and Video events
0,0,"i spent waaay too long looking for a high res background lmao.png",0,0
//Break Periods
//Storyboard Layer 0 (Background)
//Storyboard Layer 1 (Fail)
//Storyboard Layer 2 (Pass)
//Storyboard Layer 3 (Foreground)
//Storyboard Sound Samples

[TimingPoints]
1119,588.235294117647,4,2,0,60,1,0
1119,-100,4,2,0,60,0,0
5233,-100,4,2,42,40,0,0
5821,-100,4,2,1,50,0,0
13471,577.478344562079,4,2,1,60,1,0
13759,-100,4,2,1,50,0,0
14048,592.300098716683,4,2,1,40,1,0
14048,-100,4,2,1,40,0,0
14640,-100,4,2,1,20,0,0
15232,588.235294117647,4,2,1,40,1,0
15232,-100,4,2,1,40,0,0
24643,-100,4,2,1,50,0,0
26408,570.884871550904,4,2,1,50,1,0
26978,593.002569677802,4,2,1,50,1,0
30536,588.235294117647,4,2,1,50,1,0
31712,585.365853658537,4,2,1,30,1,0
31712,-100,4,2,1,30,0,0
34053,588.235294117647,4,2,1,25,1,0
34053,-100,4,2,1,25,0,0
37582,628.272251308901,4,2,1,40,1,0
37582,-97.0873786407767,4,2,1,40,0,0
37896,588.235294117647,4,2,1,40,1,0
38190,-100,4,2,42,50,0,0
38778,583.373845405931,4,2,1,50,1,0
38778,-100,4,2,1,50,0,0
41111,587.371512481645,4,2,1,50,1,0
41112,-100,4,2,1,50,0,0
41700,-100,4,2,42,50,0,0
42285,-100,4,2,42,50,0,0
42873,-100,4,2,42,50,0,0
43460,-100,4,2,1,70,0,1
45809,588.235294117647,4,2,1,70,1,1
48750,-100,4,2,1,90,0,1
49339,-100,4,2,1,70,0,1
49927,-100,4,2,1,90,0,1
50515,-100,4,2,1,70,0,1
57573,-100,4,2,1,70,0,0
57867,604.229607250755,4,2,1,70,1,0
57868,-100,4,2,1,50,0,0
58169,588.235294117647,4,2,1,80,1,0
58169,-100,4,2,1,80,0,0
58759,-100,4,2,1,50,0,0
59347,-100,4,2,1,80,0,0
59933,588.235294117647,4,2,1,50,1,0
59935,-100,4,2,1,50,0,0
60229,-100,4,2,1,50,0,0
61109,-100,4,2,1,70,0,1
62285,-100,4,2,1,42,0,0
66406,-100,4,2,42,42,0,0
66991,-100,4,2,1,50,0,1
69344,-100,4,2,1,30,0,0
69347,-100,4,2,1,30,0,0
71700,-100,4,2,1,60,0,0
81700,-100,4,2,1,50,0,0
82288,-100,4,2,1,40,0,0
82876,-100,4,2,1,30,0,0
83464,-100,4,2,1,20,0,0
84053,-100,4,2,1,10,0,0
84641,-100,4,2,1,5,0,0
85817,-100,4,2,1,15,0,0
86075,-100,4,2,1,30,0,0

[Colours]
Combo1 : 153,214,232
Combo2 : 245,169,118
Combo3 : 242,210,145

[HitObjects]
127,169,1119,6,0,P|126:116|139:78,2,79.9999999999999,2|0|8,0:0|0:0|0:0,0:0:0:0:
283,200,2295,2,0,P|284:253|267:292,2,79.9999999999999,2|0|8,0:0|0:0|0:0,0:0:0:0:
194,67,3471,5,2,0:0:0:0:
391,134,4942,1,2,0:0:0:0:
464,103,5236,1,10,0:0:0:0:
391,246,5824,6,0,B|300:234|325:301|227:289,1,160,12|8,0:1|0:0,0:0:0:0:
162,284,6707,1,0,0:0:0:0:
125,212,7001,2,0,L|119:127,1,79.9999999999999,8|2,0:1|0:0,0:0:0:0:
195,106,7589,2,0,L|200:24,1,79.9999999999999,8|2,0:0|0:0,0:0:0:0:
278,32,8177,6,0,B|304:60|304:60|433:51,1,160,8|8,0:1|0:0,0:0:0:0:
483,106,9060,1,0,0:0:0:0:
440,173,9354,1,8,0:1:0:0:
440,173,9501,2,0,L|445:296,1,120,8|8,0:0|0:1,0:0:0:0:
384,345,10236,1,2,0:0:0:0:
346,274,10530,6,0,P|281:233|196:252,1,160,8|8,0:1|0:0,0:0:0:0:
157,313,11413,1,0,0:0:0:0:
83,282,11707,2,0,P|73:243|79:204,1,79.9999999999999,8|2,0:1|0:0,0:0:0:0:
128,141,12295,2,0,P|137:102|131:63,1,79.9999999999999,8|2,0:0|0:0,0:0:0:0:
59,28,12883,5,8,0:1:0:0:
25,100,13177,1,8,0:0:0:0:
47,176,13471,1,8,0:0:0:0:
126,189,13759,2,0,P|160:181|176:168,1,40,2|0,0:3|0:0,0:0:0:0:
189,147,14048,2,0,P|220:139|280:145,2,80,2|2|12,0:0|0:0|0:0,0:0:0:0:
148,301,15232,6,0,B|225:328|227:276|316:301,1,160,12|0,0:1|0:0,0:0:0:0:
376,337,16114,1,0,0:0:0:0:
443,293,16408,2,0,P|469:241|441:136,1,160,2|0,0:0|0:0,0:0:0:0:
381,101,17290,2,0,L|335:107,1,40,8|0,0:1|0:0,0:0:0:0:
306,126,17584,6,0,L|135:103,1,160,8|0,0:1|0:0,0:0:0:0:
75,70,18467,1,0,0:0:0:0:
8,114,18761,2,0,P|-3:188|33:276,1,160,2|0,0:0|0:0,0:0:0:0:
103,283,19643,2,0,P|149:275|155:276,1,40,8|0,0:1|0:0,0:0:0:0:
177,291,19937,6,0,P|252:325|337:305,1,160,8|2,0:1|0:0,0:0:0:0:
386,258,20820,2,0,L|386:214,1,40,8|0,0:1|0:0,0:0:0:0:
365,183,21114,2,0,L|365:11,1,160,8|0,0:1|0:0,0:0:0:0:
286,8,21996,2,0,P|250:9|230:8,1,40,8|0,0:1|0:0,0:0:0:0:
214,31,22290,6,0,P|174:26|126:27,2,79.9999999999999,8|0|2,0:1|0:0|0:0,0:0:0:0:
242,105,23173,1,8,0:1:0:0:
401,93,23761,2,0,P|426:99|457:101,1,40,2|0,0:0|0:0,0:0:0:0:
474,121,24055,2,0,P|487:173|489:200,1,79.9999999999999,2|2,0:3|0:0,0:0:0:0:
488,279,24643,6,0,B|453:274|420:296|420:296|383:319|319:296,1,160,12|8,0:1|0:1,0:0:0:0:
275,247,25526,1,0,0:0:0:0:
201,279,25820,2,0,P|170:289|133:323,1,79.9999999999999,8|0,0:1|0:0,0:0:0:0:
67,363,26408,2,0,P|36:353|-1:319,1,79.9999999999999,8|8,0:1|0:1,0:0:0:0:
21,244,26978,6,0,P|45:202|17:95,1,160,8|8,0:1|0:1,0:0:0:0:
44,22,27867,1,2,0:0:0:0:
123,14,28164,2,0,L|210:19,1,79.9999999999999,8|2,0:1|0:0,0:0:0:0:
265,69,28757,1,8,0:1:0:0:
335,31,29054,2,0,L|382:31,1,40,8|0,0:1|0:0,0:0:0:0:
413,18,29350,6,0,P|414:45|436:108,1,79.9999999999999,8|0,0:1|0:0,0:0:0:0:
499,133,29943,1,8,0:1:0:0:
446,193,30239,2,0,L|442:241,1,40,8|0,0:1|0:0,0:0:0:0:
471,260,30536,2,0,L|485:343,1,79.9999999999999,8|0,0:1|0:0,0:0:0:0:
417,383,31124,1,8,0:1:0:0:
357,329,31418,1,2,0:0:0:0:
282,359,31712,6,0,L|193:352,2,80,8|8|8,0:2|0:1|0:2,0:0:0:0:
282,279,32590,1,8,0:1:0:0:
215,133,33175,2,0,L|168:138,1,40,8|0,0:1|0:0,0:0:0:0:
147,165,33468,2,0,L|55:159,1,79.9999999999999,8|0,0:2|0:0,0:0:0:0:
19,95,34053,6,0,P|49:42|151:30,1,160,4|2,0:2|0:0,0:0:0:0:
218,165,35229,2,0,P|266:164|335:73,1,160,8|0,0:2|0:0,0:0:0:0:
483,26,36405,2,0,L|471:194,1,160,8|2,0:1|0:3,0:0:0:0:
382,318,37582,2,0,L|370:150,1,159.5,8|8,0:2|0:0,0:0:0:0:
362,79,38484,1,8,0:3:0:0:
300,26,38778,6,0,P|179:32|112:204,1,320,4|2,0:0|0:0,0:0:0:0:
314,134,41111,5,8,0:2:0:0:
383,172,41404,1,8,0:2:0:0:
395,251,41698,1,12,0:2:0:0:
260,337,42285,6,0,P|214:323|181:323,1,80,2|2,0:0|0:0,0:0:0:0:
104,340,42873,2,0,P|107:288|106:245,1,80,2|2,0:0|0:0,0:0:0:0:
85,182,43460,6,0,L|174:188,1,79.9999999999999,12|0,0:1|0:0,0:0:0:0:
216,126,44047,2,0,L|305:120,1,79.9999999999999,8|2,0:0|0:0,0:0:0:0:
325,147,44488,1,2,0:0:0:0:
350,177,44635,2,0,L|439:183,1,79.9999999999999,8|2,0:1|0:0,0:0:0:0:
498,224,45222,2,0,P|511:280|506:317,1,79.9999999999999,8|2,0:0|0:0,0:0:0:0:
486,334,45663,1,2,0:0:0:0:
446,342,45809,5,8,0:1:0:0:
381,294,46103,2,0,P|344:292|301:315,1,79.9999999999999,0|8,0:0|0:0,0:0:0:0:
255,372,46691,1,2,0:0:0:0:
184,334,46985,2,0,P|176:310|184:250,1,79.9999999999999,8|2,0:1|0:0,0:0:0:0:
220,186,47573,2,0,P|228:162|220:102,1,79.9999999999999,8|2,0:0|0:0,0:0:0:0:
199,75,48014,1,2,0:0:0:0:
163,56,48161,6,0,L|65:57,1,79.9999999999999,8|2,0:1|0:0,0:0:0:0:
29,116,48750,1,10,0:0:0:0:
71,183,49044,1,2,0:0:0:0:
35,255,49338,2,0,P|27:292|42:344,1,79.9999999999999,8|2,0:1|0:0,0:0:0:0:
115,321,49926,1,10,0:0:0:0:
187,355,50220,1,2,0:0:0:0:
256,316,50514,6,0,P|251:273|244:228,1,80,8|2,0:1|0:0,0:0:0:0:
229,200,50956,1,10,0:0:0:0:
203,168,51103,2,0,P|208:125|215:80,1,80,8|0,0:0|0:0,0:0:0:0:
257,21,51691,1,8,0:0:0:0:
257,21,51838,2,0,P|319:18|376:35,1,120,8|4,0:0|0:0,0:0:0:0:
434,87,52573,2,0,P|427:105|416:122,1,40,8|8,0:0|0:0,0:0:0:0:
383,145,52867,6,0,B|363:220|406:220|390:303,1,160,12|8,0:1|0:0,0:0:0:0:
310,311,53750,1,2,0:0:0:0:
247,261,54044,2,0,P|203:258|161:267,1,80,8|2,0:1|0:0,0:0:0:0:
91,289,54632,2,0,L|96:209,1,79.9999999999999,8|2,0:0|0:0,0:0:0:0:
88,169,55073,1,2,0:0:0:0:
78,130,55220,6,0,P|156:98|240:137,1,160,8|8,0:1|0:0,0:0:0:0:
246,198,56103,2,0,P|280:209|300:223,1,40,2|2,0:0|0:0,0:0:0:0:
308,242,56397,2,0,L|415:234,1,80,8|2,0:1|0:0,0:0:0:0:
464,214,56985,2,0,P|475:186|470:134,1,80,8|12,0:0|0:3,0:0:0:0:
419,76,57573,6,0,L|332:67,1,80,12|2,0:1|0:0,0:0:0:0:
269,105,58169,1,2,0:0:0:0:
204,57,58463,1,8,0:1:0:0:
125,75,58757,2,0,P|113:111|123:167,1,79.9999999999999,12|2,0:0|0:0,0:0:0:0:
145,226,59345,1,2,0:0:0:0:
96,289,59639,1,8,0:1:0:0:
135,358,59933,6,0,B|197:388|250:364|250:364|324:327|380:348,1,240,12|8,0:0|0:1,0:0:0:0:
445,359,61110,1,12,0:0:0:0:
469,282,61404,1,8,0:1:0:0:
469,282,61551,2,0,L|465:187,1,80,8|12,0:0|0:0,0:0:0:0:
402,99,62286,6,0,P|359:81|253:121,1,160,12|2,0:1|0:0,0:0:0:0:
177,120,63168,2,0,L|178:169,1,40,8|0,0:1|0:0,0:0:0:0:
194,196,63462,2,0,L|190:355,1,160,8|2,0:0|0:0,0:0:0:0:
265,329,64345,2,0,P|298:324|314:325,1,40,8|0,0:1|0:0,0:0:0:0:
335,349,64639,6,0,P|388:359|499:335,1,160,8|2,0:1|0:0,0:0:0:0:
466,262,65521,2,0,L|462:212,1,40,8|0,0:1|0:0,0:0:0:0:
444,186,65815,2,0,L|452:96,1,79.9999999999999,8|10,0:0|0:3,0:0:0:0:
420,32,66404,2,0,P|363:56|285:50,1,120,10|2,0:2|0:0,0:0:0:0:
266,63,66992,6,0,P|250:112|255:176,1,80,12|0,0:1|0:0,0:0:0:0:
302,199,67580,2,0,P|317:253|317:293,1,80,8|0,0:0|0:0,0:0:0:0:
262,333,68168,2,0,L|182:328,1,79.9999999999999,8|2,0:1|0:0,0:0:0:0:
144,257,68757,2,0,L|65:262,1,79.9999999999999,8|2,0:0|0:3,0:0:0:0:
2,312,69345,5,0,0:0:0:0:
13,152,69933,1,2,0:0:0:0:
13,152,70227,1,2,0:0:0:0:
165,103,70815,1,8,0:2:0:0:
165,103,71110,1,8,0:2:0:0:
303,183,71698,6,0,B|394:195|369:128|467:140,1,160,12|8,0:1|0:0,0:0:0:0:
444,218,72580,1,0,0:0:0:0:
447,297,72874,2,0,P|413:290|362:293,1,79.9999999999999,8|2,0:1|0:0,0:0:0:0:
315,352,73462,2,0,P|281:359|230:356,1,79.9999999999999,8|2,0:0|0:0,0:0:0:0:
211,280,74051,6,0,B|179:260|179:260|54:265,1,160,8|8,0:1|0:0,0:0:0:0:
3,205,74933,1,2,0:0:0:0:
41,134,75227,2,0,L|128:133,1,79.9999999999999,8|2,0:1|0:0,0:0:0:0:
199,146,75815,1,14,0:0:0:0:
249,83,76110,1,2,0:0:0:0:
309,135,76404,6,0,P|374:176|459:157,1,160,12|8,0:1|0:0,0:0:0:0:
471,84,77286,1,2,0:0:0:0:
429,15,77580,2,0,P|389:9|351:19,1,79.9999999999999,8|2,0:1|0:0,0:0:0:0:
276,47,78168,2,0,P|236:52|198:42,1,79.9999999999999,8|2,0:0|0:0,0:0:0:0:
118,28,78757,5,8,0:1:0:0:
118,107,79051,1,0,0:0:0:0:
118,186,79345,1,12,0:0:0:0:
272,228,79933,1,8,0:0:0:0:
291,193,80080,2,0,P|331:177|372:182,1,79.9999999999999,8|0,0:0|0:0,0:0:0:0:
398,205,80521,1,12,0:0:0:0:
442,51,81110,5,12,0:1:0:0:
256,192,81257,12,2,86073,0:0:0:0:
