osu file format v14

[General]
AudioFilename: audio.mp3
AudioLeadIn: 0
PreviewTime: 42212
Countdown: 0
SampleSet: Soft
StackLeniency: 0.7
Mode: 0
LetterboxInBreaks: 0
WidescreenStoryboard: 1

[Editor]
Bookmarks: 5822,14058,15234,24646,31705,34058,38764,41117,43469,62293,66999,69352,71705,81117
DistanceSpacing: 1
BeatDivisor: 8
GridSize: 16
TimelineZoom: 2.599999

[Metadata]
Title:CheerS (TV Size)
TitleUnicode:CheerS (TV Size)
Artist:ClariS
ArtistUnicode:ClariS
Creator:hypercyte
Version:Easy
Source:はたらく細胞
Tags:cells at work work! hataraku saibou biology cyte cell seto kousuke
BeatmapID:1709821
BeatmapSetID:814145

[Difficulty]
HPDrainRate:2
CircleSize:3
OverallDifficulty:2
ApproachRate:3
SliderMultiplier:1.2
SliderTickRate:1

[Events]
//Background and Video events
0,0,"i spent waaay too long looking for a high res background lmao.png",0,0
//Break Periods
//Storyboard Layer 0 (Background)
//Storyboard Layer 1 (Fail)
//Storyboard Layer 2 (Pass)
//Storyboard Layer 3 (Foreground)
//Storyboard Sound Samples

[TimingPoints]
1119,588.235294117647,4,2,0,60,1,0
1119,-100,4,2,0,60,0,0
5236,-100,4,2,42,40,0,0
5824,-100,4,2,1,50,0,0
13471,577.478344562079,4,2,1,60,1,0
14048,592.300098716683,4,2,1,40,1,0
14048,-100,4,2,1,40,0,0
14640,-100,4,2,1,20,0,0
15232,588.235294117647,4,2,1,40,1,0
15232,-100,4,2,1,40,0,0
24643,-100,4,2,1,50,0,0
26408,570.884871550904,4,2,1,50,1,0
26978,593.002569677802,4,2,1,50,1,0
30536,588.235294117647,4,2,1,50,1,0
31712,585.365853658537,4,2,1,30,1,0
31712,-100,4,2,1,30,0,0
34053,588.235294117647,4,2,1,25,1,0
34053,-100,4,2,1,25,0,0
37582,628.272251308901,4,2,1,40,1,0
37582,-100,4,2,1,40,0,0
37896,588.235294117647,4,2,1,40,1,0
38190,-100,4,2,42,50,0,0
38778,583.373845405931,4,2,1,25,1,0
41111,587.371512481645,4,2,1,50,1,0
41112,-100,4,2,1,50,0,0
41700,-100,4,2,42,50,0,0
42288,-100,4,2,42,50,0,0
42876,-100,4,2,42,50,0,0
43460,-100,4,2,1,70,0,1
45809,588.235294117647,4,2,1,70,1,1
48750,-100,4,2,1,90,0,1
49339,-100,4,2,1,70,0,1
49927,-100,4,2,1,90,0,1
50515,-100,4,2,1,70,0,1
57573,-101.010101010101,4,2,1,70,0,0
57867,604.229607250755,4,2,1,70,1,0
58169,588.235294117647,4,2,1,80,1,0
58169,-100,4,2,1,80,0,0
58759,-100,4,2,1,50,0,0
59347,-100,4,2,1,80,0,0
59933,588.235294117647,4,2,1,50,1,0
59935,-100,4,2,1,50,0,0
60229,-100,4,2,1,50,0,0
61109,-100,4,2,1,70,0,1
62285,-100,4,2,1,42,0,0
66406,-100,4,2,42,42,0,0
66991,-100,4,2,1,50,0,1
69344,-100,4,2,1,30,0,0
71700,-100,4,2,1,60,0,0
81700,-100,4,2,1,50,0,0
82288,-100,4,2,1,40,0,0
82876,-100,4,2,1,30,0,0
83464,-100,4,2,1,20,0,0
84053,-100,4,2,1,10,0,0
84641,-100,4,2,1,5,0,0
85817,-100,4,2,1,15,0,0
86075,-100,4,2,1,30,0,0

[Colours]
Combo1 : 153,214,232
Combo2 : 245,169,118
Combo3 : 242,210,145

[HitObjects]
93,157,1119,6,0,B|198:123|228:203|335:155,1,240,2|2,0:0|0:0,0:0:0:0:
381,51,2883,1,8,0:0:0:0:
484,111,3471,1,2,0:0:0:0:
323,175,5236,1,10,0:0:0:0:
366,286,5824,6,0,P|310:296|239:282,1,120,12|8,0:1|0:0,0:0:0:0:
128,277,7001,2,0,P|138:218|128:159,1,120,8|8,0:1|0:0,0:0:0:0:
83,119,7883,1,2,0:0:0:0:
96,60,8177,2,0,B|160:28|215:52|215:52|287:89|349:49,1,240,8|8,0:1|0:1,0:0:0:0:
435,8,9942,1,8,0:1:0:0:
494,112,10530,6,0,P|462:127|408:202,1,120,8|8,0:1|0:0,0:0:0:0:
293,217,11707,2,0,L|162:194,1,120,8|8,0:1|0:0,0:0:0:0:
118,174,12589,1,2,0:0:0:0:
67,206,12883,2,0,P|54:258|76:324,1,120,8|8,0:1|0:0,0:0:0:0:
187,357,14048,2,0,L|307:340,1,120,2|12,0:0|0:0,0:0:0:0:
425,327,15232,6,0,P|435:268|395:194,1,120,12|0,0:1|0:0,0:0:0:0:
312,148,16408,2,0,P|256:169|198:159,1,120,2|0,0:0|0:0,0:0:0:0:
153,119,17290,1,8,0:1:0:0:
96,138,17584,2,0,P|70:184|76:263,1,120,8|0,0:1|0:0,0:0:0:0:
169,318,18761,2,0,L|310:294,1,120,2|0,0:0|0:0,0:0:0:0:
344,314,19643,1,8,0:1:0:0:
386,271,19937,6,0,B|406:185|406:185|377:126|377:126|401:28,1,240,8|8,0:1|0:1,0:0:0:0:
280,14,21702,1,0,0:0:0:0:
220,21,21996,1,8,0:1:0:0:
194,75,22290,2,0,L|206:261,1,180,8|8,0:1|0:1,0:0:0:0:
278,327,24643,6,0,P|337:331|389:304,1,120,12|8,0:1|0:1,0:0:0:0:
364,187,25820,2,0,P|304:184|249:207,1,120,8|8,0:1|0:1,0:0:0:0:
203,245,26693,1,8,0:1:0:0:
146,254,26978,2,0,B|109:151|186:126|148:18,1,240,8|8,0:1|0:1,0:0:0:0:
260,61,28757,1,8,0:1:0:0:
378,37,29350,6,0,P|377:90|372:165,1,120,8|8,0:1|0:1,0:0:0:0:
337,205,30239,1,8,0:1:0:0:
291,244,30536,2,0,P|291:297|297:372,1,120,8|8,0:1|0:1,0:0:0:0:
192,302,31712,2,0,P|100:302|7:312,2,180,8|8|8,0:2|0:1|0:2,0:0:0:0:
142,192,34053,6,0,P|145:127|285:45,1,240,4|8,0:2|0:2,0:0:0:0:
336,151,35817,1,0,0:0:0:0:
440,92,36405,2,0,B|480:213|396:215|429:338,1,240,8|8,0:1|0:2,0:0:0:0:
308,348,38190,1,8,0:0:0:0:
256,192,38778,12,8,41111,0:2:0:0:
357,253,43460,6,0,L|236:246,1,120,12|8,0:1|0:0,0:0:0:0:
205,194,44341,1,2,0:0:0:0:
171,144,44635,2,0,L|50:151,1,120,8|8,0:1|0:0,0:0:0:0:
14,265,45809,1,8,0:1:0:0:
108,339,46397,2,0,P|190:334|223:318,1,120,8|8,0:0|0:1,0:0:0:0:
248,263,47279,1,2,0:0:0:0:
281,213,47573,2,0,P|363:218|396:234,1,120,8|8,0:0|0:1,0:0:0:0:
461,334,48749,5,10,0:0:0:0:
344,360,49338,2,0,L|202:354,1,120,8|10,0:1|0:0,0:0:0:0:
166,369,50220,1,2,0:0:0:0:
110,349,50514,2,0,P|125:293|114:214,1,120,8|8,0:1|0:0,0:0:0:0:
162,119,51691,2,0,P|215:127|281:129,1,120,8|4,0:0|0:0,0:0:0:0:
323,86,52573,1,8,0:0:0:0:
362,40,52867,6,0,P|415:31|481:30,1,120,12|8,0:1|0:0,0:0:0:0:
476,150,54044,2,0,P|452:185|438:269,1,120,8|8,0:1|0:0,0:0:0:0:
418,317,54926,1,2,0:0:0:0:
358,310,55220,2,0,P|296:294|235:309,1,120,8|8,0:1|0:0,0:0:0:0:
168,210,56396,2,0,P|238:203|288:169,1,120,8|8,0:1|0:0,0:0:0:0:
396,195,57573,1,12,0:1:0:0:
397,73,58169,6,0,P|344:43|280:53,1,120,2|12,0:0|0:0,0:0:0:0:
197,129,59344,2,0,P|144:159|80:149,1,120,2|12,0:0|0:0,0:0:0:0:
121,37,60520,1,2,0:0:0:0:
240,22,61110,2,0,P|305:43|352:116,1,150,12|12,0:0|0:0,0:0:0:0:
343,199,62285,6,0,P|329:221|239:246,1,120,12|2,0:1|0:0,0:0:0:0:
202,203,63168,1,8,0:1:0:0:
142,209,63463,2,0,L|141:339,1,120,8|2,0:0|0:0,0:0:0:0:
35,271,64638,2,0,L|36:148,1,120,8|2,0:1|0:0,0:0:0:0:
68,100,65522,1,8,0:1:0:0:
125,116,65816,2,0,P|201:110|246:72,1,120,8|10,0:0|0:2,0:0:0:0:
288,192,66991,6,0,P|366:202|411:185,1,120,12|8,0:1|0:0,0:0:0:0:
450,151,67875,1,0,0:0:0:0:
505,174,68169,2,0,L|500:299,1,120,8|8,0:1|0:0,0:0:0:0:
398,357,69344,1,0,0:0:0:0:
116,25,71697,6,0,P|188:27|237:61,1,120,12|8,0:1|0:0,0:0:0:0:
314,134,72875,2,0,P|370:112|438:129,1,120,8|8,0:1|0:0,0:0:0:0:
469,166,73756,1,2,0:0:0:0:
471,225,74050,2,0,B|424:251|424:251|234:233,1,240,8|8,0:1|0:1,0:0:0:0:
151,150,75815,1,14,0:0:0:0:
41,200,76403,6,0,P|42:252|96:320,1,120,12|8,0:1|0:0,0:0:0:0:
198,331,77581,2,0,L|328:316,1,120,8|8,0:1|0:0,0:0:0:0:
344,264,78463,1,2,0:0:0:0:
383,218,78756,2,0,B|444:211|444:211|505:226,1,120,8|12,0:1|0:0,0:0:0:0:
452,114,79934,2,0,B|391:121|391:121|333:107,1,120,8|12,0:0|0:0,0:0:0:0:
232,43,81110,5,12,0:1:0:0:
256,192,81256,12,2,86072,0:0:0:0:
