osu file format v14

[General]
AudioFilename: audio.mp3
AudioLeadIn: 0
PreviewTime: 41955
Countdown: 0
SampleSet: Normal
StackLeniency: 0.7
Mode: 1
LetterboxInBreaks: 0
WidescreenStoryboard: 0

[Editor]
DistanceSpacing: 1.4
BeatDivisor: 4
GridSize: 32
TimelineZoom: 1.5

[Metadata]
Title:CheerS (TV Size)
TitleUnicode:CheerS (TV Size)
Artist:ClariS
ArtistUnicode:ClariS
Creator:davidminh0111
Version:Oni
Source:はたらく細胞
Tags:cells at work hataraku saibou biology cyte cell anime japanese ending ED Hayashi Kei 林慧 ハヤシケイ megane 毛蟹 Kegani LIVE LAB anone mix
BeatmapID:2249372
BeatmapSetID:1074929

[Difficulty]
HPDrainRate:5.5
CircleSize:2
OverallDifficulty:5
ApproachRate:10
SliderMultiplier:1.4
SliderTickRate:1

[Events]
//Background and Video events
0,0,"owo.jpg",0,-40
//Break Periods
//Storyboard Layer 0 (Background)
//Storyboard Layer 1 (Fail)
//Storyboard Layer 2 (Pass)
//Storyboard Layer 3 (Foreground)
//Storyboard Layer 4 (Overlay)
//Storyboard Sound Samples

[TimingPoints]
790,588.235294117647,4,1,0,60,1,0
3132,588.235294117647,4,1,0,70,1,0
3132,-100,4,1,0,70,0,0
5484,-90.9090909090909,4,1,0,80,0,0
14896,-95.2380952380952,4,1,0,75,0,0
24308,-90.9090909090909,4,1,0,80,0,0
29014,588.235294117647,4,1,0,80,1,8
29024,588.235294117647,4,1,0,80,1,0
29024,-90.9090909090909,4,1,0,80,0,0
33720,588.235294117647,4,1,0,75,1,0
33720,-95.2380952380952,4,1,0,75,0,0
38572,-95.2380952380952,4,1,0,65,0,0
40631,-95.2380952380952,4,1,0,80,0,0
43131,-83.3333333333333,4,1,0,85,0,1
45474,588.235294117647,4,1,0,85,1,1
45474,-83.3333333333333,4,1,0,85,0,1
52532,588.235294117647,4,1,0,85,1,9
52539,588.235294117647,4,1,0,85,1,1
52539,-83.3333333333333,4,1,0,85,0,1
57243,588.235294117647,4,1,0,85,1,1
57243,-83.3333333333333,4,1,0,85,0,1
59595,588.235294117647,4,1,0,85,1,9
59611,588.235294117647,4,1,0,85,1,1
59611,-83.3333333333333,4,1,0,85,0,1
61963,-95.2380952380952,4,1,0,80,0,0
66669,-95.2380952380952,4,1,0,85,0,1
69022,-95.2380952380952,4,1,0,75,0,0
71375,-86.9565217391304,4,1,0,85,0,0
73712,588.235294117647,4,1,0,85,1,0
73712,-86.9565217391304,4,1,0,85,0,0
76064,588.235294117647,4,1,0,85,1,8
76075,588.235294117647,4,1,0,85,1,0
76075,-86.9565217391304,4,1,0,85,0,0
80927,-100,4,1,0,65,0,0

[HitObjects]
256,192,790,5,8,0:0:0:0:
256,192,1084,1,0,0:0:0:0:
256,192,1378,1,8,0:0:0:0:
256,192,1966,1,0,0:0:0:0:
256,192,2260,1,0,0:0:0:0:
256,192,2554,1,8,0:0:0:0:
256,192,3132,1,0,0:0:0:0:
256,192,3426,1,0,0:0:0:0:
256,192,3720,1,8,0:0:0:0:
256,192,4014,1,0,0:0:0:0:
256,192,4602,1,8,0:0:0:0:
256,192,4896,1,8,0:0:0:0:
256,192,5484,1,4,0:0:0:0:
256,192,5779,1,8,0:0:0:0:
256,192,6073,1,8,0:0:0:0:
256,192,6661,1,0,0:0:0:0:
256,192,6955,1,8,0:0:0:0:
256,192,7249,1,8,0:0:0:0:
256,192,7396,1,8,0:0:0:0:
256,192,7543,1,0,0:0:0:0:
256,192,7837,1,0,0:0:0:0:
256,192,8131,1,8,0:0:0:0:
256,192,8426,1,8,0:0:0:0:
256,192,9014,1,8,0:0:0:0:
256,192,9161,1,8,0:0:0:0:
256,192,9308,1,0,0:0:0:0:
256,192,9602,1,8,0:0:0:0:
256,192,9749,1,0,0:0:0:0:
256,192,9896,1,8,0:0:0:0:
256,192,10190,1,0,0:0:0:0:
256,192,10484,1,8,0:0:0:0:
256,192,10779,1,8,0:0:0:0:
256,192,11367,1,0,0:0:0:0:
256,192,11661,1,8,0:0:0:0:
256,192,11955,1,8,0:0:0:0:
256,192,12102,1,8,0:0:0:0:
256,192,12249,1,0,0:0:0:0:
256,192,12543,1,0,0:0:0:0:
256,192,12837,1,8,0:0:0:0:
256,192,13131,1,8,0:0:0:0:
256,192,13426,1,0,0:0:0:0:
256,192,13573,1,0,0:0:0:0:
256,192,13720,1,8,0:0:0:0:
256,192,14014,1,8,0:0:0:0:
256,192,14308,1,12,0:0:0:0:
256,192,14896,1,4,0:0:0:0:
256,192,15337,1,0,0:0:0:0:
256,192,15484,1,8,0:0:0:0:
256,192,15926,1,8,0:0:0:0:
256,192,16073,1,0,0:0:0:0:
256,192,16367,1,0,0:0:0:0:
256,192,16661,1,8,0:0:0:0:
256,192,16955,1,0,0:0:0:0:
256,192,17249,1,0,0:0:0:0:
256,192,17543,1,0,0:0:0:0:
256,192,17837,1,8,0:0:0:0:
256,192,18131,1,8,0:0:0:0:
256,192,18426,1,0,0:0:0:0:
256,192,18720,1,8,0:0:0:0:
256,192,19308,1,0,0:0:0:0:
256,192,19602,1,0,0:0:0:0:
256,192,19896,1,0,0:0:0:0:
256,192,20190,1,8,0:0:0:0:
256,192,20484,1,0,0:0:0:0:
256,192,20778,1,0,0:0:0:0:
256,192,20926,1,8,0:0:0:0:
256,192,21073,1,0,0:0:0:0:
256,192,21367,1,8,0:0:0:0:
256,192,21661,1,0,0:0:0:0:
256,192,21955,1,0,0:0:0:0:
256,192,22249,1,0,0:0:0:0:
256,192,22543,1,8,0:0:0:0:
256,192,22837,1,4,0:0:0:0:
256,192,23426,1,8,0:0:0:0:
256,192,23720,1,8,0:0:0:0:
256,192,24308,1,4,0:0:0:0:
256,192,24602,1,0,0:0:0:0:
256,192,24749,1,8,0:0:0:0:
256,192,24896,1,0,0:0:0:0:
256,192,25190,1,0,0:0:0:0:
256,192,25337,1,8,0:0:0:0:
256,192,25484,1,0,0:0:0:0:
256,192,25705,1,0,0:0:0:0:
256,192,25926,1,0,0:0:0:0:
256,192,26073,1,8,0:0:0:0:
256,192,26367,1,8,0:0:0:0:
256,192,26514,1,8,0:0:0:0:
256,192,26661,1,0,0:0:0:0:
256,192,26955,1,0,0:0:0:0:
256,192,27249,1,8,0:0:0:0:
256,192,27543,1,0,0:0:0:0:
256,192,27690,1,0,0:0:0:0:
256,192,27837,1,8,0:0:0:0:
256,192,28131,1,8,0:0:0:0:
256,192,28720,1,8,0:0:0:0:
256,192,29024,1,0,0:0:0:0:
256,192,29318,1,0,0:0:0:0:
256,192,29465,1,0,0:0:0:0:
256,192,29612,1,8,0:0:0:0:
256,192,29906,1,8,0:0:0:0:
256,192,30053,1,8,0:0:0:0:
256,192,30200,1,0,0:0:0:0:
256,192,30347,1,0,0:0:0:0:
256,192,30494,1,0,0:0:0:0:
256,192,30788,1,8,0:0:0:0:
256,192,31082,1,8,0:0:0:0:
256,192,31376,1,4,0:0:0:0:
256,192,31671,1,4,0:0:0:0:
256,192,31965,1,12,0:0:0:0:
256,192,32259,1,4,0:0:0:0:
256,192,32847,1,12,0:0:0:0:
256,192,33141,1,12,0:0:0:0:
256,192,33720,1,4,0:0:0:0:
256,192,34014,1,8,0:0:0:0:
256,192,34161,1,0,0:0:0:0:
256,192,34308,1,8,0:0:0:0:
256,192,34602,1,0,0:0:0:0:
256,192,34749,1,8,0:0:0:0:
256,192,34896,1,0,0:0:0:0:
256,192,35043,1,0,0:0:0:0:
256,192,35190,1,8,0:0:0:0:
256,192,35483,1,0,0:0:0:0:
256,192,35631,1,0,0:0:0:0:
256,192,35777,1,8,0:0:0:0:
256,192,36072,1,0,0:0:0:0:
256,192,36366,1,8,0:0:0:0:
256,192,36513,1,8,0:0:0:0:
256,192,36660,1,0,0:0:0:0:
256,192,36954,1,0,0:0:0:0:
256,192,37101,1,8,0:0:0:0:
256,192,37248,1,8,0:0:0:0:
256,192,37395,1,0,0:0:0:0:
256,192,37542,1,8,0:0:0:0:
256,192,37836,1,8,0:0:0:0:
256,192,37983,1,8,0:0:0:0:
256,192,38130,1,0,0:0:0:0:
256,192,38425,1,12,0:0:0:0:
256,192,39014,1,0,0:0:0:0:
256,192,39602,1,8,0:0:0:0:
256,192,39896,1,8,0:0:0:0:
256,192,40190,1,0,0:0:0:0:
256,192,40778,1,12,0:0:0:0:
256,192,41073,1,12,0:0:0:0:
256,192,41367,1,12,0:0:0:0:
256,192,41955,1,8,0:0:0:0:
256,192,42249,1,8,0:0:0:0:
256,192,42543,1,0,0:0:0:0:
256,192,42837,1,8,0:0:0:0:
256,192,43131,1,4,0:0:0:0:
256,192,43720,1,8,0:0:0:0:
256,192,44014,1,0,0:0:0:0:
256,192,44161,1,8,0:0:0:0:
256,192,44308,1,0,0:0:0:0:
256,192,44602,1,0,0:0:0:0:
256,192,44896,1,8,0:0:0:0:
256,192,45190,1,8,0:0:0:0:
256,192,45337,1,8,0:0:0:0:
256,192,45474,1,0,0:0:0:0:
256,192,45768,1,0,0:0:0:0:
256,192,46062,1,8,0:0:0:0:
256,192,46356,1,8,0:0:0:0:
256,192,46503,1,0,0:0:0:0:
256,192,46650,1,8,0:0:0:0:
256,192,46944,1,0,0:0:0:0:
256,192,47238,1,8,0:0:0:0:
256,192,47532,1,8,0:0:0:0:
256,192,47679,1,0,0:0:0:0:
256,192,47826,1,0,0:0:0:0:
256,192,48121,1,0,0:0:0:0:
256,192,48415,1,8,0:0:0:0:
256,192,48709,1,8,0:0:0:0:
256,192,48856,1,8,0:0:0:0:
256,192,49003,1,0,0:0:0:0:
256,192,49297,1,0,0:0:0:0:
256,192,49591,1,8,0:0:0:0:
256,192,49885,1,8,0:0:0:0:
256,192,50032,1,8,0:0:0:0:
256,192,50179,1,0,0:0:0:0:
256,192,50474,1,8,0:0:0:0:
256,192,50621,1,0,0:0:0:0:
256,192,50768,1,0,0:0:0:0:
256,192,51062,1,0,0:0:0:0:
256,192,51356,1,8,0:0:0:0:
256,192,51503,1,8,0:0:0:0:
256,192,51650,1,8,0:0:0:0:
256,192,51944,1,0,0:0:0:0:
256,192,52238,1,8,0:0:0:0:
256,192,52385,1,8,0:0:0:0:
256,192,52539,1,4,0:0:0:0:
256,192,53126,1,8,0:0:0:0:
256,192,53421,1,0,0:0:0:0:
256,192,53568,1,0,0:0:0:0:
256,192,53715,1,8,0:0:0:0:
256,192,54009,1,0,0:0:0:0:
256,192,54303,1,8,0:0:0:0:
256,192,54597,1,0,0:0:0:0:
256,192,54744,1,8,0:0:0:0:
256,192,54891,1,0,0:0:0:0:
256,192,55185,1,0,0:0:0:0:
256,192,55479,1,8,0:0:0:0:
256,192,55773,1,0,0:0:0:0:
256,192,55921,1,8,0:0:0:0:
256,192,56068,1,0,0:0:0:0:
256,192,56362,1,0,0:0:0:0:
256,192,56656,1,8,0:0:0:0:
256,192,56803,1,0,0:0:0:0:
256,192,56950,1,8,0:0:0:0:
256,192,57097,1,8,0:0:0:0:
256,192,57244,1,4,0:0:0:0:
256,192,57537,1,0,0:0:0:0:
256,192,57831,1,8,0:0:0:0:
256,192,58125,1,0,0:0:0:0:
256,192,58419,1,4,0:0:0:0:
256,192,58713,1,0,0:0:0:0:
256,192,59007,1,8,0:0:0:0:
256,192,59301,1,0,0:0:0:0:
256,192,59611,1,4,0:0:0:0:
256,192,59905,1,8,0:0:0:0:
256,192,60052,1,0,0:0:0:0:
256,192,60199,1,0,0:0:0:0:
256,192,60493,1,0,0:0:0:0:
256,192,60787,1,12,0:0:0:0:
256,192,61228,1,12,0:0:0:0:
256,192,61522,1,12,0:0:0:0:
256,192,61963,1,4,0:0:0:0:
256,192,62404,1,8,0:0:0:0:
256,192,62551,1,0,0:0:0:0:
256,192,62845,1,0,0:0:0:0:
256,192,62992,1,8,0:0:0:0:
256,192,63139,1,0,0:0:0:0:
256,192,63434,1,0,0:0:0:0:
256,192,63728,1,8,0:0:0:0:
256,192,64022,1,0,0:0:0:0:
256,192,64316,1,0,0:0:0:0:
256,192,64610,1,8,0:0:0:0:
256,192,64904,1,0,0:0:0:0:
256,192,65198,1,0,0:0:0:0:
256,192,65345,1,0,0:0:0:0:
256,192,65492,1,8,0:0:0:0:
256,192,65786,1,0,0:0:0:0:
256,192,66081,1,8,0:0:0:0:
256,192,66228,1,8,0:0:0:0:
256,192,66375,1,0,0:0:0:0:
256,192,66522,1,0,0:0:0:0:
256,192,66669,1,8,0:0:0:0:
256,192,66963,1,0,0:0:0:0:
256,192,67110,1,0,0:0:0:0:
256,192,67257,1,8,0:0:0:0:
256,192,67551,1,0,0:0:0:0:
256,192,67698,1,8,0:0:0:0:
256,192,67845,1,0,0:0:0:0:
256,192,67992,1,0,0:0:0:0:
256,192,68139,1,8,0:0:0:0:
256,192,68434,1,0,0:0:0:0:
256,192,68728,1,8,0:0:0:0:
256,192,68875,1,8,0:0:0:0:
256,192,69022,1,0,0:0:0:0:
256,192,69316,1,8,0:0:0:0:
256,192,69611,1,8,0:0:0:0:
256,192,69905,1,0,0:0:0:0:
256,192,70493,1,8,0:0:0:0:
256,192,70787,1,8,0:0:0:0:
256,192,71375,1,4,0:0:0:0:
256,192,71669,1,8,0:0:0:0:
256,192,71963,1,8,0:0:0:0:
256,192,72111,1,0,0:0:0:0:
256,192,72258,1,8,0:0:0:0:
256,192,72552,1,0,0:0:0:0:
256,192,72846,1,8,0:0:0:0:
256,192,73140,1,8,0:0:0:0:
256,192,73287,1,8,0:0:0:0:
256,192,73434,1,0,0:0:0:0:
256,192,73712,1,0,0:0:0:0:
256,192,74006,1,8,0:0:0:0:
256,192,74300,1,8,0:0:0:0:
256,192,74594,1,0,0:0:0:0:
256,192,74888,1,8,0:0:0:0:
256,192,75035,1,8,0:0:0:0:
256,192,75182,1,0,0:0:0:0:
256,192,75476,1,8,0:0:0:0:
256,192,75623,1,0,0:0:0:0:
256,192,75770,1,8,0:0:0:0:
256,192,76075,1,4,0:0:0:0:
256,192,76369,1,8,0:0:0:0:
256,192,76663,1,8,0:0:0:0:
256,192,76810,1,0,0:0:0:0:
256,192,76957,1,8,0:0:0:0:
256,192,77251,1,0,0:0:0:0:
256,192,77545,1,8,0:0:0:0:
256,192,77839,1,8,0:0:0:0:
256,192,77986,1,8,0:0:0:0:
256,192,78133,1,0,0:0:0:0:
256,192,78428,1,0,0:0:0:0:
256,192,78722,1,8,0:0:0:0:
256,192,79016,1,8,0:0:0:0:
256,192,79310,1,0,0:0:0:0:
256,192,79457,1,0,0:0:0:0:
256,192,79604,1,8,0:0:0:0:
256,192,79751,1,0,0:0:0:0:
256,192,79898,1,8,0:0:0:0:
256,192,80192,1,8,0:0:0:0:
256,192,80780,1,4,0:0:0:0:
256,192,81369,1,0,0:0:0:0:
256,192,81826,1,8,0:0:0:0:
256,192,82251,1,8,0:0:0:0:
256,192,82545,1,0,0:0:0:0:
256,192,82839,1,0,0:0:0:0:
256,192,83133,1,8,0:0:0:0:
256,192,83722,1,8,0:0:0:0:
256,192,84212,1,0,0:0:0:0:
256,192,84604,1,8,0:0:0:0:
256,192,84898,1,0,0:0:0:0:
256,192,85192,1,0,0:0:0:0:
256,192,85486,1,8,0:0:0:0:
