osu file format v14

[General]
AudioFilename: audio.mp3
AudioLeadIn: 0
PreviewTime: 41955
Countdown: 0
SampleSet: Normal
StackLeniency: 0.7
Mode: 1
LetterboxInBreaks: 0
WidescreenStoryboard: 0

[Editor]
DistanceSpacing: 1.4
BeatDivisor: 9
GridSize: 32
TimelineZoom: 1.5

[Metadata]
Title:CheerS (TV Size)
TitleUnicode:CheerS (TV Size)
Artist:ClariS
ArtistUnicode:ClariS
Creator:davidminh0111
Version:Futsuu
Source:はたらく細胞
Tags:cells at work hataraku saibou biology cyte cell anime japanese ending ED Hayashi Kei 林慧 ハヤシケイ megane 毛蟹 Kegani LIVE LAB anone mix
BeatmapID:2249369
BeatmapSetID:1074929

[Difficulty]
HPDrainRate:7
CircleSize:2
OverallDifficulty:3
ApproachRate:10
SliderMultiplier:1.4
SliderTickRate:1

[Events]
//Background and Video events
0,0,"owo.jpg",0,-40
//Break Periods
//Storyboard Layer 0 (Background)
//Storyboard Layer 1 (Fail)
//Storyboard Layer 2 (Pass)
//Storyboard Layer 3 (Foreground)
//Storyboard Layer 4 (Overlay)
//Storyboard Sound Samples

[TimingPoints]
790,588.235294117647,4,1,0,60,1,0
3132,588.235294117647,4,1,0,70,1,0
3132,-100,4,1,0,70,0,0
5484,-100,4,1,0,80,0,0
14896,-100,4,1,0,75,0,0
24308,-100,4,1,0,80,0,0
29014,588.235294117647,4,1,0,80,1,8
29024,588.235294117647,4,1,0,80,1,0
33720,588.235294117647,4,1,0,75,1,0
33720,-100,4,1,0,75,0,0
38572,-100,4,1,0,65,0,0
40631,-100,4,1,0,80,0,0
43131,-100,4,1,0,85,0,1
45474,588.235294117647,4,1,0,85,1,1
52532,588.235294117647,4,1,0,85,1,9
52539,588.235294117647,4,1,0,85,1,1
57243,588.235294117647,4,1,0,85,1,1
59595,588.235294117647,4,1,0,85,1,9
59611,588.235294117647,4,1,0,85,1,1
61963,-100,4,1,0,80,0,0
66669,-100,4,1,0,85,0,1
69022,-100,4,1,0,75,0,0
71375,-100,4,1,0,85,0,0
73712,588.235294117647,4,1,0,85,1,0
76064,588.235294117647,4,1,0,85,1,8
76075,588.235294117647,4,1,0,85,1,0
80927,-100,4,1,0,65,0,0

[HitObjects]
256,192,790,5,8,0:0:0:0:
256,192,1378,1,8,0:0:0:0:
256,192,1966,1,0,0:0:0:0:
256,192,3132,1,0,0:0:0:0:
256,192,3720,1,0,0:0:0:0:
256,192,4014,1,0,0:0:0:0:
256,192,4602,1,8,0:0:0:0:
256,192,4896,1,8,0:0:0:0:
256,192,5484,1,4,0:0:0:0:
256,192,6073,1,8,0:0:0:0:
256,192,6661,1,0,0:0:0:0:
256,192,6955,1,0,0:0:0:0:
256,192,7249,1,8,0:0:0:0:
256,192,7837,1,0,0:0:0:0:
256,192,8426,1,8,0:0:0:0:
256,192,9014,1,8,0:0:0:0:
256,192,9308,1,8,0:0:0:0:
256,192,9602,1,0,0:0:0:0:
256,192,10190,1,0,0:0:0:0:
256,192,10778,1,8,0:0:0:0:
256,192,11367,1,0,0:0:0:0:
256,192,11661,1,0,0:0:0:0:
256,192,11955,1,8,0:0:0:0:
256,192,12543,1,0,0:0:0:0:
256,192,13131,1,8,0:0:0:0:
256,192,13720,1,8,0:0:0:0:
256,192,14014,1,8,0:0:0:0:
256,192,14308,1,12,0:0:0:0:
256,192,14896,1,4,0:0:0:0:
256,192,15484,1,8,0:0:0:0:
256,192,16073,1,0,0:0:0:0:
256,192,16955,1,0,0:0:0:0:
256,192,17249,1,0,0:0:0:0:
256,192,17837,1,8,0:0:0:0:
256,192,18426,1,8,0:0:0:0:
256,192,18720,1,0,0:0:0:0:
256,192,19308,1,0,0:0:0:0:
256,192,19602,1,0,0:0:0:0:
256,192,20484,1,0,0:0:0:0:
256,192,20778,1,0,0:0:0:0:
256,192,21661,1,0,0:0:0:0:
256,192,21955,1,0,0:0:0:0:
256,192,22543,1,8,0:0:0:0:
256,192,22837,1,4,0:0:0:0:
256,192,23426,1,8,0:0:0:0:
256,192,23720,1,8,0:0:0:0:
256,192,24308,1,4,0:0:0:0:
256,192,24896,1,0,0:0:0:0:
256,192,25484,1,0,0:0:0:0:
256,192,25778,1,0,0:0:0:0:
256,192,26073,1,8,0:0:0:0:
256,192,26661,1,0,0:0:0:0:
256,192,27249,1,8,0:0:0:0:
256,192,27837,1,0,0:0:0:0:
256,192,29024,1,0,0:0:0:0:
256,192,29612,1,8,0:0:0:0:
256,192,30200,1,0,0:0:0:0:
256,192,30494,1,0,0:0:0:0:
256,192,30788,1,8,0:0:0:0:
256,192,31377,1,4,0:0:0:0:
256,192,31965,1,12,0:0:0:0:
256,192,32259,1,4,0:0:0:0:
256,192,32847,1,12,0:0:0:0:
256,192,33141,1,12,0:0:0:0:
256,192,33720,1,4,0:0:0:0:
256,192,34308,1,0,0:0:0:0:
256,192,34896,1,0,0:0:0:0:
256,192,35190,1,8,0:0:0:0:
256,192,35778,1,8,0:0:0:0:
256,192,36073,1,0,0:0:0:0:
256,192,36661,1,8,0:0:0:0:
256,192,37249,1,8,0:0:0:0:
256,192,37543,1,0,0:0:0:0:
256,192,38131,1,0,0:0:0:0:
256,192,38425,1,12,0:0:0:0:
256,192,39602,1,8,0:0:0:0:
256,192,40778,1,12,0:0:0:0:
256,192,41367,1,12,0:0:0:0:
256,192,43131,1,4,0:0:0:0:
256,192,43720,1,8,0:0:0:0:
256,192,44308,1,0,0:0:0:0:
256,192,44602,1,0,0:0:0:0:
256,192,44896,1,8,0:0:0:0:
256,192,45190,1,8,0:0:0:0:
256,192,45474,1,0,0:0:0:0:
256,192,46062,1,8,0:0:0:0:
256,192,46650,1,0,0:0:0:0:
256,192,46944,1,0,0:0:0:0:
256,192,47238,1,8,0:0:0:0:
256,192,47826,1,0,0:0:0:0:
256,192,48415,1,8,0:0:0:0:
256,192,49003,1,0,0:0:0:0:
256,192,49591,1,8,0:0:0:0:
256,192,50179,1,0,0:0:0:0:
256,192,50767,1,0,0:0:0:0:
256,192,51356,1,8,0:0:0:0:
256,192,52539,1,4,0:0:0:0:
256,192,53126,1,8,0:0:0:0:
256,192,53715,1,0,0:0:0:0:
256,192,54009,1,0,0:0:0:0:
256,192,54303,1,8,0:0:0:0:
256,192,54597,1,8,0:0:0:0:
256,192,54891,1,0,0:0:0:0:
256,192,55479,1,8,0:0:0:0:
256,192,56068,1,8,0:0:0:0:
256,192,56362,1,8,0:0:0:0:
256,192,56656,1,0,0:0:0:0:
256,192,57244,1,4,0:0:0:0:
256,192,57831,1,8,0:0:0:0:
256,192,58419,1,4,0:0:0:0:
256,192,59007,1,8,0:0:0:0:
256,192,59611,1,4,0:0:0:0:
256,192,60199,1,0,0:0:0:0:
256,192,60787,1,12,0:0:0:0:
256,192,61963,1,4,0:0:0:0:
256,192,62846,1,0,0:0:0:0:
256,192,63140,1,0,0:0:0:0:
256,192,64022,1,0,0:0:0:0:
256,192,64316,1,0,0:0:0:0:
256,192,64905,1,8,0:0:0:0:
256,192,65199,1,0,0:0:0:0:
256,192,65493,1,8,0:0:0:0:
256,192,65787,1,8,0:0:0:0:
256,192,66669,1,4,0:0:0:0:
256,192,67258,1,8,0:0:0:0:
256,192,67846,1,0,0:0:0:0:
256,192,68140,1,0,0:0:0:0:
256,192,68434,1,8,0:0:0:0:
256,192,69022,1,0,0:0:0:0:
256,192,69611,1,8,0:0:0:0:
256,192,69905,1,0,0:0:0:0:
256,192,70493,1,8,0:0:0:0:
256,192,70787,1,8,0:0:0:0:
256,192,71375,1,4,0:0:0:0:
256,192,71963,1,8,0:0:0:0:
256,192,72552,1,0,0:0:0:0:
256,192,72846,1,0,0:0:0:0:
256,192,73140,1,8,0:0:0:0:
256,192,73712,1,0,0:0:0:0:
256,192,74300,1,8,0:0:0:0:
256,192,74888,1,8,0:0:0:0:
256,192,75182,1,8,0:0:0:0:
256,192,75476,1,0,0:0:0:0:
256,192,75770,1,8,0:0:0:0:
256,192,76075,1,4,0:0:0:0:
256,192,76663,1,8,0:0:0:0:
256,192,77251,1,0,0:0:0:0:
256,192,77545,1,0,0:0:0:0:
256,192,77839,1,8,0:0:0:0:
256,192,78427,1,0,0:0:0:0:
256,192,79016,1,8,0:0:0:0:
256,192,79604,1,8,0:0:0:0:
256,192,79898,1,8,0:0:0:0:
256,192,80192,1,8,0:0:0:0:
256,192,80780,1,4,0:0:0:0:
256,192,81369,1,0,0:0:0:0:
256,192,82251,1,0,0:0:0:0:
256,192,82545,1,0,0:0:0:0:
256,192,83133,1,0,0:0:0:0:
256,192,83722,1,8,0:0:0:0:
256,192,84604,1,8,0:0:0:0:
256,192,84898,1,8,0:0:0:0:
256,192,85486,1,8,0:0:0:0:
