osu file format v14

[General]
AudioFilename: audio.mp3
AudioLeadIn: 0
PreviewTime: 41966
Countdown: 0
SampleSet: Soft
StackLeniency: 0.7
Mode: 3
LetterboxInBreaks: 0
SpecialStyle: 0
WidescreenStoryboard: 1

[Editor]
Bookmarks: 72871
DistanceSpacing: 0.7
BeatDivisor: 4
GridSize: 8
TimelineZoom: 1.8

[Metadata]
Title:CheerS (TV Size)
TitleUnicode:CheerS (TV Size)
Artist:ClariS
ArtistUnicode:ClariS
Creator:Savageeeee
Version:Easy
Source:はたらく細胞
Tags:ml-ysg jpop j-pop pop Karin- hataraku saibou saibo cells at work biology cyte cell anime japanese ending ED Hayashi Kei 林慧 ハヤシケイ megane 毛蟹 Kegani LIVE LAB
BeatmapID:4509965
BeatmapSetID:2142337

[Difficulty]
HPDrainRate:7
CircleSize:4
OverallDifficulty:7
ApproachRate:5
SliderMultiplier:1.4
SliderTickRate:1

[Events]
//Background and Video events
0,0,"bg.jpg",0,0
//Break Periods
//Storyboard Layer 0 (Background)
//Storyboard Layer 1 (Fail)
//Storyboard Layer 2 (Pass)
//Storyboard Layer 3 (Foreground)
//Storyboard Layer 4 (Overlay)
//Storyboard Sound Samples
Sample,12554,0,"Hat Open.wav",60
Sample,19319,0,"Hat Open.wav",25
Sample,24907,0,"Snare.wav",30
Sample,26084,0,"Snare.wav",30
Sample,27848,0,"Snare.wav",30
Sample,28437,0,"Snare.wav",30
Sample,29613,0,"Snare.wav",30
Sample,32848,0,"Tom2.wav",50
Sample,33142,0,"Splash.wav",50
Sample,37848,0,"Hat Open.wav",60
Sample,40789,0,"Tom3.wav",50
Sample,41084,0,"Tom3.wav",50
Sample,61231,0,"Hat Open.wav",60
Sample,66084,0,"Hat Open.wav",60

[TimingPoints]
786,588.235294117647,4,2,1,50,1,0
43138,-100,4,2,1,50,0,1
61962,-100,4,2,1,50,0,0
71374,-100,4,2,1,50,0,1
80785,-100,4,2,1,50,0,0

[HitObjects]
320,192,491,5,0,0:0:0:0:
64,192,786,1,0,0:0:0:0:
448,192,786,128,0,1374:0:0:0:0:
192,192,1374,128,0,1962:0:0:0:0:
320,192,1962,128,0,2550:0:0:0:0:
64,192,2550,128,0,3138:0:0:0:0:
448,192,3138,1,0,0:0:0:0:
192,192,3433,1,0,0:0:0:0:
320,192,3727,1,0,0:0:0:0:
64,192,4021,1,0,0:0:0:0:
192,192,4609,1,2,0:0:0:0:
320,192,4903,128,0,5491:0:0:0:40:Hat Snare.wav
64,192,5491,1,2,0:0:0:0:
448,192,5491,1,4,0:0:0:0:
192,192,5785,1,0,0:0:0:0:
320,192,6080,128,10,6668:0:0:0:0:
192,192,6668,128,2,7256:0:0:0:0:
64,192,7256,128,10,7844:0:0:0:0:
448,192,7844,1,2,0:0:0:0:
320,192,8138,1,0,0:0:0:60:Hat Open.wav
192,192,8433,128,10,9021:0:0:0:0:
320,192,9021,128,2,9609:0:0:0:0:
448,192,9609,128,10,10197:0:0:0:0:
64,192,10197,1,2,0:0:0:0:
192,192,10491,1,0,0:0:0:60:Hat Open.wav
320,192,10785,128,10,11374:0:0:0:0:
64,192,11374,128,2,11962:0:0:0:0:
448,192,11962,128,10,12550:0:0:0:0:
64,192,12550,1,2,0:0:0:0:
192,192,12844,1,8,0:0:0:0:
320,192,13138,1,8,0:0:0:0:
64,192,13727,1,2,0:0:0:0:
448,192,14021,1,2,0:0:0:0:
64,192,14315,1,4,0:0:0:0:
192,192,14315,128,8,14903:0:0:0:0:
320,192,14903,1,2,0:0:0:0:
448,192,14903,1,4,0:0:0:0:
448,192,15491,1,0,0:0:0:30:Hat Close.wav
448,192,16080,1,0,0:0:0:30:Hat Close.wav
448,192,16668,1,0,0:0:0:30:Hat Close.wav
320,192,16962,1,2,0:0:0:0:
64,192,17256,1,2,0:0:0:0:
192,192,17256,1,0,0:0:0:0:
64,192,17844,1,0,0:0:0:30:Hat Close.wav
64,192,18433,1,0,0:0:0:30:Hat Close.wav
64,192,19021,1,0,0:0:0:30:Hat Close.wav
192,192,19315,1,2,0:0:0:0:
320,192,19609,1,2,0:0:0:0:
448,192,19609,1,0,0:0:0:0:
320,192,20197,1,0,0:0:0:30:Hat Close.wav
64,192,20491,1,2,0:0:0:0:
192,192,20785,1,2,0:0:0:0:
448,192,20785,1,0,0:0:0:0:
192,192,21374,1,0,0:0:0:30:Hat Close.wav
320,192,21668,1,2,0:0:0:0:
64,192,21962,1,2,0:0:0:0:
448,192,21962,1,0,0:0:0:0:
320,192,22256,1,0,0:0:0:0:
192,192,22550,1,0,0:0:0:0:
64,192,22844,1,2,0:0:0:0:
448,192,22844,1,0,0:0:0:40:Hat Open.wav
192,192,23433,1,0,0:0:0:30:Hat Close.wav
320,192,23727,128,0,24315:0:0:0:25:Splash.wav
64,192,24315,1,4,0:0:0:0:
448,192,24315,1,2,0:0:0:0:
192,192,24903,1,2,0:0:0:0:
64,192,25491,1,2,0:0:0:0:
320,192,26080,1,2,0:0:0:0:
192,192,26374,1,0,0:0:0:30:Snare.wav
320,192,26668,1,2,0:0:0:0:
448,192,26668,1,0,0:0:0:0:
64,192,27256,1,2,0:0:0:0:
448,192,27844,1,2,0:0:0:0:
192,192,28433,1,2,0:0:0:0:
320,192,28727,1,0,0:0:0:30:Snare.wav
64,192,29021,1,2,0:0:0:0:
192,192,29021,1,0,0:0:0:0:
448,192,29609,1,2,0:0:0:0:
64,192,29903,1,0,0:0:0:30:Snare.wav
320,192,30197,1,2,0:0:0:0:
448,192,30197,1,0,0:0:0:0:
192,192,30785,1,2,0:0:0:0:
320,192,31080,1,0,0:0:0:30:Snare.wav
64,192,31374,128,8,31962:0:0:0:0:
192,192,31374,1,0,0:0:0:0:
320,192,31962,1,8,0:0:0:0:
64,192,32256,1,2,0:0:0:0:
448,192,32256,1,0,0:0:0:60:Hat Open.wav
192,192,32844,1,8,0:0:0:0:
320,192,33138,128,8,33727:0:0:0:0:
64,192,33727,1,4,0:0:0:0:
448,192,33727,1,2,0:0:0:0:
448,192,34315,1,0,0:0:0:30:Hat Close.wav
192,192,34609,1,2,0:0:0:0:
64,192,34903,1,8,0:0:0:0:
320,192,34903,1,0,0:0:0:30:Hat Close.wav
64,192,35491,1,0,0:0:0:30:Hat Close.wav
448,192,35785,1,2,0:0:0:0:
192,192,36080,1,2,0:0:0:0:
320,192,36080,1,0,0:0:0:30:Hat Close.wav
192,192,36668,1,0,0:0:0:30:Hat Close.wav
448,192,36962,1,2,0:0:0:0:
64,192,37256,1,8,0:0:0:0:
320,192,37256,1,0,0:0:0:30:Hat Close.wav
320,192,37844,1,8,0:0:0:0:
192,192,38138,1,0,0:0:0:50:Tom2.wav
64,192,38433,128,4,39609:0:0:0:0:
448,192,38433,1,2,0:0:0:0:
448,192,39609,128,0,40785:0:0:0:0:
64,192,40785,1,8,0:0:0:0:
192,192,41080,1,8,0:0:0:0:
320,192,41374,1,8,0:0:0:0:
448,192,41374,1,0,0:0:0:60:Hat Open.wav
320,192,41962,128,0,42550:0:0:0:0:
192,192,42550,128,0,43138:0:0:0:0:
64,192,43138,1,2,0:0:0:0:
448,192,43138,128,4,43727:0:0:0:0:
64,192,43727,1,10,0:0:0:0:
320,192,44021,1,0,0:0:0:60:Hat Open.wav
192,192,44315,128,2,44903:0:0:0:0:
448,192,44903,1,10,0:0:0:0:
320,192,45197,1,0,0:0:0:60:Hat Open.wav
64,192,45491,128,2,46080:0:0:0:0:
448,192,46080,1,10,0:0:0:0:
192,192,46374,1,0,0:0:0:60:Hat Open.wav
320,192,46668,128,2,47256:0:0:0:0:
64,192,47256,1,10,0:0:0:0:
192,192,47550,1,0,0:0:0:60:Hat Open.wav
448,192,47844,128,2,48433:0:0:0:0:
64,192,48433,1,10,0:0:0:0:
320,192,48727,1,0,0:0:0:60:Hat Open.wav
192,192,49021,128,2,49609:0:0:0:0:
448,192,49609,1,10,0:0:0:0:
64,192,49903,1,0,0:0:0:60:Hat Open.wav
320,192,50197,128,2,50785:0:0:0:0:
192,192,50785,1,10,0:0:0:0:
448,192,51080,1,0,0:0:0:60:Hat Open.wav
64,192,51374,128,2,51962:0:0:0:0:
448,192,51962,128,14,52550:0:0:0:0:
64,192,52550,1,4,0:0:0:0:
192,192,52550,1,2,0:0:0:0:
320,192,53138,1,10,0:0:0:0:
192,192,53433,1,0,0:0:0:60:Hat Open.wav
64,192,53727,128,2,54315:0:0:0:0:
448,192,54315,1,10,0:0:0:0:
192,192,54609,1,0,0:0:0:60:Hat Open.wav
320,192,54903,128,2,55491:0:0:0:0:
64,192,55491,1,10,0:0:0:0:
192,192,55785,1,0,0:0:0:60:Hat Open.wav
448,192,56080,128,2,56668:0:0:0:0:
64,192,56668,128,10,57256:0:0:0:0:
320,192,57256,128,6,58138:0:0:0:0:
192,192,58138,1,2,0:0:0:0:
64,192,58433,128,8,59315:0:0:0:0:
448,192,58433,1,4,0:0:0:0:
192,192,59315,1,2,0:0:0:0:
320,192,59609,1,2,0:0:0:0:
448,192,59609,128,4,60491:0:0:0:0:
192,192,60491,1,2,0:0:0:0:
64,192,60785,1,8,0:0:0:0:
320,192,60785,1,4,0:0:0:0:
448,192,61227,1,2,0:0:0:0:
192,192,61521,1,6,0:0:0:0:
64,192,61962,1,2,0:0:0:0:
448,192,61962,1,4,0:0:0:0:
448,192,62550,1,0,0:0:0:30:Hat Close.wav
320,192,62844,1,2,0:0:0:0:
64,192,63138,1,8,0:0:0:0:
192,192,63138,1,0,0:0:0:30:Hat Close.wav
192,192,63727,1,0,0:0:0:30:Hat Close.wav
448,192,64021,1,2,0:0:0:0:
64,192,64315,1,2,0:0:0:0:
320,192,64315,1,0,0:0:0:30:Hat Close.wav
64,192,64903,1,0,0:0:0:30:Hat Close.wav
192,192,65197,1,2,0:0:0:0:
320,192,65491,1,8,0:0:0:0:
448,192,65491,1,0,0:0:0:30:Hat Close.wav
64,192,65785,1,2,0:0:0:0:
320,192,66080,128,8,66668:0:0:0:0:
64,192,66668,1,4,0:0:0:0:
448,192,66668,128,2,67256:0:0:0:0:
192,192,67256,128,2,67844:0:0:0:0:
320,192,67844,1,2,0:0:0:0:
64,192,68138,1,0,0:0:0:60:Hat Open.wav
448,192,68433,128,2,69021:0:0:0:0:
64,192,69021,1,2,0:0:0:0:
192,192,69021,1,0,0:0:0:0:
320,192,69315,1,0,0:0:0:0:
192,192,69609,1,0,0:0:0:0:
448,192,69903,1,0,0:0:0:0:
320,192,70491,1,0,0:0:0:40:Hat Snare.wav
192,192,70785,128,0,71374:0:0:0:40:Hat Snare.wav
64,192,71374,1,4,0:0:0:0:
448,192,71374,1,2,0:0:0:0:
320,192,71668,1,0,0:0:0:0:
192,192,71962,128,10,72550:0:0:0:0:
320,192,72550,128,2,73138:0:0:0:0:
448,192,73138,128,10,73727:0:0:0:0:
64,192,73727,1,2,0:0:0:0:
320,192,74021,1,0,0:0:0:60:Hat Open.wav
192,192,74315,128,10,74903:0:0:0:0:
448,192,74903,128,2,75491:0:0:0:0:
64,192,75491,128,10,76080:0:0:0:0:
192,192,75491,1,4,0:0:0:0:
320,192,76080,1,2,0:0:0:0:
448,192,76080,1,4,0:0:0:0:
192,192,76374,1,0,0:0:0:60:Hat Open.wav
64,192,76668,128,10,77256:0:0:0:0:
448,192,77256,128,2,77844:0:0:0:0:
192,192,77844,128,10,78433:0:0:0:0:
320,192,78433,1,2,0:0:0:0:
64,192,78727,1,0,0:0:0:60:Hat Open.wav
320,192,79021,1,10,0:0:0:0:
448,192,79021,1,4,0:0:0:0:
192,192,79609,1,10,0:0:0:0:
448,192,79903,1,2,0:0:0:0:
64,192,80197,1,8,0:0:0:0:
192,192,80197,128,4,80785:0:0:0:0:
320,192,80785,1,6,0:0:0:0:
448,192,80785,128,0,83138:0:0:0:50:Splash.wav
64,192,83138,128,0,85491:0:0:0:0:
320,192,85491,128,0,87844:0:0:0:0:
448,192,85491,1,0,0:0:0:0:
