osu file format v14

[General]
AudioFilename: audio.mp3
AudioLeadIn: 0
PreviewTime: 42365
Countdown: 0
SampleSet: Normal
StackLeniency: 0.7
Mode: 0
LetterboxInBreaks: 0
WidescreenStoryboard: 0

[Editor]
Bookmarks: 23027
DistanceSpacing: 1
BeatDivisor: 4
GridSize: 8
TimelineZoom: 1

[Metadata]
Title:CheerS (TV Size)
TitleUnicode:CheerS (TV Size)
Artist:ClariS
ArtistUnicode:ClariS
Creator:AngelSnow
Version:Normal
Source:はたらく細胞
Tags:cells at work work! hataraku saibou biology cyte cell seto kousuke Mcen314
BeatmapID:1721400
BeatmapSetID:821266

[Difficulty]
HPDrainRate:3
CircleSize:3
OverallDifficulty:4
ApproachRate:5
SliderMultiplier:1.8
SliderTickRate:1

[Events]
//Background and Video events
0,0,"123.png",0,0
//Break Periods
2,62344,65651
//Storyboard Layer 0 (Background)
//Storyboard Layer 1 (Fail)
//Storyboard Layer 2 (Pass)
//Storyboard Layer 3 (Foreground)
//Storyboard Sound Samples

[TimingPoints]
-1090,588.235294117647,4,1,0,100,1,0
43615,-100,4,1,0,100,0,1
52880,-100,4,1,0,100,0,0
53027,-100,4,1,0,100,0,1
62439,-100,4,1,0,100,0,0
71851,-100,4,1,0,100,0,1
81262,-100,4,1,0,100,0,0

[Colours]
Combo1 : 255,0,0
Combo2 : 57,57,57
Combo3 : 240,240,0
Combo4 : 60,216,255

[HitObjects]
418,304,968,5,0,0:0:0:0:
359,236,1262,2,0,P|332:271|327:315,1,90
238,330,1851,2,0,P|220:289|184:262,1,90
218,179,2439,2,0,P|262:184|303:166,2,90
161,108,3321,1,0,0:0:0:0:
92,165,3615,5,0,0:0:0:0:
86,256,3909,1,0,0:0:0:0:
146,323,4204,1,0,0:0:0:0:
238,330,4498,1,0,0:0:0:0:
237,330,5086,5,0,0:0:0:0:
306,270,5380,1,0,0:0:0:0:
245,95,5968,6,0,P|200:90|160:107,1,90
71,125,6557,2,0,P|88:165|124:192,1,90
180,262,7145,1,0,0:0:0:0:
213,178,7439,1,0,0:0:0:0:
245,95,7733,2,0,L|230:26,2,45
328,128,8321,6,0,P|373:133|413:116,1,90
470,184,8909,2,0,P|443:220|437:263,1,90
349,278,9498,2,2,P|330:236|296:210,2,90
318,362,10380,1,0,0:0:0:0:
259,292,10674,6,0,P|214:287|174:304,1,90
89,336,11262,2,2,P|84:290|100:250,1,90
150,174,11851,1,0,0:0:0:0:
239,162,12145,1,0,0:0:0:0:
328,150,12439,2,0,L|400:140,2,45
368,230,13027,5,0,0:0:0:0:
304,295,13321,2,2,P|313:344|317:400,2,90
223,251,14204,1,0,0:0:0:0:
223,251,14498,1,0,0:0:0:0:
223,251,14792,1,0,0:0:0:0:
160,82,15380,6,0,P|39:42|66:131,1,270
120,186,16557,2,0,L|99:309,1,90
162,344,17145,1,0,0:0:0:0:
239,299,17439,1,0,0:0:0:0:
325,326,17733,6,0,P|435:297|329:258,1,270
266,213,18909,1,0,0:0:0:0:
239,299,19204,1,0,0:0:0:0:
169,242,19498,2,0,L|80:229,1,90
62,141,20086,6,0,P|-7:232|100:316,1,270
181,329,21262,2,0,P|266:342|324:278,1,180
236,257,22145,1,0,0:0:0:0:
257,168,22439,6,0,P|212:168|174:190,1,90
87,214,23027,2,0,P|109:252|147:275,1,90
324,278,23909,5,0,0:0:0:0:
347,190,24204,1,0,0:0:0:0:
171,151,24792,6,0,P|143:95|154:17,2,135
101,208,25968,2,0,P|171:241|255:185,1,180
295,112,26851,1,0,0:0:0:0:
345,186,27145,6,0,L|334:280,1,90
378,354,27733,2,0,P|335:365|292:354,1,90
242,280,28321,2,0,L|252:191,2,90
164,325,29204,1,0,0:0:0:0:
81,288,29498,6,0,P|38:276|6:245,1,90
82,198,30086,2,0,P|113:166|155:154,1,90
158,244,30674,2,0,P|169:286|158:329,2,90
236,200,31557,1,0,0:0:0:0:
316,157,31851,5,0,0:0:0:0:
377,223,32145,1,0,0:0:0:0:
338,304,32439,1,0,0:0:0:0:
249,289,32733,1,0,0:0:0:0:
423,300,33321,5,0,0:0:0:0:
377,223,33615,1,0,0:0:0:0:
244,285,34204,6,0,B|200:298|168:314|168:314|94:301|68:227|104:169,1,270
178,223,35380,2,0,B|233:198|269:197|299:227|299:227|351:194|393:267|317:329,1,270
427,320,36557,2,0,P|392:154|295:133,1,270
285,214,37733,2,0,P|233:173|254:64,1,180
334,44,38615,5,0,0:0:0:0:
412,88,38909,2,0,P|421:131|411:174,1,90
412,265,39498,2,0,P|367:272|323:265,1,90
232,265,40086,2,0,P|225:220|232:176,1,90
233,86,40674,2,0,P|277:78|321:85,1,90
324,177,41262,5,0,0:0:0:0:
324,177,41557,1,0,0:0:0:0:
324,177,41851,1,0,0:0:0:0:
144,177,42439,6,0,P|136:221|144:265,2,90
189,99,43321,1,0,0:0:0:0:
235,177,43615,2,0,P|279:184|323:176,1,90
409,150,44204,1,0,0:0:0:0:
454,227,44498,5,0,0:0:0:0:
400,298,44792,2,0,P|439:315|490:308,2,90,0|0|0,2:0|0:0|0:0,0:0:0:0:
317,265,45674,1,0,0:0:0:0:
233,298,45968,2,0,P|194:315|143:308,1,90,0|0,2:0|0:0,0:0:0:0:
132,221,46557,1,0,0:0:0:0:
61,277,46851,6,0,P|56:321|74:363,2,90,0|0|0,2:0|0:0|0:0,0:0:0:0:
45,189,47733,1,0,0:0:0:0:
114,131,48027,2,0,L|103:65,2,45
199,160,48615,5,0,0:0:0:0:
132,221,48909,2,0,P|215:249|289:169,1,180
367,223,49792,1,0,0:0:0:0:
348,135,50086,2,0,P|265:107|191:187,1,180
132,221,50968,6,0,L|124:301,1,45
149,304,51262,2,0,P|190:320|234:314,1,90,0|0,2:0|0:0,0:0:0:0:
291,245,51851,1,0,0:0:0:0:
348,314,52145,1,0,0:0:0:0:
405,245,52439,1,0,0:0:0:0:
462,174,52733,1,0,0:0:0:0:
404,103,53027,6,0,P|363:86|319:91,1,90,0|0,2:0|0:0,0:0:0:0:
243,139,53615,1,0,0:0:0:0:
243,228,53909,2,0,P|227:267|236:318,2,90,0|0|0,2:0|0:0|0:0,0:0:0:0:
320,280,54792,1,0,0:0:0:0:
393,228,55086,2,0,L|393:178,1,45
393,137,55380,2,0,P|434:120|478:125,1,90,0|0,2:0|0:0,0:0:0:0:
492,215,55969,1,0,0:0:0:0:
478,303,56263,6,0,L|470:348,2,45
393,271,56851,1,0,0:0:0:0:
314,314,57145,2,0,P|274:329|223:320,2,90,0|0|0,2:0|0:0|0:0,0:0:0:0:
262,240,58027,5,0,0:0:0:0:
172,250,58321,2,0,P|140:177|217:139,1,180
302,156,59204,1,0,0:0:0:0:
389,175,59498,2,0,P|421:102|344:64,1,180
258,79,60380,6,0,L|178:87,1,45
169,75,60674,2,0,L|174:185,1,90
107,226,61262,2,0,P|82:331|201:289,1,270
279,300,66851,5,0,0:0:0:0:
197,261,67145,2,0,B|139:320|139:320|79:231|121:142,1,270
44,94,68321,2,0,P|118:51|195:90,1,180
208,179,69204,5,0,0:0:0:0:
291,144,69498,2,0,L|397:158,1,90
421,235,70086,2,0,L|314:248,1,90
159,299,70968,5,0,0:0:0:0:
104,227,71262,1,0,0:0:0:0:
159,55,71851,6,0,P|201:38|244:44,1,90
334,39,72440,2,0,P|327:82|300:117,1,90
265,199,73028,1,0,0:0:0:0:
211,127,73322,1,0,0:0:0:0:
159,55,73616,2,0,L|155:-15,2,45
125,139,74204,6,0,P|170:144|210:127,1,90
265,199,74792,2,0,P|238:235|232:278,1,90
142,290,75381,2,2,P|123:248|89:222,2,90
196,361,76263,1,0,0:0:0:0:
232,278,76557,6,0,P|238:234|265:199,1,90
354,187,77145,2,0,P|389:214|406:255,1,90
372,338,77733,1,0,0:0:0:0:
283,350,78027,1,0,0:0:0:0:
194,362,78321,2,0,L|122:352,2,45
232,278,78909,6,0,P|238:234|265:199,1,90
207,129,79498,2,0,P|165:145|121:140,1,90
86,223,80087,1,0,0:0:0:0:
86,223,80381,1,0,0:0:0:0:
143,291,80675,1,0,0:0:0:0:
143,291,80968,1,0,0:0:0:0:
232,278,81262,5,0,0:0:0:0:
256,192,81557,12,0,85968,0:0:0:0:
