osu file format v14

[General]
AudioFilename: audio.mp3
AudioLeadIn: 0
PreviewTime: 42285
Countdown: 1
SampleSet: None
StackLeniency: 0.7
Mode: 2
LetterboxInBreaks: 0
WidescreenStoryboard: 1

[Editor]
Bookmarks: 5961,15373,34197,53020,71844
DistanceSpacing: 1.8
BeatDivisor: 4
GridSize: 8
TimelineZoom: 2.1

[Metadata]
Title:CheerS
TitleUnicode:ChееrS
Artist:ClariS
ArtistUnicode:ClariS
Creator:Hikawa Hina
Version:Salad
Source:CheerS
Tags:
BeatmapID:1700824
BeatmapSetID:810700

[Difficulty]
HPDrainRate:4
CircleSize:3
OverallDifficulty:6
ApproachRate:6
SliderMultiplier:1.6
SliderTickRate:2

[Events]
//Background and Video events
0,0,"black.jpg",0,0
//Break Periods
//Storyboard Layer 0 (Background)
//Storyboard Layer 1 (Fail)
//Storyboard Layer 2 (Pass)
//Storyboard Layer 3 (Foreground)
//Storyboard Sound Samples

[TimingPoints]
-1097,588.235294117647,4,2,1,100,1,0
43608,-100,4,2,1,100,0,1
62432,-100,4,2,1,100,0,0
67138,-100,4,2,1,100,0,1
71844,-100,4,2,1,100,0,0

[HitObjects]
168,192,961,5,0,0:0:0:0:
280,192,1255,2,0,L|328:128,1,80,2|0,0:0|0:0,0:0:0:0:
232,192,1844,2,0,L|184:128,1,80,2|0,0:0|0:0,0:0:0:0:
280,192,2432,1,2,0:0:0:0:
376,192,2726,1,0,0:0:0:0:
472,192,3020,1,2,0:0:0:0:
280,192,3608,6,0,L|192:192,2,80,2|2|2,0:0|0:0|0:0,0:0:0:0:
400,192,4491,1,2,0:0:0:0:
152,192,5079,1,8,0:0:0:0:
360,192,5373,1,0,1:0:0:0:
136,192,5961,5,4,0:0:0:0:
232,192,6255,2,0,L|320:192,2,80,0|8|0,0:0|0:0|0:0,0:0:0:0:
104,192,7138,1,8,0:0:0:0:
232,192,7432,1,0,0:0:0:0:
120,192,7726,2,0,L|208:192,1,80,8|0,0:0|0:0,0:0:0:0:
408,192,8314,5,8,0:0:0:0:
312,192,8608,2,0,L|224:192,2,80,0|8|0,0:0|0:0|0:0,0:0:0:0:
440,192,9491,1,8,0:0:0:0:
312,192,9785,1,0,0:0:0:0:
152,192,10079,2,0,L|240:192,1,80,8|0,0:0|0:0,0:0:0:0:
440,192,10667,5,8,0:0:0:0:
344,192,10961,2,0,L|256:192,2,80,0|8|0,0:0|0:0|0:0,0:0:0:0:
472,192,11844,1,8,0:0:0:0:
344,192,12138,1,0,0:0:0:0:
456,192,12432,2,0,L|368:192,1,80,8|0,0:0|0:0,0:0:0:0:
168,192,13020,5,4,0:0:0:0:
288,192,13314,1,0,1:0:0:0:
96,192,13608,2,0,L|184:192,1,80,0|0,1:0|0:0,0:0:0:0:
344,192,14197,1,8,0:0:0:0:
216,192,14491,1,8,0:0:0:0:
72,192,14785,2,0,L|152:192,1,80,0|0,1:0|0:0,0:0:0:0:
344,192,15373,6,0,P|416:152|480:192,2,160,2|0|2,0:0|0:0|0:0,0:0:0:0:
216,192,16844,1,0,0:0:0:0:
360,192,17138,2,0,L|448:192,1,80,2|8,0:0|0:0,0:0:0:0:
216,192,17726,6,0,L|128:192,2,80,8|0|2,0:0|0:0|0:0,0:0:0:0:
344,192,18608,1,0,0:0:0:0:
472,192,18902,1,2,0:0:0:0:
328,192,19197,2,0,P|264:232|192:192,1,160,0|8,0:0|0:0,0:0:0:0:
416,192,20079,6,0,L|472:136,1,80,8|0,0:0|0:0,0:0:0:0:
344,192,20667,2,0,L|288:136,1,80,2|8,0:0|0:0,0:0:0:0:
160,192,21255,1,8,0:0:0:0:
328,192,21550,2,0,L|424:192,2,80,0|2|8,0:0|0:0|0:0,0:0:0:0:
96,192,22432,5,8,0:0:0:0:
208,192,22726,1,2,0:0:0:0:
320,192,23020,1,2,0:0:0:0:
432,192,23314,1,2,0:0:0:0:
136,192,23902,1,8,0:0:0:0:
368,192,24197,1,12,0:0:0:0:
104,192,24785,6,0,P|160:144|216:192,1,160,4|8,0:0|0:0,0:0:0:0:
88,192,25667,1,0,3:0:0:0:
256,192,25961,2,0,L|344:192,2,80,8|0|8,0:0|3:0|0:0,0:0:0:0:
128,192,26844,1,0,3:0:0:0:
328,192,27138,6,0,L|384:128,1,80,8|0,0:0|3:0,0:0:0:0:
256,192,27726,2,0,L|200:128,1,80,8|0,0:0|3:0,0:0:0:0:
336,112,28314,1,8,0:0:0:0:
168,112,28608,1,0,3:0:0:0:
360,112,28902,2,0,L|448:112,1,80,8|0,0:0|0:0,0:0:0:0:
240,192,29491,6,0,L|96:280,1,160,8|8,0:0|0:0,0:0:0:0:
232,296,30373,1,0,3:0:0:0:
376,296,30667,2,0,L|239:212,1,160,8|8,0:0|0:0,0:0:0:0:
112,200,31550,1,0,3:0:0:0:
256,192,31844,6,0,L|344:192,2,80,0|8|0,1:0|0:0|1:0,0:0:0:0:
48,192,32726,1,4,0:0:0:0:
384,192,33314,1,0,1:0:0:0:
112,192,33608,1,4,1:2:0:0:
416,192,34197,6,0,B|305:191|305:191|472:192,1,240,8|8,0:0|0:0,0:0:0:0:
227,192,35373,2,0,P|144:192|144:128,1,160,0|0,1:0|0:0,0:0:0:0:
285,126,36255,1,8,0:0:0:0:
112,120,36550,6,0,B|32:120|32:120|200:120,1,240,0|8,0:0|0:0,0:0:0:0:
400,112,37726,2,0,B|464:184|464:184|408:232,1,160,0|0,1:0|3:0,0:0:0:0:
288,232,38608,1,8,0:0:0:0:
80,192,38902,6,0,L|240:192,1,160,12|0,0:0|0:0,0:0:0:0:
416,192,40079,2,0,L|440:104,1,80
280,192,40667,2,0,L|256:112,1,80
112,104,41255,5,8,0:0:0:0:
272,104,41550,1,8,0:0:0:0:
432,104,41844,1,12,0:0:0:0:
160,112,42432,2,0,L|72:112,2,80
384,112,43608,6,0,L|456:176,1,80,4|0,0:0|0:0,0:0:0:0:
248,120,44197,2,0,L|176:184,1,80,8|0,0:0|0:0,0:0:0:0:
352,192,44785,2,0,L|440:192,2,80,8|0|8,0:0|0:0|0:0,0:0:0:0:
208,192,45667,1,0,0:0:0:0:
440,192,45961,6,0,P|384:128|296:136,1,160,8|8,0:0|0:0,0:0:0:0:
168,136,46844,1,0,0:0:0:0:
312,200,47138,2,0,L|400:200,2,80,8|0|8,0:0|0:0|0:0,0:0:0:0:
120,200,48020,1,0,0:0:0:0:
280,200,48314,5,8,0:0:0:0:
72,192,48608,2,0,L|160:192,2,80,0|8|0,0:0|0:0|0:0,0:0:0:0:
184,192,49491,1,8,0:0:0:0:
424,192,49785,2,0,L|336:192,2,80,0|8|0,0:0|0:0|0:0,0:0:0:0:
312,192,50668,5,8,0:0:0:0:
168,192,50961,2,0,L|112:120,1,80,0|8,0:0|0:0,0:0:0:0:
264,120,51550,1,0,0:0:0:0:
408,120,51844,2,0,L|488:120,1,80,8|0,0:0|1:0,0:0:0:0:
304,192,52432,2,0,L|224:192,1,80,8|0,0:0|0:0,0:0:0:0:
104,192,53020,6,0,L|264:192,1,160,4|8,0:0|0:0,0:0:0:0:
120,248,53902,1,0,0:0:0:0:
248,240,54197,2,0,L|344:240,1,80,8|0,0:0|0:0,0:0:0:0:
184,192,54785,2,0,L|88:192,1,80,8|0,0:0|0:0,0:0:0:0:
328,192,55373,6,0,P|408:232|464:192,1,160,8|0,0:0|0:0,0:0:0:0:
320,160,56255,1,0,0:0:0:0:
128,144,56550,2,0,L|40:144,2,80,8|0|8,0:0|0:0|0:0,0:0:0:0:
264,144,57432,1,0,0:0:0:0:
56,192,57726,6,0,P|112:272|192:272,1,160,4|0,0:0|0:0,0:0:0:0:
296,272,58608,1,8,0:0:0:0:
496,192,58902,2,0,P|440:120|376:120,1,160,0|0,1:0|0:0,0:0:0:0:
248,128,59785,1,8,0:0:0:0:
472,192,60079,6,0,B|352:192|352:192|432:128|432:128|400:128,1,240,8|8,0:0|0:0,0:0:0:0:
264,144,61255,2,0,L|184:144,1,80,0|0,1:0|0:0,0:0:0:0:
104,144,61697,1,4,0:0:0:0:
312,144,61991,1,4,0:0:0:0:
168,192,62432,6,0,P|96:152|32:192,2,160,2|0|8,0:0|0:0|0:0,0:0:0:0:
296,192,63903,1,0,0:0:0:0:
152,192,64197,2,0,L|64:192,1,80,2|8,0:0|0:0,0:0:0:0:
296,192,64785,6,0,L|384:192,2,80,8|0|2,0:0|0:0|0:0,0:0:0:0:
168,192,65667,1,8,0:0:0:0:
40,192,65961,1,8,0:0:0:0:
184,192,66256,2,0,P|248:232|320:192,1,160,0|8,0:0|0:0,0:0:0:0:
96,192,67138,6,0,L|40:136,1,80,12|0,0:0|0:0,0:0:0:0:
168,192,67726,2,0,L|224:136,1,80,8|8,0:0|0:0,0:0:0:0:
352,192,68314,1,8,0:0:0:0:
184,192,68609,2,0,L|88:192,2,80,0|8|8,0:0|0:0|0:0,0:0:0:0:
416,192,69491,5,2,0:0:0:0:
304,192,69785,1,2,0:0:0:0:
192,192,70079,1,2,0:0:0:0:
80,192,70373,1,2,0:0:0:0:
376,192,70961,1,2,0:0:0:0:
144,192,71256,1,6,0:0:0:0:
376,192,71844,5,4,0:0:0:0:
280,192,72138,2,0,L|192:192,2,80,0|8|0,0:0|0:0|0:0,0:0:0:0:
408,192,73021,1,8,0:0:0:0:
280,192,73315,1,0,0:0:0:0:
392,192,73609,2,0,L|304:192,1,80,8|0,0:0|0:0,0:0:0:0:
104,192,74197,5,8,0:0:0:0:
200,192,74491,2,0,L|288:192,2,80,0|8|0,0:0|0:0|0:0,0:0:0:0:
72,192,75374,1,8,0:0:0:0:
200,192,75668,1,0,0:0:0:0:
360,192,75962,2,0,L|272:192,1,80,8|0,0:0|0:0,0:0:0:0:
72,192,76550,5,8,0:0:0:0:
168,192,76844,2,0,L|256:192,2,80,0|8|0,0:0|0:0|0:0,0:0:0:0:
40,192,77727,1,8,0:0:0:0:
168,192,78021,1,0,0:0:0:0:
56,192,78315,2,0,L|144:192,1,80,8|0,0:0|0:0,0:0:0:0:
344,192,78903,5,8,0:0:0:0:
224,192,79197,1,0,1:0:0:0:
416,192,79491,2,0,L|328:192,1,80,0|0,1:0|0:0,0:0:0:0:
168,192,80080,1,8,0:0:0:0:
296,192,80374,1,8,0:0:0:0:
440,192,80668,2,0,L|360:192,1,80,0|0,1:0|0:0,0:0:0:0:
152,192,81255,5,4,0:0:0:0:
368,192,81844,2,0,L|496:192,2,120,2|2|2,0:0|0:0|0:0,0:0:0:0:
224,192,83020,1,2,0:0:0:0:
320,192,83314,1,2,0:0:0:0:
416,192,83608,1,2,0:0:0:0:
144,192,84197,6,0,L|16:192,2,120,2|2|2,0:0|0:0|0:0,0:0:0:0:
288,192,85373,1,2,0:0:0:0:
384,192,85667,1,2,0:0:0:0:
192,192,85961,1,2,0:0:0:0:
256,192,86108,12,0,89491,0:0:0:0:
