osu file format v14

[General]
AudioFilename: audio.mp3
AudioLeadIn: 0
PreviewTime: 133729
Countdown: 0
SampleSet: Soft
StackLeniency: 0.4
Mode: 0
LetterboxInBreaks: 0
WidescreenStoryboard: 1

[Editor]
Bookmarks: 5379,18352,28730,39108,59865,83217,93595,103973,114351,135107,158459,168837,179215,199972,223323,233701,244079
DistanceSpacing: 1.6
BeatDivisor: 4
GridSize: 32
TimelineZoom: 2.799999

[Metadata]
Title:Careless
TitleUnicode:ケアレス
Artist:ClariS
ArtistUnicode:ClariS
Creator:Vanya
Version:Hard
Source:マギアレコード 魔法少女まどか☆マギカ外伝 2nd SEASON -覚醒前夜-
Tags:vanya2 godkei limetwist mahou shoujo magia record puella magi madoka☆magica gaiden side story 2nd season s2 kakusei zenya anime opening japanese pop j-pop jpop
BeatmapID:3370550
BeatmapSetID:1635823

[Difficulty]
HPDrainRate:4
CircleSize:3.4
OverallDifficulty:7
ApproachRate:8
SliderMultiplier:1.4
SliderTickRate:1

[Events]
//Background and Video events
0,0,"65943626_p1 (1).jpg",0,0
//Break Periods
2,83416,86844
2,158659,168087
2,182010,197377
//Storyboard Layer 0 (Background)
//Storyboard Layer 1 (Fail)
//Storyboard Layer 2 (Pass)
//Storyboard Layer 3 (Foreground)
//Storyboard Layer 4 (Overlay)
//Storyboard Sound Samples

[TimingPoints]
190,324.324324324324,4,2,1,50,1,0
2784,-100,4,2,1,70,0,0
4568,-100,4,2,1,70,0,0
4730,-100,4,2,1,90,0,0
17541,-100,4,2,1,50,0,0
18352,324.324324324324,4,2,1,50,1,0
18352,-133.333333333333,4,2,1,50,0,0
27919,-133.333333333333,4,2,1,75,0,0
28730,-100,4,2,1,75,0,0
39108,-100,4,2,1,75,0,0
49487,-133.333333333333,4,2,1,75,0,0
50784,-133.333333333333,4,2,1,75,0,0
53379,-100,4,2,1,75,0,0
55000,-100,4,2,1,50,0,0
57270,-100,4,2,1,75,0,0
57351,-100,4,2,2,60,0,0
57595,-100,4,2,1,75,0,0
57676,-100,4,2,2,60,0,0
57919,-100,4,2,1,75,0,0
58000,-100,4,2,2,60,0,0
58081,-100,4,2,1,40,0,0
58162,-100,4,2,1,50,0,0
58243,-100,4,2,1,60,0,0
58324,-100,4,2,1,70,0,0
58406,-100,4,2,1,80,0,0
58487,-100,4,2,1,90,0,0
58568,-100,4,2,1,100,0,0
59865,-100,4,2,1,100,0,1
79324,-133.333333333333,4,2,1,100,0,1
80460,-133.333333333333,4,2,1,50,0,1
80622,-200,4,2,1,50,0,0
83216,324.324324324324,4,2,1,50,1,0
87594,-133.333333333333,4,2,1,50,0,0
87756,-133.333333333333,4,2,1,80,0,0
90459,-133.333333333333,4,2,1,70,0,0
90567,-133.333333333333,4,2,1,60,0,0
90675,-133.333333333333,4,2,1,50,0,0
90783,-133.333333333333,4,2,1,40,0,0
90891,-133.333333333333,4,2,1,30,0,0
90999,-133.333333333333,4,2,1,75,0,0
93594,-133.333333333333,4,2,1,75,0,0
103972,-100,4,2,1,75,0,0
114351,-100,4,2,1,75,0,0
124729,-200,4,2,1,75,0,0
126026,-133.333333333333,4,2,1,75,0,0
128621,-100,4,2,1,75,0,0
132594,-100,4,2,2,60,0,0
132837,-100,4,2,2,75,0,0
132918,-100,4,2,2,60,0,0
133161,-100,4,2,2,75,0,0
133243,-100,4,2,2,60,0,0
133324,-100,4,2,1,40,0,0
133405,-100,4,2,1,50,0,0
133486,-100,4,2,1,60,0,0
133567,-100,4,2,1,70,0,0
133648,-100,4,2,1,80,0,0
133729,-100,4,2,1,90,0,0
133810,-100,4,2,1,100,0,0
135107,-100,4,2,1,100,0,1
155864,-133.333333333333,4,2,1,75,0,0
157810,-133.333333333333,4,2,1,75,0,0
158459,324.324324324324,4,2,1,75,1,0
168837,-100,4,2,1,80,0,1
174107,-100,4,2,2,60,0,1
174350,-100,4,2,1,80,0,1
174431,-100,4,2,2,60,0,1
174675,-100,4,2,1,80,0,1
174756,-100,4,2,2,60,0,1
174999,-100,4,2,1,80,0,1
175080,-100,4,2,2,60,0,1
175323,-100,4,2,1,90,0,1
175404,-100,4,2,2,70,0,1
175648,-100,4,2,1,90,0,1
175729,-100,4,2,2,70,0,1
175972,-100,4,2,1,90,0,1
176053,-100,4,2,2,70,0,1
176296,-100,4,2,1,50,0,1
176377,-100,4,2,1,60,0,1
176458,-100,4,2,1,80,0,1
176540,-100,4,2,1,90,0,1
176621,-100,4,2,1,100,0,1
176783,-100,4,2,1,70,0,1
176945,-100,4,2,1,75,0,1
177107,-100,4,2,1,80,0,1
177269,-100,4,2,1,85,0,1
177431,-100,4,2,1,90,0,1
177594,-100,4,2,1,95,0,1
177756,-100,4,2,1,100,0,1
179215,-100,4,2,1,50,0,0
198675,-100,4,2,1,75,0,0
199972,-100,4,2,1,100,0,1
218296,-100,4,2,1,65,0,1
218458,-100,4,2,1,70,0,1
218621,-100,4,2,1,75,0,1
218783,-100,4,2,1,80,0,1
218945,-100,4,2,1,85,0,1
219107,-100,4,2,1,90,0,1
219269,-100,4,2,1,95,0,1
219431,-133.333333333333,4,2,1,100,0,0
220567,-133.333333333333,4,2,1,75,0,0
220729,-200,4,2,1,75,0,0
222675,-100,4,2,1,75,0,0
223323,324.324324324324,4,2,1,100,1,0
238971,-100,4,2,1,80,0,0
239295,-100,4,2,2,60,0,0
239539,-100,4,2,1,80,0,0
239620,-100,4,2,2,60,0,0
239863,-100,4,2,1,80,0,0
239944,-100,4,2,2,60,0,0
240187,-100,4,2,1,90,0,0
240268,-100,4,2,2,70,0,0
240512,-100,4,2,1,90,0,0
240593,-100,4,2,2,70,0,0
240836,-100,4,2,1,90,0,0
240917,-100,4,2,2,70,0,0
241160,-100,4,2,1,90,0,0
241485,-100,4,2,1,100,0,0
241647,-100,4,2,1,70,0,0
241809,-100,4,2,1,75,0,0
241971,-100,4,2,1,80,0,0
242133,-100,4,2,1,85,0,0
242295,-100,4,2,1,90,0,0
242458,-100,4,2,1,95,0,0
242620,-100,4,2,1,100,0,0
243106,-100,4,2,1,50,0,0

[Colours]
Combo1 : 37,226,170
Combo2 : 152,250,165
Combo3 : 252,153,148
Combo4 : 168,228,239

[HitObjects]
256,192,190,12,2,4081,0:0:0:0:
65,33,4568,5,2,0:0:0:0:
65,33,4730,2,0,L|141:46,1,70,10|2,0:0|1:0,0:0:0:0:
208,97,5054,1,2,1:0:0:0:
304,39,5217,6,0,B|338:81|338:81|304:159,1,140,6|0,3:2|3:0,0:0:0:0:
225,205,5703,2,0,L|149:192,1,70,8|0,0:0|0:0,0:0:0:0:
89,130,6027,2,0,P|58:145|44:177,1,70,2|0,3:0|3:0,0:0:0:0:
84,259,6352,1,8,0:0:0:0:
25,354,6514,6,0,L|162:330,1,140,6|0,3:2|3:0,0:0:0:0:
239,378,7000,2,0,L|252:302,1,70,8|0,0:0|0:0,0:0:0:0:
321,251,7325,2,0,L|308:175,1,70,2|8,3:0|0:0,0:0:0:0:
249,113,7649,1,8,0:0:0:0:
304,16,7811,6,0,P|370:2|412:53,1,140,6|0,3:2|3:0,0:0:0:0:
484,110,8298,2,0,P|485:144|465:171,1,70,8|2,0:0|0:0,0:0:0:0:
457,178,8541,1,2,0:0:0:0:
447,181,8622,1,2,3:0:0:0:
369,133,8784,1,0,3:0:0:0:
299,192,8946,1,0,1:0:0:0:
342,295,9108,6,0,B|271:283|280:340|211:328,1,140,6|0,3:2|3:0,0:0:0:0:
139,272,9595,1,8,0:0:0:0:
66,327,9757,2,0,L|42:189,1,140,4|2,3:2|3:0,0:0:0:0:
105,123,10244,2,0,L|110:88,3,35,10|2|2|2,0:0|0:0|0:0|0:0,0:0:0:0:
121,44,10568,6,0,B|191:55|182:-1|251:10,1,140,6|8,3:2|0:0,0:0:0:0:
350,163,11217,2,0,L|361:94,1,70,2|0,0:0|3:0,0:0:0:0:
437,43,11541,2,0,P|467:58|481:90,1,70,8|0,0:0|0:0,0:0:0:0:
511,197,11865,6,0,P|468:248|403:234,1,140,2|8,3:0|0:0,0:0:0:0:
350,163,12352,2,0,B|291:155|291:155|272:171|272:171|216:163,1,140,0|0,3:0|3:0,0:0:0:0:
152,99,12838,2,0,P|119:105|97:133,1,70,8|0,0:0|0:0,0:0:0:0:
5,197,13162,6,0,L|29:334,1,140,6|8,3:2|0:0,0:0:0:0:
111,375,13649,2,0,P|174:354|186:288,1,140,2|2,0:0|3:0,0:0:0:0:
107,244,14135,2,0,P|94:211|106:179,1,70,10|2,0:0|3:0,0:0:0:0:
169,86,14460,5,0,3:0:0:0:
244,136,14622,2,0,B|315:124|306:181|375:169,1,140,14|2,0:0|1:0,0:0:0:0:
385,167,15027,1,2,1:0:0:0:
395,164,15108,1,2,1:0:0:0:
462,101,15271,1,0,1:0:0:0:
419,20,15433,2,0,P|386:8|354:20,1,70,0|0,1:0|1:0,0:0:0:0:
242,12,15757,6,0,L|257:103,1,93.3333333333333,6|10,3:2|0:0,0:0:0:0:
231,147,16081,2,0,P|196:177|151:173,1,93.3333333333333,10|10,0:0|0:0,0:0:0:0:
107,146,16406,2,0,P|61:142|27:171,1,93.3333333333333,2|2,1:0|1:0,0:0:0:0:
0,215,16730,2,0,L|15:306,1,93.3333333333333,2|2,1:0|1:0,0:0:0:0:
26,357,17054,5,10,0:0:0:0:
101,305,17217,1,10,0:0:0:0:
384,384,18352,6,0,L|401:280,1,105.000004005432,4|0,3:2|0:0,0:0:0:0:
511,153,19000,2,0,P|488:166|462:168,1,52.5000020027161,2|2,0:0|0:0,0:0:0:0:
382,194,19324,2,0,P|359:181|344:159,1,52.5000020027161,2|2,0:0|0:0,0:0:0:0:
270,118,19649,6,0,P|269:91|280:68,1,52.5000020027161,2|2,0:0|0:0,0:0:0:0:
330,0,19973,2,0,L|226:17,1,105.000004005432,2|0,0:0|0:0,0:0:0:0:
142,6,20460,1,2,0:0:0:0:
142,6,20622,2,0,L|150:57,1,52.5000020027161,2|0,0:0|3:0,0:0:0:0:
88,114,20946,6,0,P|135:104|178:156,1,105.000004005432,2|2,3:0|0:0,0:0:0:0:
235,205,21433,1,2,0:0:0:0:
235,205,21595,2,0,L|226:256,1,52.5000020027161,2|2,0:0|0:0,0:0:0:0:
213,339,21919,1,2,0:0:0:0:
51,383,22243,6,0,L|33:279,1,105.000004005432
82,210,22730,2,0,P|79:184|66:161,1,52.5000020027161,2|2,0:0|0:0,0:0:0:0:
2,107,23054,2,0,B|63:113|47:88|106:89,1,105.000004005432,2|0,0:0|3:0,0:0:0:0:
177,20,23541,6,0,L|185:71,1,52.5000020027161,6|2,3:2|0:0,0:0:0:0:
256,116,23865,2,0,L|247:167,1,52.5000020027161,2|2,0:0|0:0,0:0:0:0:
287,241,24189,2,0,P|312:247|337:243,1,52.5000020027161,2|2,0:0|0:0,0:0:0:0:
403,190,24514,1,2,0:0:0:0:
511,317,24838,6,0,B|450:311|467:341|407:335,1,105.000004005432,0|2,0:0|0:0,0:0:0:0:
335,368,25324,1,2,0:0:0:0:
335,368,25487,2,0,L|326:316,1,52.5000020027161,2|2,0:0|0:0,0:0:0:0:
309,233,25811,1,2,0:0:0:0:
127,151,26135,6,0,P|94:186|118:249,1,105.000004005432,4|2,3:2|0:0,0:0:0:0:
169,301,26622,1,2,0:0:0:0:
169,301,26785,2,0,L|220:292,1,52.5000020027161,2|2,0:0|0:0,0:0:0:0:
268,223,27108,2,0,L|319:231,1,52.5000020027161,2|2,0:0|0:0,0:0:0:0:
368,304,27433,5,2,0:0:0:0:
453,313,27595,1,2,0:0:0:0:
492,237,27757,2,0,P|498:211|494:186,1,52.5000020027161,2|2,0:0|3:0,0:0:0:0:
489,177,28000,1,8,0:0:0:0:
481,169,28081,2,0,L|429:160,1,52.5000020027161,10|2,0:0|3:0,0:0:0:0:
370,92,28406,1,2,0:0:0:0:
370,92,28568,1,2,0:0:0:0:
264,128,28730,5,4,3:2:0:0:
97,6,29054,2,0,L|121:143,1,140,8|2,0:0|0:0,0:0:0:0:
56,197,29541,1,2,3:0:0:0:
56,197,29703,2,0,P|44:229|57:262,1,70,10|2,0:0|0:0,0:0:0:0:
128,304,30027,6,0,L|197:293,1,70,2|2,3:0|0:0,0:0:0:0:
249,358,30351,2,0,L|273:221,1,140,10|0,0:0|0:0,0:0:0:0:
342,170,30838,1,2,3:0:0:0:
342,170,31000,2,0,L|331:101,1,70,10|0,0:0|3:0,0:0:0:0:
278,3,31324,6,0,P|243:0|215:21,1,70,2|2,3:0|0:0,0:0:0:0:
132,32,31649,2,0,P|112:60|116:95,1,70,10|2,0:0|0:0,0:0:0:0:
86,172,31973,2,0,P|101:203|133:217,1,70,2|2,0:0|3:0,0:0:0:0:
203,264,32297,1,10,0:0:0:0:
342,170,32622,6,0,B|308:212|308:212|342:290,1,140,0|8,3:0|0:0,0:0:0:0:
298,362,33108,2,0,L|229:351,1,70,2|2,0:0|3:0,0:0:0:0:
218,350,33351,1,8,0:0:0:0:
207,348,33433,1,2,3:0:0:0:
162,276,33595,2,0,L|93:287,1,70,10|2,0:0|3:0,0:0:0:0:
23,374,33919,6,0,L|-1:237,1,140,4|8,3:2|0:0,0:0:0:0:
57,176,34406,1,2,0:0:0:0:
57,176,34568,2,0,L|68:107,1,70,2|2,0:0|3:0,0:0:0:0:
130,50,34892,2,0,P|164:46|192:65,1,70,10|2,0:0|0:0,0:0:0:0:
239,134,35216,5,0,3:0:0:0:
350,8,35541,2,0,L|339:77,1,70,10|0,0:0|0:0,0:0:0:0:
405,128,35865,2,0,L|416:197,1,70,2|2,0:0|3:0,0:0:0:0:
485,244,36189,1,10,0:0:0:0:
462,325,36351,1,2,3:0:0:0:
349,333,36514,6,0,P|317:318|302:288,1,70,6|2,3:2|0:0,0:0:0:0:
232,242,36838,2,0,L|243:173,1,70,10|2,0:0|0:0,0:0:0:0:
321,142,37162,2,0,L|310:73,1,70,2|2,3:0|1:0,0:0:0:0:
243,21,37487,1,10,0:0:0:0:
155,90,37649,6,0,B|84:78|93:135|24:123,1,140,6|2,3:2|3:0,0:0:0:0:
6,205,38135,2,0,L|75:216,1,70,10|0,0:0|1:0,0:0:0:0:
146,256,38460,1,2,1:0:0:0:
130,339,38622,1,0,3:0:0:0:
203,379,38784,1,8,0:0:0:0:
299,241,39108,6,0,P|327:220|361:222,1,70,6|2,3:2|0:0,0:0:0:0:
438,271,39433,2,0,L|449:202,1,70,2|0,3:0|0:0,0:0:0:0:
510,135,39757,2,0,L|499:66,1,70,2|0,3:0|0:0,0:0:0:0:
436,0,40081,1,2,3:0:0:0:
367,58,40243,1,10,0:0:0:0:
363,67,40324,1,8,0:0:0:0:
360,77,40406,6,0,B|289:65|298:122|229:110,1,140,2|2,3:0|3:0,0:0:0:0:
127,41,40892,2,0,P|178:83|163:148,1,140,8|0,0:0|1:0,0:0:0:0:
88,201,41379,1,0,1:0:0:0:
115,289,41541,1,2,1:0:0:0:
233,290,41703,6,0,L|244:221,1,70,6|0,3:2|0:0,0:0:0:0:
307,155,42027,2,0,P|342:151|370:170,1,70,2|0,3:0|0:0,0:0:0:0:
460,164,42351,2,0,P|480:192|478:226,1,70,2|0,3:0|0:0,0:0:0:0:
501,314,42676,2,0,L|432:325,1,70,2|8,3:0|0:0,0:0:0:0:
421,327,42919,1,8,0:0:0:0:
410,329,43000,5,2,3:0:0:0:
340,270,43162,1,2,0:0:0:0:
275,334,43324,1,2,3:0:0:0:
275,334,43487,2,0,P|240:335|212:315,1,70,12|0,0:0|3:0,0:0:0:0:
103,255,43811,2,0,P|137:256|166:237,1,70,12|0,0:0|3:0,0:0:0:0:
205,139,44135,1,0,1:0:0:0:
200,129,44216,1,0,1:0:0:0:
195,119,44297,6,0,L|58:95,1,140,4|2,3:2|3:0,0:0:0:0:
4,170,44784,1,2,0:0:0:0:
4,170,44946,2,0,L|15:238,1,70,2|8,3:0|0:0,0:0:0:0:
54,317,45270,1,2,3:0:0:0:
140,327,45433,1,2,1:0:0:0:
195,259,45595,6,0,B|266:247|257:304|326:292,1,140,2|2,3:0|3:0,0:0:0:0:
407,331,46081,2,0,L|418:262,1,70,14|0,0:0|3:0,0:0:0:0:
346,204,46406,2,0,L|335:135,1,70,2|0,1:0|1:0,0:0:0:0:
275,66,46730,1,2,1:0:0:0:
266,59,46811,1,0,1:0:0:0:
255,55,46892,6,0,P|189:65|170:129,1,140,2|2,3:0|3:0,0:0:0:0:
216,208,47379,2,0,L|353:184,1,140,14|10,0:0|0:0,0:0:0:0:
414,115,47865,2,0,P|447:121|471:146,1,70,2|0,3:0|1:0,0:0:0:0:
499,262,48189,6,0,L|430:273,1,70,0|8,3:0|0:0,0:0:0:0:
359,329,48514,2,0,L|290:317,1,70,8|0,0:0|3:0,0:0:0:0:
232,247,48838,1,8,0:0:0:0:
154,293,49000,1,0,1:0:0:0:
95,223,49162,2,0,P|83:190|93:157,1,70,0|0,1:0|1:0,0:0:0:0:
32,75,49487,6,0,B|115:64|115:64|157:87|157:87|239:75,1,210,6|2,3:2|0:0,0:0:0:0:
234,75,50784,1,6,3:2:0:0:
440,104,51433,1,4,3:2:0:0:
297,256,52081,6,0,L|315:354,2,78.7500030040742,6|2|2,3:2|0:0|3:0,0:0:0:0:
213,271,52730,2,0,L|231:369,2,78.7500030040742,10|2|2,0:0|1:0|1:0,0:0:0:0:
146,219,53379,6,0,L|161:128,1,93.3333333333333,4|8,3:2|0:0,0:0:0:0:
200,87,53703,2,0,P|245:83|279:113,1,93.3333333333333,8|8,0:0|0:0,0:0:0:0:
305,162,54027,2,0,P|339:191|384:188,1,93.3333333333333,2|0,1:0|1:0,0:0:0:0:
423,147,54351,2,0,L|438:56,1,93.3333333333333,2|0,1:0|1:0,0:0:0:0:
451,0,54676,5,0,3:0:0:0:
451,0,55973,1,2,0:0:0:0:
451,0,57270,6,0,L|433:102,1,105,6|0,3:2|3:0,0:0:0:0:
391,131,57595,2,0,L|356:124,3,35,0|0|0|0,3:0|3:0|3:0|3:0,0:0:0:0:
312,146,57919,2,0,L|277:139,3,35,0|0|8|8,3:0|3:0|0:0|0:0,0:0:0:0:
234,163,58243,2,0,L|199:156,3,35,8|8|8|8,0:0|0:0|0:0|0:0,0:0:0:0:
150,150,58568,5,2,3:0:0:0:
150,150,59216,2,0,L|139:81,1,70,2|0,0:0|0:0,0:0:0:0:
55,96,59541,2,0,L|66:165,1,70,2|0,0:0|0:0,0:0:0:0:
0,272,59865,6,0,B|70:261|61:317|130:306,1,140,4|10,3:2|0:0,0:0:0:0:
201,238,60351,1,2,0:0:0:0:
280,296,60514,2,0,P|311:282|327:251,1,70,2|0,3:0|3:0,0:0:0:0:
406,195,60838,2,0,P|410:160|391:132,1,70,8|2,0:0|0:0,0:0:0:0:
308,37,61162,6,0,L|297:106,1,70,2|0,3:0|0:0,0:0:0:0:
208,148,61487,2,0,L|219:217,1,70,10|0,0:0|0:0,0:0:0:0:
274,295,61811,1,2,3:0:0:0:
223,378,61973,1,2,3:0:0:0:
131,342,62135,1,10,0:0:0:0:
1,158,62460,6,0,P|29:139|63:143,1,70,6|2,3:2|0:0,0:0:0:0:
140,203,62784,2,0,L|278:181,1,140,10|0,0:0|3:0,0:0:0:0:
357,122,63270,1,0,3:0:0:0:
357,122,63433,2,0,L|346:53,1,70,8|0,0:0|0:0,0:0:0:0:
231,0,63757,6,0,P|198:14|183:44,1,70,2|0,3:0|0:0,0:0:0:0:
104,101,64081,2,0,P|99:136|119:164,1,70,10|0,0:0|0:0,0:0:0:0:
194,226,64406,2,0,L|205:295,1,70,2|0,3:0|3:0,0:0:0:0:
122,348,64730,2,0,L|111:279,1,70,10|0,0:0|3:0,0:0:0:0:
109,268,64973,1,0,1:0:0:0:
107,257,65054,5,0,3:0:0:0:
266,141,65379,1,14,0:0:0:0:
325,218,65541,1,2,0:0:0:0:
416,186,65703,2,0,P|461:135|443:71,1,140,2|8,3:0|2:0,0:0:0:0:
373,11,66189,1,2,0:0:0:0:
287,41,66351,6,0,L|218:30,1,70,2|0,3:0|0:0,0:0:0:0:
143,94,66676,2,0,L|74:83,1,70,10|0,0:0|0:0,0:0:0:0:
0,147,67000,1,2,3:0:0:0:
40,237,67162,1,2,3:0:0:0:
137,226,67324,1,10,0:0:0:0:
284,56,67649,6,0,L|267:159,1,105,6|2,3:2|0:0,0:0:0:0:
240,200,67973,2,0,L|251:269,1,70,8|2,0:0|0:0,0:0:0:0:
190,346,68297,1,2,3:0:0:0:
98,311,68460,1,2,3:0:0:0:
102,212,68622,2,0,P|123:185|157:178,1,70,10|0,0:0|3:0,0:0:0:0:
250,93,68946,6,0,L|319:104,1,70,8|0,0:0|3:0,0:0:0:0:
412,75,69270,2,0,P|424:106|413:140,1,70,8|2,0:0|3:0,0:0:0:0:
408,149,69514,1,0,0:0:0:0:
400,156,69595,1,10,0:0:0:0:
329,223,69757,1,2,1:0:0:0:
371,311,69919,1,2,1:0:0:0:
468,298,70081,1,2,1:0:0:0:
476,291,70162,1,0,1:0:0:0:
484,284,70243,6,0,L|473:215,1,70,4|0,3:2|0:0,0:0:0:0:
413,139,70568,2,0,P|384:120|350:123,1,70,10|0,0:0|0:0,0:0:0:0:
258,158,70892,2,0,P|223:161|195:142,1,70,2|2,3:0|3:0,0:0:0:0:
137,63,71216,1,10,0:0:0:0:
32,134,71379,6,0,L|54:272,1,140,2|0,0:0|0:0,0:0:0:0:
125,339,71865,2,0,P|159:341|187:321,1,70,10|0,0:0|0:0,0:0:0:0:
284,310,72189,2,0,P|302:281|299:247,1,70,2|2,3:0|3:0,0:0:0:0:
258,158,72514,1,10,0:0:0:0:
353,76,72676,6,0,P|417:96|428:162,1,140,2|0,0:0|0:0,0:0:0:0:
383,249,73162,2,0,L|314:238,1,70,10|2,0:0|0:0,0:0:0:0:
258,158,73487,2,0,L|189:169,1,70,2|0,3:0|3:0,0:0:0:0:
93,189,73811,1,10,0:0:0:0:
175,366,74135,6,0,L|157:254,2,105,8|2|0,0:0|0:0|3:0,0:0:0:0:
272,349,74784,2,0,L|254:237,2,105,8|2|10,0:0|0:0|0:0,0:0:0:0:
393,383,75433,6,0,B|427:341|427:341|393:263,1,140,6|10,3:2|0:0,0:0:0:0:
326,189,75919,2,0,P|380:227|439:196,1,140,2|2,0:0|3:0,0:0:0:0:
476,105,76406,2,0,L|407:94,1,70,10|0,0:0|0:0,0:0:0:0:
314,77,76730,5,0,3:0:0:0:
88,49,77054,2,0,P|122:46|150:66,1,70,10|0,0:0|0:0,0:0:0:0:
215,140,77379,2,0,L|204:209,1,70,2|0,3:0|3:0,0:0:0:0:
127,270,77703,2,0,L|138:339,1,70,10|0,0:0|0:0,0:0:0:0:
255,383,78027,6,0,P|285:367|300:336,1,70,4|0,3:2|0:0,0:0:0:0:
383,284,78351,2,0,P|385:249|365:221,1,70,8|8,0:0|0:0,0:0:0:0:
255,195,78676,1,8,0:0:0:0:
221,88,78838,1,8,0:0:0:0:
321,37,79000,2,0,L|390:48,1,70,8|8,0:0|0:0,0:0:0:0:
486,7,79324,6,0,L|461:162,1,157.500006008148,4|0,3:2|1:0,0:0:0:0:
510,230,79973,2,0,P|476:191|425:191,1,105.000004005432,0|0,0:0|1:0,0:0:0:0:
287,241,80622,6,0,B|177:211|206:321|92:290,1,210,2|2,0:0|0:0,0:0:0:0:
8,200,81919,2,0,B|-8:154|70:112|125:185|63:264,1,210,0|2,0:0|0:0,0:0:0:0:
6,347,83216,5,6,3:2:0:0:
480,161,87594,5,2,0:0:0:0:
480,161,87675,1,2,0:0:0:0:
480,161,87756,2,0,L|429:153,1,52.5000020027161,10|2,0:0|1:0,0:0:0:0:
351,187,88080,1,2,1:0:0:0:
296,122,88243,1,0,1:0:0:0:
296,122,88324,1,0,1:0:0:0:
296,122,88405,6,0,L|306:53,2,70.0000026702882,6|2|10,3:2|1:0|0:0,0:0:0:0:
213,107,89053,2,0,L|223:38,2,70.0000026702882,6|2|2,3:2|1:0|1:0,0:0:0:0:
143,155,89702,6,0,L|71:142,1,70.0000026702882,4|8,3:2|0:0,0:0:0:0:
32,168,90026,2,0,P|21:201|30:234,1,70.0000026702882,8|8,0:0|0:0,0:0:0:0:
69,262,90351,2,0,L|137:251,1,70.0000026702882,2|0,1:0|1:0,0:0:0:0:
173,273,90675,2,0,L|241:262,1,70.0000026702882,0|2,1:0|1:0,0:0:0:0:
271,232,90999,6,0,B|308:155|233:159|265:81,2,157.500006008148,6|2|2,3:2|0:0|0:0,0:0:0:0:
375,160,92297,2,0,P|412:160|454:298,1,210.000008010865,2|2,0:0|0:0,0:0:0:0:
455,296,93594,6,0,L|351:279,1,105.000004005432,4|0,3:2|0:0,0:0:0:0:
219,383,94243,2,0,L|227:332,1,52.5000020027161,10|2,0:0|0:0,0:0:0:0:
161,278,94567,2,0,L|153:227,1,52.5000020027161,2|10,0:0|0:0,0:0:0:0:
223,180,94891,6,0,L|231:129,1,52.5000020027161,2|2,3:0|0:0,0:0:0:0:
178,62,95215,2,0,P|128:52|91:87,1,105.000004005432,2|8,0:0|0:0,0:0:0:0:
9,107,95702,1,2,0:0:0:0:
9,107,95864,2,0,P|3:132|7:157,1,52.5000020027161,2|0,0:0|0:0,0:0:0:0:
84,228,96188,6,0,L|135:220,1,52.5000020027161,6|2,3:2|0:0,0:0:0:0:
208,177,96513,2,0,L|259:185,1,52.5000020027161,2|2,0:0|0:0,0:0:0:0:
332,227,96837,2,0,P|337:251|333:277,1,52.5000020027161,10|2,0:0|0:0,0:0:0:0:
269,332,97161,1,2,0:0:0:0:
429,382,97486,6,0,L|446:278,1,105.000004005432,0|0,0:0|3:0,0:0:0:0:
512,227,97972,1,2,0:0:0:0:
512,227,98134,1,10,0:0:0:0:
458,161,98297,2,0,B|397:155|413:180|354:179,1,105.000004005432,2|0,0:0|0:0,0:0:0:0:
265,231,98783,6,0,P|240:223|219:206,1,52.5000020027161,2|2,3:0|0:0,0:0:0:0:
138,229,99107,2,0,P|132:203|136:176,1,52.5000020027161,2|0,0:0|0:0,0:0:0:0:
103,101,99432,2,0,P|122:83|147:73,1,52.5000020027161,10|2,0:0|0:0,0:0:0:0:
205,13,99756,2,0,B|266:7|250:32|309:31,1,105.000004005432,2|0,0:0|3:0,0:0:0:0:
473,4,100405,6,0,L|465:55,1,52.5000020027161,2|2,3:0|0:0,0:0:0:0:
398,107,100729,2,0,L|406:158,1,52.5000020027161,14|2,0:0|0:0,0:0:0:0:
423,240,101053,1,2,0:0:0:0:
303,359,101378,6,0,L|311:308,2,52.5000020027161,6|2|2,3:2|0:0|0:0,0:0:0:0:
220,346,101864,2,0,L|228:295,2,52.5000020027161,10|2|2,0:0|0:0|0:0,0:0:0:0:
136,336,102351,1,2,3:0:0:0:
2,122,102837,6,0,P|27:125|53:120,1,52.5000020027161,10|10,0:0|0:0,0:0:0:0:
123,74,103161,1,10,0:0:0:0:
245,190,103486,2,0,L|228:294,1,105.000004005432,2|2,0:0|0:0,0:0:0:0:
214,376,103972,5,4,3:2:0:0:
368,309,104297,2,0,B|439:297|430:354|499:342,1,140,8|2,0:0|0:0,0:0:0:0:
485,263,104783,1,2,3:0:0:0:
485,263,104945,2,0,L|496:194,1,70,10|2,0:0|0:0,0:0:0:0:
418,159,105270,2,0,L|407:90,1,70,2|2,3:0|0:0,0:0:0:0:
441,13,105594,6,0,P|399:64|334:49,1,140,10|0,0:0|0:0,0:0:0:0:
253,52,106080,1,2,3:0:0:0:
253,52,106242,2,0,L|242:121,1,70,10|0,0:0|3:0,0:0:0:0:
178,177,106567,6,0,P|143:173|115:193,1,70,6|2,3:2|0:0,0:0:0:0:
32,189,106891,2,0,P|12:216|15:251,1,70,10|2,0:0|0:0,0:0:0:0:
5,334,107215,2,0,L|74:345,1,70,2|2,0:0|3:0,0:0:0:0:
157,358,107540,1,10,0:0:0:0:
324,373,107864,6,0,L|300:236,1,140,0|8,3:0|0:0,0:0:0:0:
356,172,108351,2,0,L|425:183,1,70,2|2,0:0|3:0,0:0:0:0:
435,185,108594,1,8,0:0:0:0:
445,187,108675,1,2,3:0:0:0:
498,122,108837,2,0,P|501:87|480:60,1,70,10|2,0:0|3:0,0:0:0:0:
385,1,109161,6,0,L|248:25,1,140,4|8,3:2|0:0,0:0:0:0:
170,4,109648,1,2,0:0:0:0:
170,4,109810,2,0,L|159:73,1,70,2|2,0:0|3:0,0:0:0:0:
95,127,110134,2,0,L|106:196,1,70,10|2,0:0|0:0,0:0:0:0:
120,279,110459,5,0,3:0:0:0:
265,363,110783,2,0,P|285:335|282:301,1,70,10|0,0:0|0:0,0:0:0:0:
232,233,111107,2,0,P|228:198|249:171,1,70,2|2,0:0|3:0,0:0:0:0:
325,134,111432,1,10,0:0:0:0:
390,187,111594,1,2,3:0:0:0:
492,134,111756,6,0,L|481:65,1,70,6|2,3:2|0:0,0:0:0:0:
402,34,112080,2,0,P|367:30|340:51,1,70,10|2,0:0|0:0,0:0:0:0:
325,134,112405,2,0,P|297:154|263:151,1,70,2|2,3:0|1:0,0:0:0:0:
194,102,112729,1,10,0:0:0:0:
98,160,112891,6,0,L|122:297,1,140,6|0,3:2|0:0,0:0:0:0:
194,350,113378,1,8,0:0:0:0:
194,350,113540,1,0,1:0:0:0:
242,281,113702,2,0,L|311:270,1,70,2|0,3:0|3:0,0:0:0:0:
393,255,114026,1,8,0:0:0:0:
469,104,114351,6,0,P|441:84|407:87,1,70,6|0,3:2|0:0,0:0:0:0:
329,39,114675,2,0,L|318:108,1,70,2|0,3:0|0:0,0:0:0:0:
255,173,114999,2,0,L|266:242,1,70,2|0,3:0|0:0,0:0:0:0:
204,310,115324,1,2,3:0:0:0:
123,267,115486,1,8,0:0:0:0:
115,273,115567,1,8,0:0:0:0:
107,280,115648,6,0,L|129:142,1,140,2|2,3:0|3:0,0:0:0:0:
98,56,116134,2,0,P|140:107|205:92,1,140,8|0,0:0|1:0,0:0:0:0:
270,28,116621,1,0,3:0:0:0:
346,77,116783,1,2,1:0:0:0:
449,35,116945,6,0,L|438:104,1,70,6|0,3:2|0:0,0:0:0:0:
484,182,117270,2,0,P|456:201|421:198,1,70,2|0,3:0|0:0,0:0:0:0:
334,173,117594,2,0,L|345:242,1,70,2|0,3:0|3:0,0:0:0:0:
277,303,117918,2,0,P|242:306|214:286,1,70,2|8,3:0|0:0,0:0:0:0:
209,277,118161,1,8,0:0:0:0:
204,267,118243,5,2,3:0:0:0:
121,305,118405,1,2,0:0:0:0:
71,235,118567,1,2,3:0:0:0:
71,235,118729,2,0,L|82:166,1,70,12|0,0:0|3:0,0:0:0:0:
25,69,119053,2,0,L|94:80,1,70,12|0,0:0|3:0,0:0:0:0:
186,29,119378,1,0,1:0:0:0:
195,25,119459,1,0,1:0:0:0:
204,21,119540,6,0,L|182:159,1,140,4|2,3:2|3:0,0:0:0:0:
110,213,120026,1,2,0:0:0:0:
110,213,120188,2,0,L|121:282,1,70,2|10,3:0|0:0,0:0:0:0:
194,337,120513,2,0,P|228:340|256:320,1,70,2|2,3:0|1:0,0:0:0:0:
367,308,120837,6,0,B|333:266|333:266|367:188,1,140,2|2,3:0|3:0,0:0:0:0:
417,111,121324,2,0,P|389:91|354:94,1,70,14|0,0:0|3:0,0:0:0:0:
280,42,121648,2,0,P|248:56|234:87,1,70,2|0,1:0|3:0,0:0:0:0:
254,176,121972,1,2,1:0:0:0:
261,183,122053,1,0,1:0:0:0:
268,190,122134,6,0,L|130:212,1,140,2|2,3:0|3:0,0:0:0:0:
57,267,122621,2,0,P|41:331|92:374,1,140,14|10,0:0|0:0,0:0:0:0:
183,383,123107,2,0,L|172:314,1,70,2|0,3:0|1:0,0:0:0:0:
129,212,123432,6,0,P|125:177|145:149,1,70,0|8,3:0|0:0,0:0:0:0:
147,59,123756,2,0,L|216:70,1,70,8|0,0:0|3:0,0:0:0:0:
305,86,124080,1,8,0:0:0:0:
362,15,124243,1,8,0:0:0:0:
449,40,124405,2,0,L|460:109,1,70,0|0,1:0|1:0,0:0:0:0:
512,210,124729,6,0,B|408:172|415:267|311:228,1,210,6|2,3:2|0:0,0:0:0:0:
233,197,126026,1,6,3:2:0:0:
94,292,126675,1,4,3:2:0:0:
11,145,127324,6,0,L|29:47,2,78.7500030040742,6|2|2,3:2|0:0|3:0,0:0:0:0:
92,162,127972,2,0,L|110:64,2,78.7500030040742,10|2|2,0:0|0:0|0:0,0:0:0:0:
154,218,128621,6,0,L|245:203,1,93.3333333333333,4|8,3:2|0:0,0:0:0:0:
274,154,128945,2,0,L|365:169,1,93.3333333333333,8|8,0:0|0:0,0:0:0:0:
409,204,129270,2,0,P|412:249|382:283,1,93.3333333333333,2|0,3:0|3:0,0:0:0:0:
359,334,129594,2,0,P|317:351|275:333,1,93.3333333333333,10|8,0:0|0:0,0:0:0:0:
239,291,129918,5,4,3:2:0:0:
239,291,131215,1,2,0:0:0:0:
239,291,132513,6,0,P|216:228|261:181,1,105,6|0,3:2|3:0,0:0:0:0:
270,166,132837,2,0,L|305:173,3,35,0|0|0|0,3:0|3:0|3:0|3:0,0:0:0:0:
340,205,133161,2,0,L|375:212,3,35,0|0|8|8,3:0|3:0|0:0|0:0,0:0:0:0:
407,248,133486,2,0,L|442:255,3,35,8|8|8|8,0:0|0:0|0:0|0:0,0:0:0:0:
489,265,133810,5,2,3:0:0:0:
489,265,134459,2,0,L|478:196,1,70,2|0,0:0|0:0,0:0:0:0:
416,137,134784,2,0,L|427:68,1,70,2|0,0:0|0:0,0:0:0:0:
321,0,135107,6,0,L|183:22,1,140,4|10,3:2|0:0,0:0:0:0:
85,3,135594,1,2,0:0:0:0:
46,93,135756,2,0,L|57:162,1,70,2|0,3:0|3:0,0:0:0:0:
121,235,136080,2,0,P|149:253|183:251,1,70,8|2,0:0|0:0,0:0:0:0:
286,176,136405,6,0,L|275:245,1,70,2|0,3:0|0:0,0:0:0:0:
370,264,136729,2,0,L|381:195,1,70,10|0,0:0|0:0,0:0:0:0:
463,141,137053,1,2,3:0:0:0:
436,46,137215,1,2,3:0:0:0:
338,31,137378,1,10,0:0:0:0:
196,166,137702,6,0,P|167:184|133:182,1,70,6|2,3:2|0:0,0:0:0:0:
65,111,138026,2,0,L|87:249,1,140,10|0,0:0|3:0,0:0:0:0:
160,322,138513,1,0,3:0:0:0:
160,322,138675,2,0,L|229:333,1,70,8|2,0:0|0:0,0:0:0:0:
345,381,138999,6,0,P|363:352|361:318,1,70,2|0,3:0|0:0,0:0:0:0:
398,226,139324,2,0,P|376:199|343:191,1,70,10|0,0:0|0:0,0:0:0:0:
249,221,139648,2,0,L|238:152,1,70,2|0,3:0|3:0,0:0:0:0:
318,95,139972,2,0,L|329:26,1,70,10|8,0:0|0:0,0:0:0:0:
332,16,140215,1,8,0:0:0:0:
335,5,140297,1,0,3:0:0:0:
154,81,140621,5,14,0:0:0:0:
65,40,140783,1,2,0:0:0:0:
7,119,140945,2,0,L|33:278,1,140,2|8,3:0|2:0,0:0:0:0:
66,346,141432,1,2,0:0:0:0:
157,381,141594,6,0,P|190:373|211:346,1,70,2|0,3:0|0:0,0:0:0:0:
219,248,141918,2,0,P|240:221|273:213,1,70,10|0,0:0|0:0,0:0:0:0:
351,273,142243,1,2,3:0:0:0:
424,337,142405,1,2,3:0:0:0:
506,284,142567,1,10,0:0:0:0:
440,99,142891,6,0,L|337:116,1,105,6|2,3:2|0:0,0:0:0:0:
293,92,143215,2,0,P|269:66|235:61,1,70,8|2,0:0|0:0,0:0:0:0:
149,109,143540,1,2,3:0:0:0:
185,199,143702,1,2,0:0:0:0:
103,253,143864,2,0,L|114:321,1,70,10|0,0:0|3:0,0:0:0:0:
225,381,144188,6,0,L|236:312,1,70,8|0,0:0|3:0,0:0:0:0:
318,258,144513,2,0,L|307:189,1,70,8|2,0:0|3:0,0:0:0:0:
305,178,144756,1,0,0:0:0:0:
303,167,144837,1,10,0:0:0:0:
356,85,144999,1,2,1:0:0:0:
451,108,145161,1,2,1:0:0:0:
465,205,145324,1,2,1:0:0:0:
470,214,145405,1,0,1:0:0:0:
475,222,145486,6,0,L|406:233,1,70,4|0,3:2|0:0,0:0:0:0:
325,289,145810,2,0,L|256:278,1,70,10|0,0:0|0:0,0:0:0:0:
173,330,146134,2,0,P|138:324|115:299,1,70,2|2,3:0|3:0,0:0:0:0:
114,201,146459,1,10,0:0:0:0:
12,126,146621,6,0,L|150:104,1,140,2|0,0:0|0:0,0:0:0:0:
222,37,147107,2,0,P|257:43|280:68,1,70,10|0,0:0|0:0,0:0:0:0:
375,44,147432,2,0,P|387:77|377:109,1,70,2|2,3:0|3:0,0:0:0:0:
303,172,147756,1,10,0:0:0:0:
387,264,147918,6,0,B|316:252|325:309|256:297,1,140,2|0,0:0|0:0,0:0:0:0:
184,229,148405,2,0,L|195:160,1,70,10|2,0:0|0:0,0:0:0:0:
121,94,148729,2,0,P|86:100|63:125,1,70,2|0,3:0|3:0,0:0:0:0:
33,217,149053,1,10,0:0:0:0:
160,366,149378,6,0,L|178:254,2,105,8|2|0,0:0|0:0|3:0,0:0:0:0:
256,383,150026,2,0,L|274:271,2,105,8|2|10,0:0|0:0|0:0,0:0:0:0:
379,354,150675,6,0,L|357:216,1,140,6|10,3:2|0:0,0:0:0:0:
407,131,151161,2,0,B|336:143|345:86|276:98,1,140,2|2,0:0|3:0,0:0:0:0:
179,80,151648,2,0,L|190:149,1,70,10|0,0:0|0:0,0:0:0:0:
210,273,151972,5,0,3:0:0:0:
15,278,152297,2,0,P|38:253|72:247,1,70,10|0,0:0|0:0,0:0:0:0:
152,303,152621,2,0,P|185:297|209:272,1,70,2|0,3:0|3:0,0:0:0:0:
300,308,152945,2,0,P|312:275|302:242,1,70,10|0,0:0|0:0,0:0:0:0:
223,144,153270,6,0,L|361:166,1,140,4|8,3:2|0:0,0:0:0:0:
452,214,153756,1,0,0:0:0:0:
452,214,153918,2,0,L|463:145,1,70,0|0,3:0|3:0,0:0:0:0:
422,55,154243,2,0,P|389:42|356:52,1,70,8|0,0:0|3:0,0:0:0:0:
245,110,154567,5,0,3:0:0:0:
175,41,154729,1,12,0:0:0:0:
97,101,154891,2,0,L|108:170,1,70,12|0,0:0|3:0,0:0:0:0:
54,252,155215,2,0,P|59:285|84:309,1,70,8|0,0:0|1:0,0:0:0:0:
174,349,155540,1,0,1:0:0:0:
250,287,155702,1,2,1:0:0:0:
257,294,155783,1,0,1:0:0:0:
265,301,155864,6,0,B|335:353|420:332|441:256|441:256|403:296|351:278,1,315.000012016297,2|2,3:0|0:0,0:0:0:0:
276,190,157161,2,0,L|290:83,1,105.000004005432,2|2,0:0|0:0,0:0:0:0:
175,49,157810,2,0,P|149:52|126:65,1,52.5000020027161,2|0,1:0|0:0,0:0:0:0:
42,67,158134,2,0,P|31:91|31:117,1,52.5000020027161,10|0,0:0|3:0,0:0:0:0:
72,190,158459,5,6,3:2:0:0:
109,38,168837,6,0,B|89:178|89:178|109:137|153:134,1,210,14|0,0:0|0:0,0:0:0:0:
186,238,169486,2,0,B|297:211|272:302|384:271,1,210,10|0,0:0|1:0,0:0:0:0:
465,194,170134,6,0,P|467:159|449:130,1,70,2|8,3:0|0:0,0:0:0:0:
355,68,170459,1,0,3:0:0:0:
265,272,170783,2,0,L|243:134,1,140,8|0,0:0|0:0,0:0:0:0:
157,62,171269,1,2,0:0:0:0:
147,58,171350,1,2,0:0:0:0:
136,54,171431,6,0,P|71:106|118:214,1,210,2|0,3:0|0:0,0:0:0:0:
154,315,172080,2,0,P|226:301|292:293,1,140,10|0,0:0|0:0,0:0:0:0:
395,338,172567,1,2,0:0:0:0:
403,343,172648,1,2,0:0:0:0:
412,347,172729,6,0,L|423:278,1,70,2|0,0:0|3:0,0:0:0:0:
386,172,173053,2,0,P|357:152|323:153,1,70,0|0,3:0|0:0,0:0:0:0:
220,197,173377,2,0,P|185:198|157:178,1,70,8|0,0:0|0:0,0:0:0:0:
124,85,173702,1,12,0:0:0:0:
208,35,173864,1,2,0:0:0:0:
218,37,173945,1,2,0:0:0:0:
228,39,174026,6,0,L|217:108,1,70,6|2,3:2|3:2,0:0:0:0:
310,169,174350,2,0,L|299:238,1,70,2|2,3:2|3:2,0:0:0:0:
238,333,174675,2,0,P|209:313|175:314,1,70,2|2,3:2|3:2,0:0:0:0:
78,370,174999,1,2,3:2:0:0:
10,280,175161,1,2,3:2:0:0:
13,270,175242,1,0,3:2:0:0:
16,260,175323,6,0,L|27:191,1,70,2|2,3:2|3:2,0:0:0:0:
114,119,175648,2,0,L|103:50,1,70,2|2,3:2|3:2,0:0:0:0:
203,1,175972,2,0,P|234:15|250:46,1,70,2|2,3:2|3:2,0:0:0:0:
329,125,176296,2,0,L|371:116,3,35,10|8|10|8,3:2|0:2|0:2|0:2,0:0:0:0:
419,111,176621,6,0,L|408:180,1,70,14|10,0:2|0:2,0:0:0:0:
411,291,176945,2,0,P|376:292|348:272,1,70,10|10,0:2|0:2,0:0:0:0:
250,326,177269,2,0,P|231:296|234:262,1,70,10|10,0:2|0:2,0:0:0:0:
304,174,177594,1,10,0:2:0:0:
237,84,177756,1,14,0:2:0:0:
140,140,177918,6,0,L|151:209,1,70,2|2,1:2|1:2,0:0:0:0:
153,219,178161,1,0,1:2:0:0:
155,229,178242,1,2,1:2:0:0:
90,320,178404,1,2,1:2:0:0:
4,246,178567,2,0,P|1:211|19:182,1,70,2|2,3:2|3:2,0:0:0:0:
0,72,178891,2,0,L|69:83,1,70,14|2,0:2|3:2,0:0:0:0:
179,102,179215,5,2,3:2:0:0:
256,192,179296,12,0,181810,0:0:0:0:
256,192,198675,5,10,0:0:0:0:
256,192,198837,1,8,0:0:0:0:
256,192,199323,2,0,L|245:123,1,70,2|0,0:0|0:0,0:0:0:0:
161,138,199648,2,0,L|172:207,1,70,2|0,0:0|0:0,0:0:0:0:
79,292,199972,6,0,L|217:314,1,140,4|10,3:2|0:0,0:0:0:0:
293,374,200458,1,2,0:0:0:0:
366,307,200621,2,0,P|368:272|350:243,1,70,2|0,3:0|3:0,0:0:0:0:
262,200,200945,2,0,P|243:170|246:136,1,70,8|2,0:0|0:0,0:0:0:0:
173,33,201269,6,0,L|242:44,1,70,2|0,3:0|0:0,0:0:0:0:
333,6,201594,2,0,L|402:17,1,70,10|0,0:0|0:0,0:0:0:0:
479,76,201918,1,2,3:0:0:0:
435,163,202080,1,2,3:0:0:0:
337,153,202242,1,10,0:0:0:0:
173,33,202567,6,0,L|162:102,1,70,6|2,3:2|0:0,0:0:0:0:
85,163,202891,2,0,P|150:148|192:199,1,140,10|0,0:0|3:0,0:0:0:0:
140,281,203377,1,0,3:0:0:0:
209,350,203540,2,0,L|278:339,1,70,8|0,0:0|0:0,0:0:0:0:
378,263,203864,6,0,P|380:228|362:199,1,70,2|0,3:0|0:0,0:0:0:0:
380,103,204188,2,0,P|351:83|317:84,1,70,10|0,0:0|0:0,0:0:0:0:
243,22,204513,2,0,P|211:36|195:67,1,70,2|0,3:0|3:0,0:0:0:0:
104,100,204837,2,0,P|101:134|119:163,1,70,10|8,0:0|0:0,0:0:0:0:
126,171,205080,1,0,1:0:0:0:
134,176,205161,5,0,3:0:0:0:
290,294,205486,1,14,0:0:0:0:
234,374,205648,1,2,0:0:0:0:
147,329,205810,2,0,L|167:187,1,140,2|8,0:0|2:0,0:0:0:0:
131,95,206296,1,2,0:0:0:0:
208,47,206458,6,0,P|242:45|270:65,1,70,2|0,3:0|0:0,0:0:0:0:
361,27,206783,2,0,P|379:56|376:90,1,70,10|0,0:0|0:0,0:0:0:0:
308,161,207107,1,2,3:0:0:0:
353,247,207269,1,2,3:0:0:0:
286,318,207431,1,10,0:0:0:0:
100,383,207756,6,0,L|117:280,1,105,2|2,3:0|0:0,0:0:0:0:
157,252,208080,2,0,L|146:183,1,70,12|2,0:0|0:0,0:0:0:0:
57,139,208404,1,2,3:0:0:0:
75,42,208567,1,2,3:0:0:0:
171,26,208729,2,0,P|205:24|233:44,1,70,14|0,0:0|3:0,0:0:0:0:
301,149,209053,6,0,P|328:169|363:167,1,70,12|0,0:0|3:0,0:0:0:0:
489,165,209377,2,0,P|457:179|442:209,1,70,0|2,1:0|3:0,0:0:0:0:
479,300,209702,1,10,0:0:0:0:
403,362,209864,1,10,0:0:0:0:
327,299,210026,2,0,L|332:264,3,35,2|0|10|8,1:0|1:0|0:0|0:0,0:0:0:0:
358,223,210350,6,0,L|347:154,1,70,4|0,3:2|0:0,0:0:0:0:
258,84,210675,2,0,P|223:80|195:99,1,70,10|0,0:0|0:0,0:0:0:0:
96,46,210999,2,0,P|75:73|77:108,1,70,10|2,0:0|3:0,0:0:0:0:
142,199,211323,1,10,0:0:0:0:
25,277,211486,6,0,L|163:299,1,140,2|0,3:0|0:0,0:0:0:0:
259,356,211972,2,0,L|270:287,1,70,10|0,0:0|0:0,0:0:0:0:
358,223,212296,2,0,L|347:154,1,70,10|2,0:0|3:0,0:0:0:0:
344,143,212540,1,0,1:0:0:0:
341,132,212621,1,10,0:0:0:0:
467,72,212783,6,0,B|501:114|501:114|467:192,1,140,2|0,3:0|0:0,0:0:0:0:
504,298,213269,2,0,L|435:287,1,70,10|2,0:0|0:0,0:0:0:0:
344,354,213594,2,0,L|275:343,1,70,10|0,0:0|3:0,0:0:0:0:
194,265,213918,2,0,P|192:230|212:202,1,70,10|0,0:0|3:0,0:0:0:0:
324,119,214242,6,0,L|231:103,1,93.3333333333333,12|8,0:0|0:0,0:0:0:0:
200,68,214567,2,0,L|107:83,1,93.3333333333333,8|8,0:0|0:0,0:0:0:0:
62,91,214891,2,0,P|31:124|34:170,1,93.3333333333333,0|0,1:0|1:0,0:0:0:0:
59,209,215215,1,0,1:0:0:0:
188,356,215540,6,0,L|326:334,1,140,6|10,3:2|0:0,0:0:0:0:
396,266,216026,2,0,P|411:201|359:158,1,140,2|2,0:0|3:0,0:0:0:0:
264,184,216513,2,0,P|229:185|201:165,1,70,10|0,0:0|0:0,0:0:0:0:
154,80,216837,5,0,3:0:0:0:
332,0,217161,2,0,L|321:69,1,70,10|0,0:0|0:0,0:0:0:0:
372,153,217486,2,0,L|361:222,1,70,2|0,3:0|3:0,0:0:0:0:
412,305,217810,2,0,P|384:325|349:323,1,70,10|0,0:0|0:0,0:0:0:0:
238,381,218134,6,0,L|227:312,1,70,4|8,3:2|0:0,0:0:0:0:
153,247,218458,2,0,L|164:178,1,70,8|8,0:0|0:0,0:0:0:0:
102,90,218783,1,8,0:0:0:0:
102,90,218945,1,8,0:0:0:0:
11,156,219107,2,0,P|38:176|73:174,1,70,8|8,0:0|0:0,0:0:0:0:
191,87,219431,6,0,B|253:78|253:78|284:96|284:96|342:87,1,157.500006008148,12|0,0:0|1:0,0:0:0:0:
353,87,219999,1,0,1:0:0:0:
363,86,220080,1,0,1:0:0:0:
433,148,220242,1,0,1:0:0:0:
378,224,220404,2,0,L|389:293,1,52.5000020027161,0|2,1:0|0:0,0:0:0:0:
482,345,220729,6,0,P|379:323|275:312,1,210,2|2,3:0|0:0,0:0:0:0:
186,219,222026,2,0,P|183:184|202:155,1,70,0|2,0:0|0:0,0:0:0:0:
397,112,222675,2,0,P|348:157|286:134,1,140,2|2,0:0|0:0,0:0:0:0:
140,2,223323,5,14,0:0:0:0:
11,149,223647,2,0,L|33:287,1,140,8|0,0:0|3:0,0:0:0:0:
108,349,224133,1,2,3:0:0:0:
183,287,224295,2,0,P|186:252|167:223,1,70,10|2,0:0|0:0,0:0:0:0:
98,117,224620,6,0,B|169:129|160:72|229:84,1,140,2|8,3:0|0:0,0:0:0:0:
409,9,225268,2,0,L|387:147,1,140,2|8,3:0|0:0,0:0:0:0:
451,221,225755,1,0,0:0:0:0:
364,312,225917,6,0,P|295:298|225:289,1,140,2|8,3:0|0:0,0:0:0:0:
143,344,226404,2,0,B|109:302|109:302|143:224,1,140,2|0,0:0|3:0,0:0:0:0:
227,172,226890,2,0,P|230:137|211:108,1,70,10|2,0:0|0:0,0:0:0:0:
107,38,227214,6,0,P|176:29|245:15,1,140,2|8,3:0|0:0,0:0:0:0:
336,51,227701,2,0,P|364:111|324:163,1,140,2|0,0:0|3:0,0:0:0:0:
227,172,228187,1,10,0:0:0:0:
194,265,228350,1,0,0:0:0:0:
198,274,228431,1,8,0:0:0:0:
202,283,228512,6,0,B|273:271|264:328|333:316,1,140,6|8,3:2|0:0,0:0:0:0:
409,376,228998,2,0,L|431:238,1,140,2|0,0:0|3:0,0:0:0:0:
378,154,229485,2,0,P|348:135|314:138,1,70,10|0,0:0|0:0,0:0:0:0:
227,172,229809,6,0,P|160:166|135:105,1,140,2|8,3:0|0:0,0:0:0:0:
2,250,230458,2,0,L|71:261,1,70,2|0,3:0|3:0,0:0:0:0:
138,331,230782,2,0,L|207:320,1,70,8|0,0:0|0:0,0:0:0:0:
317,381,231106,6,0,L|295:243,1,140,6|10,3:2|0:0,0:0:0:0:
227,172,231593,1,2,0:0:0:0:
281,90,231755,2,0,P|315:86|344:105,1,70,2|0,3:0|3:0,0:0:0:0:
385,193,232079,1,8,0:0:0:0:
201,264,232404,5,10,0:0:0:0:
129,197,232566,2,0,L|140:128,1,70,2|10,0:0|0:0,0:0:0:0:
53,81,232890,2,0,P|122:72|191:58,1,140,2|10,3:0|0:0,0:0:0:0:
280,17,233377,2,0,L|285:51,3,35,10|8|8|8,0:0|0:0|0:0|0:0,0:0:0:0:
295,99,233701,5,6,3:2:0:0:
224,185,233863,2,0,P|220:219|239:248,1,70,2|8,0:0|0:0,0:0:0:0:
299,342,234187,2,0,L|230:353,1,70,2|8,0:0|0:0,0:0:0:0:
143,280,234512,1,2,3:0:0:0:
67,362,234674,2,0,P|32:365|3:346,1,70,10|0,0:0|3:0,0:0:0:0:
2,234,234998,6,0,L|13:165,1,70,10|2,0:0|0:0,0:0:0:0:
70,68,235323,2,0,P|110:120|175:108,1,140,10|8,0:0|0:0,0:0:0:0:
252,26,235809,1,2,3:0:0:0:
344,88,235971,2,0,L|413:77,1,70,10|0,0:0|3:0,0:0:0:0:
507,179,236295,5,10,0:0:0:0:
427,258,236458,2,0,P|392:261|363:242,1,70,2|8,0:0|0:0,0:0:0:0:
268,184,236782,2,0,L|279:253,1,70,2|8,0:0|0:0,0:0:0:0:
210,341,237106,1,2,3:0:0:0:
113,284,237268,2,0,L|102:215,1,70,10|0,0:0|3:0,0:0:0:0:
20,137,237593,6,0,P|54:140|83:121,1,70,14|2,0:0|3:0,0:0:0:0:
110,13,237917,2,0,P|178:26|248:35,1,140,2|8,3:0|0:0,0:0:0:0:
359,21,238404,1,2,3:0:0:0:
369,18,238485,1,0,3:0:0:0:
379,14,238566,2,0,L|368:83,1,70,10|0,0:0|0:0,0:0:0:0:
487,155,238890,6,0,P|453:152|424:171,1,70,6|0,3:2|0:0,0:0:0:0:
371,269,239214,1,10,3:2:0:0:
274,211,239377,2,0,B|203:199|212:256|143:244,1,140,2|2,3:2|3:2,0:0:0:0:
34,272,239863,2,0,L|23:203,1,70,10|0,3:2|3:0,0:0:0:0:
8,91,240187,5,8,3:2:0:0:
217,11,240512,2,0,P|235:39|232:73,1,70,10|0,3:2|3:0,0:0:0:0:
326,135,240836,2,0,P|310:165|279:180,1,70,10|0,3:2|3:0,0:0:0:0:
167,177,241160,2,0,L|172:211,3,35,10|8|8|8,3:2|0:0|0:0|0:0,0:0:0:0:
213,251,241485,6,0,L|202:320,1,70,4|8,0:2|0:0,0:0:0:0:
311,341,241809,2,0,L|322:272,1,70,8|8,0:0|0:0,0:0:0:0:
417,211,242133,1,8,0:0:0:0:
417,211,242295,1,8,0:0:0:0:
349,120,242458,1,8,0:0:0:0:
443,59,242620,1,4,3:2:0:0:
443,59,244079,5,6,3:2:0:0:
256,192,244160,12,6,249106,0:0:0:0:
