osu file format v14

[General]
AudioFilename: audio.mp3
AudioLeadIn: 0
PreviewTime: 59986
Countdown: 0
SampleSet: Soft
StackLeniency: 0.7
Mode: 3
LetterboxInBreaks: 0
SpecialStyle: 0
WidescreenStoryboard: 1

[Editor]
DistanceSpacing: 2.2
BeatDivisor: 6
GridSize: 32
TimelineZoom: 2.999999

[Metadata]
Title:Careless (TV Size)
TitleUnicode:ケアレス (TV Size)
Artist:ClariS
ArtistUnicode:ClariS
Creator:Syrion-
Version:Virtue's Magical Voice
Source:マギアレコード 魔法少女まどか☆マギカ外伝 2nd SEASON -覚醒前夜-
Tags:virtue- heru20 Magia Record: Puella Magi Madoka*Magica Side Story Kakusei zenya magiarekodo mahou shoujo gaiden op opening japanese jpop j-pop pop anime クラリス Clara クララ Karen カレン 湯浅篤 Atsushi Yuasa 渡辺翔 sho watanabe
BeatmapID:3203277
BeatmapSetID:1555025

[Difficulty]
HPDrainRate:8.5
CircleSize:7
OverallDifficulty:8
ApproachRate:5
SliderMultiplier:1.4
SliderTickRate:1

[Events]
//Background and Video events
0,0,"Careless (TV Size).jpg",0,0
Video,0,"Careless (TV Size).mp4"
//Break Periods
//Storyboard Layer 0 (Background)
//Storyboard Layer 1 (Fail)
//Storyboard Layer 2 (Pass)
//Storyboard Layer 3 (Foreground)
//Storyboard Layer 4 (Overlay)
//Storyboard Sound Samples

[TimingPoints]
311,324.324324324324,4,2,2,70,1,0
53500,315.789473684211,4,2,2,70,1,0
53500,-103.092783505155,4,2,2,70,0,0
54763,334.280461307037,4,2,2,70,1,0
54763,-97.0873786407767,4,2,2,70,0,0
56768,312.01248049922,4,2,2,70,1,0
56768,-104.166666666667,4,2,2,70,0,0
57392,324.324324324324,4,2,2,70,1,0
59986,-100,4,2,2,70,0,1
79446,-100,4,2,2,70,0,0

[HitObjects]
36,192,311,1,0,0:0:0:0:
109,192,311,128,0,473:0:0:0:0:
475,192,311,128,0,473:0:0:0:0:
182,192,473,128,0,635:0:0:0:0:
256,192,635,128,0,797:0:0:0:0:
329,192,797,128,0,959:0:0:0:0:
36,192,959,1,0,0:0:0:0:
402,192,959,128,0,1283:0:0:0:0:
475,192,959,128,0,1283:0:0:0:0:
36,192,1283,128,0,1446:0:0:0:0:
182,192,1283,128,0,1446:0:0:0:0:
329,192,1283,1,0,0:0:0:0:
256,192,1446,128,0,1608:0:0:0:0:
329,192,1608,128,0,1770:0:0:0:0:
36,192,1770,128,0,2094:0:0:0:0:
402,192,1770,128,0,2094:0:0:0:0:
475,192,1770,1,0,0:0:0:0:
109,192,2094,1,0,0:0:0:0:
182,192,2094,128,0,2256:0:0:0:0:
256,192,2094,128,0,2256:0:0:0:0:
329,192,2256,128,0,2419:0:0:0:0:
402,192,2419,128,0,2581:0:0:0:0:
329,192,2581,128,0,2743:0:0:0:0:
256,192,2743,128,0,2905:0:0:0:0:
36,192,2905,128,0,3067:0:0:0:0:
182,192,2905,128,0,3067:0:0:0:0:
475,192,2905,1,0,0:0:0:0:
109,192,3067,128,0,3229:0:0:0:0:
182,192,3229,128,0,3392:0:0:0:0:
256,192,3392,128,0,3554:0:0:0:0:
36,192,3554,1,0,0:0:0:0:
329,192,3554,128,0,3878:0:0:0:0:
402,192,3554,128,0,3878:0:0:0:0:
36,192,3878,1,0,0:0:0:0:
109,192,3878,128,0,4040:0:0:0:0:
182,192,3878,128,0,4040:0:0:0:0:
256,192,4040,128,0,4202:0:0:0:0:
329,192,4202,128,0,4365:0:0:0:0:
36,192,4365,128,0,4689:0:0:0:0:
109,192,4365,128,0,4689:0:0:0:0:
402,192,4365,128,0,4689:0:0:0:0:
475,192,4365,128,0,4689:0:0:0:0:
329,192,4689,128,0,4770:0:0:0:0:
256,192,4770,128,0,4851:0:0:0:0:
36,192,4851,1,2,0:0:0:0:
182,192,4851,128,8,4932:0:0:0:0:
402,192,4851,1,0,0:0:0:0:
475,192,4851,1,0,0:0:0:0:
109,192,5013,1,2,0:0:0:0:
256,192,5013,128,0,5094:0:0:0:0:
182,192,5175,1,0,0:0:0:70:Tom3.wav
329,192,5175,128,0,5256:0:0:0:0:
36,192,5338,1,4,0:0:0:0:
109,192,5338,1,2,0:0:0:0:
256,192,5338,1,8,0:0:0:0:
402,192,5338,128,0,6148:0:0:0:0:
475,192,5338,1,0,0:0:0:0:
109,192,5662,1,2,0:0:0:0:
182,192,5662,1,0,0:0:0:0:
329,192,5662,1,0,0:0:0:0:
36,192,5824,1,8,0:0:0:0:
182,192,5824,1,0,0:0:0:0:
256,192,5824,1,0,0:0:0:0:
36,192,6148,128,2,6635:0:0:0:0:
182,192,6148,1,0,0:0:0:0:
329,192,6148,1,0,0:0:0:0:
109,192,6310,1,2,0:0:0:0:
256,192,6310,1,0,0:0:0:0:
402,192,6310,1,0,0:0:0:0:
182,192,6473,1,8,0:0:0:0:
329,192,6473,1,0,0:0:0:0:
475,192,6473,1,0,0:0:0:0:
109,192,6635,1,2,0:0:0:0:
256,192,6635,1,4,0:0:0:0:
329,192,6635,1,8,0:0:0:0:
402,192,6635,1,0,0:0:0:0:
475,192,6635,128,0,7283:0:0:0:0:
36,192,6959,1,2,0:0:0:0:
182,192,6959,1,0,0:0:0:0:
256,192,6959,1,0,0:0:0:0:
109,192,7121,1,8,0:0:0:0:
329,192,7121,1,0,0:0:0:0:
402,192,7121,1,0,0:0:0:0:
36,192,7446,1,2,0:0:0:0:
182,192,7446,1,0,0:0:0:0:
256,192,7446,128,0,7932:0:0:0:0:
109,192,7608,1,8,0:0:0:0:
402,192,7608,1,0,0:0:0:0:
475,192,7608,1,0,0:0:0:0:
109,192,7770,1,8,0:0:0:0:
402,192,7770,1,0,0:0:0:0:
475,192,7770,1,0,0:0:0:0:
36,192,7932,1,2,0:0:0:0:
109,192,7932,128,4,8581:0:0:0:0:
182,192,7932,1,8,0:0:0:0:
329,192,7932,1,0,0:0:0:0:
475,192,7932,1,0,0:0:0:0:
182,192,8256,1,2,0:0:0:0:
256,192,8256,1,0,0:0:0:0:
402,192,8256,1,0,0:0:0:0:
36,192,8419,1,8,0:0:0:0:
329,192,8419,1,0,0:0:0:0:
475,192,8419,1,0,0:0:0:0:
256,192,8581,128,0,8662:0:0:0:0:
329,192,8662,128,0,8743:0:0:0:0:
36,192,8743,1,2,0:0:0:0:
182,192,8743,1,0,0:0:0:0:
402,192,8743,128,0,9229:0:0:0:0:
109,192,8905,1,2,0:0:0:0:
256,192,8905,1,0,0:0:0:0:
182,192,9067,1,2,0:0:0:0:
329,192,9067,1,0,0:0:0:0:
36,192,9229,1,2,0:0:0:0:
109,192,9229,1,4,0:0:0:0:
182,192,9229,128,8,10040:0:0:0:0:
256,192,9229,1,0,0:0:0:0:
475,192,9229,1,0,0:0:0:0:
109,192,9554,1,2,0:0:0:0:
329,192,9554,1,0,0:0:0:0:
402,192,9554,1,0,0:0:0:0:
36,192,9716,1,8,0:0:0:0:
256,192,9716,1,0,0:0:0:0:
475,192,9716,1,0,0:0:0:0:
36,192,9878,1,2,0:0:0:0:
109,192,9878,1,4,0:0:0:0:
329,192,9878,1,0,0:0:0:0:
402,192,9878,1,0,0:0:0:0:
475,192,10040,128,0,10446:0:0:0:0:
36,192,10202,128,2,10283:0:0:0:0:
256,192,10202,128,0,10283:0:0:0:0:
109,192,10283,128,0,10365:0:0:0:0:
329,192,10283,128,0,10365:0:0:0:0:
182,192,10365,128,8,10446:0:0:0:0:
402,192,10365,128,0,10446:0:0:0:0:
36,192,10446,128,0,10527:0:0:0:0:
256,192,10446,128,0,10527:0:0:0:0:
109,192,10527,128,0,10608:0:0:0:0:
329,192,10527,128,0,10608:0:0:0:0:
182,192,10608,128,0,10689:0:0:0:0:
402,192,10608,128,0,10689:0:0:0:0:
36,192,10689,128,2,11338:0:0:0:0:
109,192,10689,1,4,0:0:0:0:
256,192,10689,1,0,0:0:0:0:
329,192,10689,1,0,0:0:0:0:
475,192,10689,1,0,0:0:0:0:
182,192,11013,1,8,0:0:0:0:
402,192,11013,1,0,0:0:0:0:
475,192,11013,1,0,0:0:0:0:
329,192,11338,128,0,11986:0:0:0:0:
36,192,11500,1,2,0:0:0:0:
182,192,11500,1,0,0:0:0:0:
475,192,11500,1,0,0:0:0:0:
109,192,11662,1,8,0:0:0:0:
256,192,11662,1,0,0:0:0:0:
402,192,11662,1,0,0:0:0:0:
36,192,11986,1,2,0:0:0:0:
109,192,11986,128,0,12635:0:0:0:0:
475,192,11986,1,0,0:0:0:0:
182,192,12310,1,8,0:0:0:0:
256,192,12310,1,0,0:0:0:0:
475,192,12310,1,0,0:0:0:0:
36,192,12473,1,2,0:0:0:0:
329,192,12473,1,0,0:0:0:0:
475,192,12473,1,0,0:0:0:0:
256,192,12635,128,0,13283:0:0:0:0:
109,192,12797,1,2,0:0:0:0:
182,192,12797,1,0,0:0:0:0:
475,192,12797,1,0,0:0:0:0:
36,192,12959,1,8,0:0:0:0:
329,192,12959,1,0,0:0:0:0:
475,192,12959,1,0,0:0:0:0:
36,192,13283,1,2,0:0:0:0:
109,192,13283,1,4,0:0:0:0:
329,192,13283,1,0,0:0:0:0:
402,192,13283,1,0,0:0:0:0:
475,192,13283,128,0,13608:0:0:0:0:
36,192,13608,1,8,0:0:0:0:
109,192,13608,1,0,0:0:0:0:
182,192,13608,1,0,0:0:0:0:
329,192,13608,1,0,0:0:0:0:
36,192,13770,128,0,14338:0:0:0:0:
256,192,13770,1,0,0:0:0:0:
182,192,14094,128,2,14175:0:0:0:0:
329,192,14094,128,0,14175:0:0:0:0:
475,192,14094,1,0,0:0:0:0:
109,192,14256,1,8,0:0:0:0:
256,192,14256,128,0,14338:0:0:0:0:
402,192,14256,128,0,14338:0:0:0:0:
182,192,14419,1,2,0:0:0:0:
329,192,14419,128,0,15067:0:0:0:0:
475,192,14419,128,0,15067:0:0:0:0:
36,192,14581,1,2,0:0:0:0:
109,192,14581,1,0,0:0:0:0:
256,192,14581,1,0,0:0:0:0:
36,192,14743,1,8,0:0:0:0:
109,192,14743,1,4,0:0:0:0:
182,192,14743,1,0,0:0:0:0:
402,192,14743,1,0,0:0:0:0:
36,192,15067,1,2,0:0:0:0:
256,192,15067,128,0,15148:0:0:0:0:
182,192,15148,128,0,15229:0:0:0:0:
109,192,15229,128,8,15878:0:0:0:0:
329,192,15229,1,0,0:0:0:0:
402,192,15229,1,0,0:0:0:0:
256,192,15392,1,0,0:0:0:70:Tom2.wav
475,192,15392,1,0,0:0:0:0:
182,192,15554,1,0,0:0:0:70:Tom1.wav
402,192,15554,1,0,0:0:0:0:
329,192,15716,1,0,0:0:0:70:Tom1.wav
475,192,15716,1,0,0:0:0:0:
36,192,15878,1,2,0:0:0:0:
182,192,15878,128,4,15986:0:0:0:0:
256,192,15878,1,0,0:0:0:0:
402,192,15878,128,0,15986:0:0:0:0:
475,192,15878,1,0,0:0:0:0:
109,192,15986,128,0,16094:0:0:0:0:
329,192,15986,128,0,16094:0:0:0:0:
36,192,16094,128,8,16202:0:0:0:0:
256,192,16094,128,0,16202:0:0:0:0:
109,192,16202,128,8,16310:0:0:0:0:
329,192,16202,128,0,16310:0:0:0:0:
182,192,16310,128,8,16419:0:0:0:0:
402,192,16310,128,0,16419:0:0:0:0:
256,192,16419,128,8,16527:0:0:0:0:
475,192,16419,128,0,16527:0:0:0:0:
36,192,16527,128,0,16635:0:0:0:70:Tom1.wav
329,192,16527,128,0,16635:0:0:0:0:
109,192,16635,128,0,16743:0:0:0:70:Tom1.wav
402,192,16635,128,0,16743:0:0:0:0:
182,192,16743,128,0,16851:0:0:0:70:Tom1.wav
475,192,16743,128,0,16851:0:0:0:0:
36,192,16851,128,0,16959:0:0:0:70:Tom2.wav
256,192,16851,128,0,16959:0:0:0:0:
109,192,16959,128,0,17067:0:0:0:70:Tom2.wav
329,192,16959,128,0,17067:0:0:0:0:
182,192,17067,128,0,17175:0:0:0:70:Tom2.wav
402,192,17067,128,0,17175:0:0:0:0:
36,192,17175,1,4,0:0:0:0:
109,192,17175,1,8,0:0:0:0:
256,192,17175,1,0,0:0:0:0:
329,192,17175,1,0,0:0:0:0:
475,192,17175,1,0,0:0:0:0:
36,192,17338,1,8,0:0:0:0:
109,192,17338,1,4,0:0:0:0:
256,192,17338,1,0,0:0:0:0:
329,192,17338,1,0,0:0:0:0:
475,192,17338,1,0,0:0:0:0:
256,192,17662,128,0,17743:0:0:0:0:
329,192,17743,128,0,17824:0:0:0:0:
109,192,17824,128,0,17986:0:0:0:0:
402,192,17824,128,0,18473:0:0:0:0:
475,192,17824,128,0,18148:0:0:0:0:
182,192,17986,128,0,18148:0:0:0:0:
36,192,18148,128,0,18473:0:0:0:0:
256,192,18148,128,0,18310:0:0:0:0:
329,192,18310,128,0,18473:0:0:0:0:
109,192,18473,1,2,0:0:0:0:
182,192,18473,1,4,0:0:0:0:
256,192,18473,1,0,0:0:0:70:tick.wav.wav
475,192,18473,1,0,0:0:0:0:
36,192,18797,1,0,0:0:0:70:tick.wav.wav
36,192,19121,1,0,0:0:0:70:tick.wav.wav
475,192,19121,128,0,19283:0:0:0:0:
402,192,19283,128,0,19446:0:0:0:0:
36,192,19446,1,0,0:0:0:70:tick.wav.wav
329,192,19446,128,0,19608:0:0:0:0:
256,192,19608,128,0,19770:0:0:0:0:
36,192,19770,1,0,0:0:0:70:tick.wav.wav
182,192,19770,128,0,19932:0:0:0:0:
109,192,19932,128,0,20094:0:0:0:0:
36,192,20094,1,0,0:0:0:70:tick.wav.wav
475,192,20094,128,0,20419:0:0:0:0:
36,192,20419,1,0,0:0:0:70:tick.wav.wav
329,192,20581,128,0,21067:0:0:0:0:
36,192,20743,1,0,0:0:0:70:tick.wav.wav
475,192,20743,128,0,21067:0:0:0:0:
109,192,20905,1,2,0:0:0:0:
182,192,21067,1,2,0:0:0:0:
402,192,21067,128,0,21392:0:0:0:70:tick.wav.wav
182,192,21392,1,0,0:0:0:70:tick.wav.wav
256,192,21392,128,0,21554:0:0:0:0:
329,192,21554,128,0,21716:0:0:0:0:
182,192,21716,1,0,0:0:0:70:tick.wav.wav
402,192,21716,128,0,21878:0:0:0:0:
475,192,21878,128,0,22040:0:0:0:0:
36,192,22040,128,0,22365:0:0:0:70:tick.wav.wav
182,192,22040,1,0,0:0:0:0:
182,192,22365,1,0,0:0:0:70:tick.wav.wav
182,192,22689,1,0,0:0:0:70:tick.wav.wav
329,192,22851,128,0,23013:0:0:0:0:
182,192,23013,1,0,0:0:0:70:tick.wav.wav
402,192,23013,128,0,23175:0:0:0:0:
475,192,23175,128,0,23662:0:0:0:0:
182,192,23338,1,0,0:0:0:70:tick.wav.wav
256,192,23500,1,2,0:0:0:0:
36,192,23662,1,2,0:0:0:0:
109,192,23662,128,4,23824:0:0:0:0:
329,192,23662,1,0,0:0:0:70:tick.wav.wav
182,192,23824,128,0,23986:0:0:0:0:
256,192,23986,128,0,24148:0:0:0:70:tick.wav.wav
329,192,23986,1,0,0:0:0:0:
182,192,24148,128,0,24310:0:0:0:0:
109,192,24310,128,0,24473:0:0:0:70:tick.wav.wav
329,192,24310,1,0,0:0:0:0:
36,192,24473,128,0,24635:0:0:0:0:
329,192,24635,1,0,0:0:0:70:tick.wav.wav
475,192,24635,128,0,24959:0:0:0:0:
329,192,24959,1,0,0:0:0:70:tick.wav.wav
36,192,25283,128,0,25446:0:0:0:70:tick.wav.wav
329,192,25283,1,0,0:0:0:0:
109,192,25446,128,0,25608:0:0:0:0:
182,192,25608,128,0,25770:0:0:0:70:tick.wav.wav
329,192,25608,1,0,0:0:0:0:
256,192,25770,128,0,25932:0:0:0:0:
36,192,25932,128,2,26256:0:0:0:0:
329,192,25932,1,0,0:0:0:70:tick.wav.wav
402,192,26094,1,2,0:0:0:0:
109,192,26256,1,2,0:0:0:0:
182,192,26256,1,4,0:0:0:0:
475,192,26256,1,0,0:0:0:70:tick.wav.wav
329,192,26581,128,0,26662:0:0:0:70:tick.wav.wav
475,192,26581,1,0,0:0:0:0:
256,192,26743,128,0,26824:0:0:0:0:
182,192,26905,128,0,26986:0:0:0:70:tick.wav.wav
475,192,26905,1,0,0:0:0:0:
109,192,27067,128,0,27148:0:0:0:0:
36,192,27229,128,0,27310:0:0:0:70:tick.wav.wav
475,192,27229,1,0,0:0:0:0:
109,192,27392,128,0,27473:0:0:0:0:
182,192,27554,128,0,27635:0:0:0:70:tick.wav.wav
475,192,27554,1,0,0:0:0:0:
256,192,27716,128,0,27797:0:0:0:0:
329,192,27878,128,0,27959:0:0:0:70:tick.wav.wav
475,192,27878,1,0,0:0:0:0:
36,192,28040,1,8,0:0:0:0:
256,192,28040,1,0,0:0:0:0:
402,192,28040,128,0,28121:0:0:0:0:
109,192,28121,1,8,0:0:0:0:
329,192,28121,1,0,0:0:0:0:
182,192,28202,1,8,0:0:0:0:
402,192,28202,1,2,0:0:0:0:
475,192,28202,128,0,28770:0:0:0:0:
36,192,28365,128,2,28770:0:0:0:0:
109,192,28365,1,0,0:0:0:0:
256,192,28365,1,0,0:0:0:0:
36,192,28851,1,4,0:0:0:0:
109,192,28851,1,0,0:0:0:0:
329,192,28851,1,0,0:0:0:0:
475,192,28851,1,0,0:0:0:0:
36,192,29175,1,8,0:0:0:0:
109,192,29175,1,0,0:0:0:0:
182,192,29175,1,0,0:0:0:0:
402,192,29175,1,0,0:0:0:0:
256,192,29338,1,0,0:0:0:0:
475,192,29500,128,0,29662:0:0:0:0:
36,192,29662,1,2,0:0:0:0:
182,192,29662,1,0,0:0:0:0:
402,192,29662,128,0,29824:0:0:0:0:
109,192,29824,1,8,0:0:0:0:
256,192,29824,1,0,0:0:0:0:
329,192,29824,128,0,29986:0:0:0:0:
475,192,29824,1,0,0:0:0:0:
36,192,29986,128,0,30635:0:0:0:0:
182,192,29986,128,0,30067:0:0:0:0:
182,192,30148,128,2,30310:0:0:0:0:
329,192,30148,1,0,0:0:0:0:
402,192,30148,1,0,0:0:0:0:
256,192,30310,128,0,30473:0:0:0:0:
182,192,30473,1,8,0:0:0:0:
329,192,30473,128,0,30797:0:0:0:0:
402,192,30473,1,0,0:0:0:0:
475,192,30473,1,0,0:0:0:0:
109,192,30635,128,0,31121:0:0:0:0:
256,192,30797,1,0,0:0:0:0:
182,192,30959,128,2,31121:0:0:0:0:
402,192,30959,1,0,0:0:0:0:
475,192,30959,1,0,0:0:0:0:
36,192,31121,1,8,0:0:0:0:
256,192,31121,1,0,0:0:0:0:
329,192,31121,1,0,0:0:0:0:
402,192,31121,128,0,31446:0:0:0:0:
109,192,31283,1,2,0:0:0:0:
182,192,31283,1,0,0:0:0:0:
475,192,31283,1,0,0:0:0:0:
36,192,31446,128,2,31932:0:0:0:0:
256,192,31446,128,0,31608:0:0:0:0:
329,192,31446,1,0,0:0:0:0:
182,192,31608,128,0,31770:0:0:0:0:
109,192,31770,128,8,31932:0:0:0:0:
329,192,31770,1,0,0:0:0:0:
402,192,31770,1,0,0:0:0:0:
475,192,31770,1,0,0:0:0:0:
182,192,31932,128,0,32094:0:0:0:0:
475,192,31932,128,0,32419:0:0:0:0:
256,192,32094,128,0,32256:0:0:0:0:
36,192,32256,1,2,0:0:0:0:
182,192,32256,1,0,0:0:0:0:
329,192,32256,128,0,32419:0:0:0:0:
36,192,32419,1,8,0:0:0:0:
109,192,32419,128,0,32743:0:0:0:0:
256,192,32419,128,0,32743:0:0:0:0:
402,192,32419,1,0,0:0:0:0:
329,192,32581,1,0,0:0:0:0:
36,192,32743,1,2,0:0:0:0:
402,192,32743,1,0,0:0:0:0:
475,192,32743,128,0,33229:0:0:0:0:
182,192,32905,1,0,0:0:0:0:
109,192,33067,1,8,0:0:0:0:
256,192,33067,1,0,0:0:0:0:
402,192,33067,1,0,0:0:0:0:
36,192,33229,128,0,33392:0:0:0:0:
109,192,33392,128,0,33554:0:0:0:0:
475,192,33473,1,0,0:0:0:0:
36,192,33554,1,2,0:0:0:0:
182,192,33554,128,0,33716:0:0:0:0:
329,192,33554,1,0,0:0:0:0:
109,192,33716,1,8,0:0:0:0:
256,192,33716,128,0,33878:0:0:0:0:
402,192,33716,1,0,0:0:0:0:
475,192,33716,1,0,0:0:0:0:
36,192,33878,1,2,0:0:0:0:
182,192,33878,1,0,0:0:0:0:
329,192,33878,128,0,34040:0:0:0:0:
36,192,34040,128,2,34527:0:0:0:0:
109,192,34040,1,4,0:0:0:0:
256,192,34040,1,0,0:0:0:0:
402,192,34040,1,0,0:0:0:0:
475,192,34040,1,0,0:0:0:0:
329,192,34202,1,0,0:0:0:0:
109,192,34365,1,8,0:0:0:0:
182,192,34365,1,0,0:0:0:0:
475,192,34365,1,0,0:0:0:0:
256,192,34527,128,0,34689:0:0:0:0:
402,192,34527,128,0,35013:0:0:0:0:
36,192,34689,128,0,34851:0:0:0:0:
109,192,34851,128,2,35013:0:0:0:0:
256,192,34851,1,0,0:0:0:0:
329,192,34851,1,0,0:0:0:0:
36,192,35013,1,8,0:0:0:0:
182,192,35013,128,0,35175:0:0:0:0:
329,192,35013,1,0,0:0:0:0:
475,192,35013,1,0,0:0:0:0:
256,192,35175,128,0,35338:0:0:0:0:
36,192,35338,1,2,0:0:0:0:
329,192,35338,128,4,35824:0:0:0:0:
475,192,35338,1,0,0:0:0:0:
182,192,35500,1,0,0:0:0:0:
109,192,35662,128,8,35986:0:0:0:0:
256,192,35662,1,0,0:0:0:0:
402,192,35662,1,0,0:0:0:0:
475,192,35662,1,0,0:0:0:0:
36,192,35824,128,0,36310:0:0:0:0:
475,192,35986,128,0,36148:0:0:0:0:
109,192,36148,1,2,0:0:0:0:
256,192,36148,1,0,0:0:0:0:
402,192,36148,128,0,36310:0:0:0:0:
182,192,36310,1,8,0:0:0:0:
329,192,36310,128,0,36473:0:0:0:0:
475,192,36310,1,0,0:0:0:0:
36,192,36473,1,2,0:0:0:0:
109,192,36473,1,0,0:0:0:0:
256,192,36473,128,0,37770:0:0:0:0:
36,192,36635,128,2,36797:0:0:0:0:
182,192,36635,1,4,0:0:0:0:
402,192,36635,1,0,0:0:0:0:
475,192,36635,1,0,0:0:0:0:
109,192,36797,128,0,36959:0:0:0:0:
36,192,36959,1,8,0:0:0:0:
182,192,36959,128,0,37121:0:0:0:0:
402,192,36959,1,0,0:0:0:0:
475,192,36959,1,0,0:0:0:0:
329,192,37121,128,0,37283:0:0:0:0:
36,192,37283,1,2,0:0:0:0:
402,192,37283,128,0,37446:0:0:0:0:
109,192,37446,1,2,0:0:0:0:
475,192,37446,128,0,37608:0:0:0:0:
36,192,37608,128,8,37770:0:0:0:0:
182,192,37608,1,0,0:0:0:0:
402,192,37608,1,0,0:0:0:0:
109,192,37770,1,2,0:0:0:0:
329,192,37770,1,4,0:0:0:0:
402,192,37770,1,0,0:0:0:0:
475,192,37770,1,0,0:0:0:0:
475,192,38094,1,0,0:0:0:0:
402,192,38135,1,0,0:0:0:0:
329,192,38175,1,0,0:0:0:0:
256,192,38216,1,0,0:0:0:0:
182,192,38256,1,8,0:0:0:0:
109,192,38297,1,0,0:0:0:0:
36,192,38338,1,0,0:0:0:0:
475,192,38378,1,0,0:0:0:0:
402,192,38419,1,0,0:0:0:70:Tom1.wav
329,192,38459,1,0,0:0:0:0:
256,192,38500,1,0,0:0:0:0:
36,192,38540,1,0,0:0:0:0:
109,192,38581,1,0,0:0:0:70:Tom2.wav
182,192,38621,1,0,0:0:0:0:
256,192,38662,1,0,0:0:0:0:
329,192,38702,1,0,0:0:0:0:
402,192,38743,1,2,0:0:0:0:
475,192,38783,1,0,0:0:0:0:
36,192,38824,1,0,0:0:0:0:
109,192,38865,1,0,0:0:0:0:
182,192,38905,1,8,0:0:0:0:
256,192,38946,1,0,0:0:0:0:
475,192,38986,1,0,0:0:0:0:
402,192,39027,1,0,0:0:0:0:
329,192,39067,1,2,0:0:0:0:
256,192,39108,1,0,0:0:0:0:
182,192,39148,1,0,0:0:0:0:
109,192,39189,1,0,0:0:0:0:
36,192,39229,128,4,39310:0:0:0:0:
402,192,39229,128,8,39310:0:0:0:0:
475,192,39229,128,0,39310:0:0:0:0:
109,192,39392,128,4,39473:0:0:0:0:
402,192,39392,128,8,39473:0:0:0:0:
475,192,39392,128,0,39473:0:0:0:0:
182,192,39554,128,4,39635:0:0:0:0:
402,192,39554,128,8,39635:0:0:0:0:
475,192,39554,128,0,39635:0:0:0:0:
256,192,39716,128,4,39797:0:0:0:0:
402,192,39716,128,8,39797:0:0:0:0:
475,192,39716,128,0,39797:0:0:0:0:
36,192,39878,1,2,0:0:0:0:
329,192,39878,128,0,40202:0:0:0:0:
475,192,39878,1,0,0:0:0:0:
109,192,40040,1,0,0:0:0:0:
36,192,40202,128,2,40527:0:0:0:0:
182,192,40202,1,0,0:0:0:0:
475,192,40202,1,0,0:0:0:0:
256,192,40365,1,8,0:0:0:0:
402,192,40365,1,0,0:0:0:0:
182,192,40446,1,8,0:0:0:0:
329,192,40446,1,0,0:0:0:0:
109,192,40527,1,2,0:0:0:0:
256,192,40527,1,8,0:0:0:0:
475,192,40527,128,0,40689:0:0:0:0:
402,192,40689,128,0,40851:0:0:0:0:
36,192,40851,1,2,0:0:0:0:
256,192,40851,1,0,0:0:0:0:
329,192,40851,128,0,41013:0:0:0:0:
109,192,41013,128,8,41338:0:0:0:0:
182,192,41013,1,0,0:0:0:0:
475,192,41013,1,0,0:0:0:0:
256,192,41175,1,2,0:0:0:0:
402,192,41175,1,0,0:0:0:0:
182,192,41338,128,2,41500:0:0:0:0:
475,192,41338,1,0,0:0:0:0:
36,192,41500,1,2,0:0:0:0:
256,192,41500,128,0,41662:0:0:0:0:
329,192,41662,128,2,41905:0:0:0:0:
402,192,41662,1,0,0:0:0:0:
36,192,41824,128,8,41905:0:0:0:0:
109,192,41824,128,4,41905:0:0:0:0:
475,192,41824,128,0,41905:0:0:0:0:
36,192,41986,128,8,42067:0:0:0:0:
109,192,41986,128,4,42067:0:0:0:0:
402,192,41986,128,0,42067:0:0:0:0:
36,192,42148,128,8,42229:0:0:0:0:
109,192,42148,128,4,42229:0:0:0:0:
329,192,42148,128,0,42229:0:0:0:0:
36,192,42310,128,8,42392:0:0:0:0:
109,192,42310,128,4,42392:0:0:0:0:
256,192,42310,128,0,42392:0:0:0:0:
36,192,42473,1,2,0:0:0:0:
182,192,42473,128,0,42797:0:0:0:0:
402,192,42473,1,0,0:0:0:0:
329,192,42635,1,0,0:0:0:0:
36,192,42797,1,2,0:0:0:0:
256,192,42797,1,0,0:0:0:0:
402,192,42797,128,0,43121:0:0:0:0:
109,192,42959,1,8,0:0:0:0:
182,192,42959,1,0,0:0:0:0:
256,192,43040,1,8,0:0:0:0:
36,192,43121,1,2,0:0:0:0:
329,192,43121,128,8,43283:0:0:0:0:
475,192,43121,1,0,0:0:0:0:
256,192,43283,128,0,43446:0:0:0:0:
36,192,43446,1,2,0:0:0:0:
182,192,43446,128,0,43770:0:0:0:0:
475,192,43446,1,0,0:0:0:0:
109,192,43608,1,8,0:0:0:0:
256,192,43608,1,0,0:0:0:0:
329,192,43608,1,0,0:0:0:0:
475,192,43662,128,0,43770:0:0:0:0:
36,192,43770,1,2,0:0:0:0:
109,192,43770,1,0,0:0:0:0:
402,192,43770,128,0,43878:0:0:0:0:
329,192,43878,128,0,43986:0:0:0:0:
36,192,43932,1,8,0:0:0:0:
182,192,43932,1,0,0:0:0:0:
475,192,43932,1,0,0:0:0:0:
256,192,43986,128,0,44094:0:0:0:0:
182,192,44094,128,2,44202:0:0:0:0:
402,192,44094,1,0,0:0:0:0:
475,192,44094,1,0,0:0:0:0:
109,192,44202,128,0,44310:0:0:0:0:
329,192,44256,1,0,0:0:0:70:Tom1.wav
402,192,44256,1,0,0:0:0:0:
36,192,44310,128,0,44419:0:0:0:0:
256,192,44338,1,0,0:0:0:70:Tom1.wav
109,192,44419,1,2,0:0:0:0:
182,192,44419,1,4,0:0:0:0:
402,192,44419,128,8,44905:0:0:0:0:
475,192,44419,1,0,0:0:0:0:
329,192,44581,1,0,0:0:0:0:
36,192,44743,128,2,44905:0:0:0:0:
182,192,44743,1,0,0:0:0:0:
256,192,44743,1,0,0:0:0:0:
109,192,44905,128,0,45067:0:0:0:0:
329,192,44905,128,0,45716:0:0:0:0:
182,192,45067,128,2,45392:0:0:0:0:
402,192,45067,1,0,0:0:0:0:
475,192,45067,1,0,0:0:0:0:
36,192,45229,1,8,0:0:0:0:
256,192,45229,1,0,0:0:0:0:
402,192,45229,1,0,0:0:0:0:
36,192,45392,128,2,45554:0:0:0:0:
109,192,45392,1,0,0:0:0:0:
475,192,45392,1,0,0:0:0:0:
182,192,45554,1,0,0:0:0:70:Tom1.wav
402,192,45554,128,0,45716:0:0:0:0:
109,192,45635,1,0,0:0:0:70:Tom1.wav
36,192,45716,128,2,45878:0:0:0:0:
256,192,45716,128,0,46365:0:0:0:0:
475,192,45716,1,0,0:0:0:0:
475,192,45878,128,0,46040:0:0:0:0:
36,192,46040,1,2,0:0:0:0:
182,192,46040,1,0,0:0:0:0:
402,192,46040,128,0,46202:0:0:0:0:
36,192,46202,1,8,0:0:0:0:
109,192,46202,1,0,0:0:0:0:
329,192,46202,128,0,46365:0:0:0:0:
475,192,46202,1,0,0:0:0:0:
109,192,46365,1,2,0:0:0:0:
182,192,46365,128,0,47013:0:0:0:0:
402,192,46365,1,0,0:0:0:0:
36,192,46527,128,8,46689:0:0:0:0:
329,192,46527,1,0,0:0:0:0:
256,192,46689,1,2,0:0:0:0:
475,192,46689,1,0,0:0:0:0:
36,192,46851,1,0,0:0:0:70:Tom1.wav
402,192,46851,128,0,47013:0:0:0:0:
256,192,46932,1,0,0:0:0:70:Tom1.wav
109,192,47013,128,2,47662:0:0:0:0:
329,192,47013,128,0,47338:0:0:0:0:
475,192,47013,1,0,0:0:0:0:
36,192,47175,1,0,0:0:0:0:
256,192,47338,128,2,47500:0:0:0:0:
475,192,47338,1,0,0:0:0:0:
182,192,47500,1,8,0:0:0:0:
329,192,47500,128,4,47824:0:0:0:0:
475,192,47500,1,0,0:0:0:0:
36,192,47662,128,2,48310:0:0:0:0:
256,192,47662,1,0,0:0:0:0:
402,192,47662,1,0,0:0:0:0:
109,192,47824,1,8,0:0:0:0:
182,192,47824,1,0,0:0:0:0:
402,192,47824,128,0,47986:0:0:0:0:
256,192,47986,1,0,0:0:0:70:Tom1.wav
475,192,47986,128,0,48959:0:0:0:0:
329,192,48148,1,0,0:0:0:70:Tom2.wav
402,192,48148,1,0,0:0:0:0:
109,192,48310,128,2,48959:0:0:0:0:
256,192,48310,1,0,0:0:0:0:
182,192,48473,1,8,0:0:0:0:
329,192,48473,1,4,0:0:0:0:
402,192,48473,1,0,0:0:0:0:
182,192,48635,1,8,0:0:0:0:
329,192,48635,1,4,0:0:0:0:
402,192,48635,1,0,0:0:0:0:
256,192,48797,1,2,0:0:0:0:
329,192,48797,1,0,0:0:0:0:
36,192,48959,1,8,0:0:0:0:
182,192,48959,128,4,49608:0:0:0:0:
402,192,48959,1,0,0:0:0:0:
256,192,49121,1,8,0:0:0:0:
329,192,49121,1,0,0:0:0:0:
475,192,49121,1,0,0:0:0:0:
36,192,49283,1,2,0:0:0:0:
402,192,49283,1,0,0:0:0:0:
109,192,49446,1,2,0:0:0:0:
329,192,49446,1,0,0:0:0:0:
36,192,49608,128,4,49932:0:0:0:0:
256,192,49608,128,0,50905:0:0:0:0:
402,192,49608,1,0,0:0:0:0:
475,192,49608,1,0,0:0:0:0:
109,192,49932,128,0,50256:0:0:0:0:
182,192,50256,128,0,50581:0:0:0:0:
329,192,50581,128,0,50905:0:0:0:0:
36,192,50905,128,2,51229:0:0:0:0:
109,192,50905,128,4,51229:0:0:0:0:
182,192,50905,128,0,51229:0:0:0:0:
402,192,50905,128,0,51067:0:0:0:0:
475,192,50905,128,0,51229:0:0:0:0:
329,192,51067,128,0,51229:0:0:0:0:
256,192,51229,128,0,51554:0:0:0:0:
36,192,51554,128,2,51878:0:0:0:0:
182,192,51554,128,4,51878:0:0:0:0:
329,192,51554,128,0,51878:0:0:0:0:
402,192,51554,128,0,51878:0:0:0:0:
475,192,51554,128,0,51878:0:0:0:0:
36,192,52202,1,2,0:0:0:0:
182,192,52202,1,4,0:0:0:0:
256,192,52202,1,0,0:0:0:0:
402,192,52202,128,0,52446:0:0:0:0:
475,192,52202,1,0,0:0:0:0:
329,192,52446,128,0,52689:0:0:0:0:
36,192,52689,128,2,52851:0:0:0:0:
182,192,52689,1,0,0:0:0:0:
475,192,52689,1,0,0:0:0:0:
109,192,52851,128,8,53094:0:0:0:0:
256,192,52851,1,0,0:0:0:0:
329,192,52851,1,0,0:0:0:0:
475,192,52851,1,0,0:0:0:0:
329,192,53013,1,2,0:0:0:0:
402,192,53013,1,0,0:0:0:0:
182,192,53094,128,0,53338:0:0:0:0:
256,192,53338,128,0,53815:0:0:0:0:
36,192,53500,1,2,0:0:0:0:
109,192,53500,1,4,0:0:0:0:
329,192,53500,1,0,0:0:0:0:
402,192,53500,1,0,0:0:0:0:
475,192,53500,1,0,0:0:0:0:
402,192,53710,1,8,0:0:0:0:
475,192,53710,1,0,0:0:0:0:
36,192,53815,1,8,0:0:0:0:
109,192,53815,1,0,0:0:0:0:
329,192,53921,1,8,0:0:0:0:
402,192,53921,1,0,0:0:0:0:
109,192,54026,1,8,0:0:0:0:
182,192,54026,1,0,0:0:0:0:
256,192,54131,1,0,0:0:0:70:Tom1.wav
475,192,54131,1,0,0:0:0:0:
182,192,54236,1,0,0:0:0:70:Tom1.wav
402,192,54236,1,0,0:0:0:0:
109,192,54342,1,0,0:0:0:70:Tom1.wav
329,192,54342,1,0,0:0:0:0:
36,192,54447,1,0,0:0:0:70:Tom2.wav
256,192,54447,1,0,0:0:0:0:
109,192,54552,1,0,0:0:0:70:Tom2.wav
329,192,54552,1,0,0:0:0:0:
182,192,54657,1,0,0:0:0:70:Tom2.wav
402,192,54657,1,0,0:0:0:0:
36,192,54763,128,0,56100:0:0:0:0:
109,192,54763,128,0,56100:0:0:0:0:
256,192,54763,1,0,0:0:0:0:
475,192,54763,1,0,0:0:0:0:
475,192,55097,128,0,55264:0:0:0:0:
402,192,55264,128,0,55431:0:0:0:0:
329,192,55431,128,0,55765:0:0:0:0:
256,192,55765,128,0,56100:0:0:0:0:
182,192,56100,128,0,56434:0:0:0:0:
402,192,56100,128,0,57314:0:0:0:0:
475,192,56100,128,0,57314:0:0:0:0:
256,192,56434,128,0,56768:0:0:0:0:
329,192,56768,128,0,57158:0:0:0:0:
256,192,57158,1,0,0:0:0:0:
109,192,57236,128,0,57314:0:0:0:0:
36,192,57392,1,2,0:0:0:0:
109,192,57392,1,4,0:0:0:0:
182,192,57392,128,8,57473:0:0:0:0:
329,192,57392,128,0,57635:0:0:0:0:
475,192,57392,128,0,57635:0:0:0:0:
256,192,57554,128,0,57635:0:0:0:0:
36,192,57716,128,2,57797:0:0:0:0:
329,192,57716,1,0,0:0:0:0:
475,192,57716,1,0,0:0:0:0:
182,192,57797,1,8,0:0:0:0:
256,192,57797,1,0,0:0:0:0:
109,192,57878,128,8,57959:0:0:0:0:
402,192,57878,1,0,0:0:0:0:
475,192,57878,1,0,0:0:0:0:
256,192,57959,1,8,0:0:0:0:
329,192,57959,1,0,0:0:0:0:
36,192,58040,1,8,0:0:0:0:
182,192,58040,128,2,58121:0:0:0:0:
475,192,58040,1,0,0:0:0:0:
329,192,58121,1,8,0:0:0:0:
402,192,58121,1,0,0:0:0:0:
36,192,58202,1,8,0:0:0:0:
109,192,58202,1,0,0:0:0:0:
256,192,58202,128,0,58283:0:0:0:0:
402,192,58283,1,8,0:0:0:0:
475,192,58283,1,0,0:0:0:0:
36,192,58364,1,8,0:0:0:0:
256,192,58364,1,2,0:0:0:0:
329,192,58364,128,0,58446:0:0:0:0:
109,192,58446,1,8,0:0:0:0:
182,192,58446,1,0,0:0:0:0:
36,192,58527,1,8,0:0:0:0:
402,192,58527,128,0,58608:0:0:0:0:
475,192,58527,1,0,0:0:0:0:
182,192,58608,1,8,0:0:0:0:
256,192,58608,1,0,0:0:0:0:
36,192,58689,128,0,59337:0:0:0:0:
109,192,58689,1,0,0:0:0:0:
402,192,58689,1,0,0:0:0:0:
475,192,58689,128,0,59337:0:0:0:0:
109,192,59013,128,0,59337:0:0:0:0:
182,192,59013,128,0,59337:0:0:0:0:
402,192,59337,1,0,0:0:0:0:
329,192,59378,1,0,0:0:0:0:
256,192,59419,1,0,0:0:0:0:
182,192,59459,1,0,0:0:0:0:
109,192,59500,1,0,0:0:0:0:
36,192,59540,1,0,0:0:0:0:
475,192,59581,1,0,0:0:0:0:
402,192,59621,1,0,0:0:0:0:
329,192,59662,1,2,0:0:0:0:
36,192,59702,1,0,0:0:0:0:
109,192,59743,1,0,0:0:0:0:
182,192,59783,1,0,0:0:0:0:
256,192,59824,1,0,0:0:0:0:
475,192,59864,1,0,0:0:0:0:
402,192,59905,1,0,0:0:0:0:
329,192,59946,1,0,0:0:0:0:
36,192,59986,1,4,0:0:0:0:
109,192,59986,1,2,0:0:0:0:
182,192,59986,1,8,0:0:0:0:
256,192,59986,1,0,0:0:0:0:
475,192,59986,1,0,0:0:0:0:
329,192,60148,1,0,0:0:0:0:
36,192,60310,128,8,60473:0:0:0:0:
182,192,60310,128,0,60473:0:0:0:0:
256,192,60310,1,0,0:0:0:0:
475,192,60310,1,0,0:0:0:0:
402,192,60473,128,0,60959:0:0:0:0:
182,192,60635,1,2,0:0:0:0:
329,192,60635,1,0,0:0:0:0:
475,192,60635,128,0,60959:0:0:0:0:
109,192,60797,1,2,0:0:0:0:
256,192,60797,1,0,0:0:0:0:
36,192,60959,1,8,0:0:0:0:
182,192,60959,128,0,61121:0:0:0:0:
329,192,60959,128,0,61121:0:0:0:0:
256,192,61121,128,0,61283:0:0:0:0:
402,192,61121,128,0,61283:0:0:0:0:
36,192,61283,128,2,61527:0:0:0:0:
109,192,61283,1,0,0:0:0:0:
475,192,61283,128,0,61527:0:0:0:0:
256,192,61446,1,0,0:0:0:0:
36,192,61608,128,8,61932:0:0:0:0:
109,192,61608,1,0,0:0:0:0:
402,192,61608,1,0,0:0:0:0:
475,192,61608,128,0,61932:0:0:0:0:
182,192,61770,1,0,0:0:0:0:
256,192,61932,128,2,62094:0:0:0:0:
329,192,61932,128,0,62094:0:0:0:0:
402,192,61932,1,0,0:0:0:0:
36,192,62094,1,2,0:0:0:0:
109,192,62094,128,0,62581:0:0:0:0:
475,192,62094,1,0,0:0:0:0:
182,192,62256,128,8,62581:0:0:0:0:
256,192,62256,1,0,0:0:0:0:
402,192,62256,1,0,0:0:0:0:
329,192,62419,1,0,0:0:0:0:
36,192,62581,1,2,0:0:0:0:
256,192,62581,128,4,62743:0:0:0:0:
402,192,62581,1,0,0:0:0:0:
475,192,62581,1,0,0:0:0:0:
329,192,62743,128,0,62905:0:0:0:0:
36,192,62905,1,8,0:0:0:0:
182,192,62905,1,0,0:0:0:0:
402,192,62905,128,0,63554:0:0:0:0:
475,192,62905,1,0,0:0:0:0:
109,192,63067,128,0,63554:0:0:0:0:
256,192,63067,1,0,0:0:0:0:
36,192,63229,1,2,0:0:0:0:
329,192,63229,1,0,0:0:0:0:
182,192,63391,1,2,0:0:0:0:
256,192,63391,1,0,0:0:0:0:
36,192,63554,1,8,0:0:0:0:
182,192,63554,128,0,63878:0:0:0:0:
329,192,63554,1,0,0:0:0:0:
475,192,63554,1,0,0:0:0:0:
402,192,63716,1,0,0:0:0:0:
36,192,63878,1,2,0:0:0:0:
256,192,63878,128,0,64527:0:0:0:0:
475,192,63878,128,0,64202:0:0:0:0:
109,192,64040,1,0,0:0:0:0:
36,192,64202,1,8,0:0:0:0:
182,192,64202,1,0,0:0:0:0:
329,192,64202,128,0,64527:0:0:0:0:
402,192,64202,1,0,0:0:0:0:
109,192,64364,1,0,0:0:0:0:
36,192,64527,128,2,64851:0:0:0:0:
402,192,64527,128,0,64851:0:0:0:0:
475,192,64527,1,0,0:0:0:0:
109,192,64689,128,0,64851:0:0:0:0:
256,192,64689,1,0,0:0:0:0:
329,192,64689,1,0,0:0:0:0:
182,192,64851,1,8,0:0:0:0:
475,192,64851,1,0,0:0:0:0:
109,192,64932,1,0,0:0:0:0:
402,192,64932,1,0,0:0:0:0:
36,192,65013,1,0,0:0:0:70:Tom3.wav
329,192,65013,1,0,0:0:0:0:
256,192,65094,1,0,0:0:0:70:Tom3.wav
36,192,65175,128,2,65256:0:0:0:0:
182,192,65175,1,0,0:0:0:70:Tom3.wav
475,192,65175,128,0,65256:0:0:0:0:
109,192,65256,128,0,65337:0:0:0:0:
402,192,65256,128,0,65337:0:0:0:0:
182,192,65337,128,2,65419:0:0:0:0:
329,192,65337,128,0,65419:0:0:0:0:
256,192,65419,128,0,65500:0:0:0:0:
36,192,65500,1,8,0:0:0:0:
109,192,65500,128,4,65662:0:0:0:0:
402,192,65500,1,0,0:0:0:0:
475,192,65500,128,0,65662:0:0:0:0:
329,192,65662,128,0,66148:0:0:0:0:
182,192,65824,128,0,66148:0:0:0:0:
36,192,65986,1,2,0:0:0:0:
109,192,65986,1,0,0:0:0:0:
475,192,65986,1,0,0:0:0:0:
36,192,66148,1,8,0:0:0:0:
256,192,66148,1,0,0:0:0:0:
402,192,66148,1,0,0:0:0:0:
475,192,66148,1,0,0:0:0:0:
109,192,66310,128,0,66473:0:0:0:0:
182,192,66310,128,0,66473:0:0:0:0:
36,192,66473,1,2,0:0:0:0:
329,192,66473,128,0,66635:0:0:0:0:
475,192,66473,128,0,66797:0:0:0:0:
182,192,66635,128,0,67121:0:0:0:0:
36,192,66797,128,8,67121:0:0:0:0:
256,192,66797,1,0,0:0:0:0:
329,192,66797,1,0,0:0:0:0:
402,192,66959,1,0,0:0:0:0:
109,192,67121,1,2,0:0:0:0:
329,192,67121,128,0,67283:0:0:0:0:
475,192,67121,128,0,67283:0:0:0:0:
36,192,67283,1,2,0:0:0:0:
256,192,67283,128,0,67446:0:0:0:0:
402,192,67283,128,0,67446:0:0:0:0:
36,192,67446,1,8,0:0:0:0:
109,192,67446,1,0,0:0:0:0:
182,192,67446,128,0,67770:0:0:0:0:
475,192,67446,1,0,0:0:0:0:
256,192,67608,1,0,0:0:0:0:
36,192,67770,1,2,0:0:0:0:
109,192,67770,1,4,0:0:0:0:
329,192,67770,128,0,67932:0:0:0:0:
402,192,67770,1,0,0:0:0:0:
475,192,67770,1,0,0:0:0:0:
182,192,67932,1,0,0:0:0:0:
256,192,68013,128,0,68175:0:0:0:0:
36,192,68094,1,8,0:0:0:0:
109,192,68094,1,0,0:0:0:0:
329,192,68094,1,0,0:0:0:0:
475,192,68094,1,0,0:0:0:0:
36,192,68256,128,0,68419:0:0:0:0:
182,192,68256,128,0,68419:0:0:0:0:
256,192,68419,128,2,68581:0:0:0:0:
329,192,68419,1,0,0:0:0:0:
475,192,68419,128,0,68581:0:0:0:0:
109,192,68581,1,2,0:0:0:0:
182,192,68581,128,0,68743:0:0:0:0:
402,192,68581,128,0,68743:0:0:0:0:
36,192,68743,1,8,0:0:0:0:
109,192,68743,128,0,69067:0:0:0:0:
329,192,68743,128,0,69067:0:0:0:0:
475,192,68743,1,0,0:0:0:0:
182,192,68905,1,2,0:0:0:0:
256,192,68905,1,0,0:0:0:0:
36,192,69067,128,8,69310:0:0:0:0:
256,192,69067,128,0,69310:0:0:0:0:
402,192,69067,1,0,0:0:0:0:
475,192,69067,1,0,0:0:0:0:
109,192,69229,1,2,0:0:0:0:
182,192,69229,1,0,0:0:0:0:
36,192,69391,1,8,0:0:0:0:
109,192,69391,128,0,69635:0:0:0:0:
329,192,69391,128,0,69635:0:0:0:0:
402,192,69391,1,0,0:0:0:0:
182,192,69554,1,2,0:0:0:0:
256,192,69554,128,0,69635:0:0:0:0:
475,192,69554,128,0,69635:0:0:0:0:
36,192,69716,1,8,0:0:0:0:
182,192,69716,128,0,69797:0:0:0:0:
402,192,69716,128,0,69797:0:0:0:0:
109,192,69878,128,0,69959:0:0:0:70:Tom1.wav
329,192,69878,128,0,69959:0:0:0:0:
36,192,70040,128,0,70121:0:0:0:70:Tom2.wav
256,192,70040,128,0,70121:0:0:0:0:
36,192,70202,1,0,0:0:0:70:Tom3.wav
182,192,70202,1,0,0:0:0:0:
475,192,70202,1,0,0:0:0:0:
256,192,70283,1,0,0:0:0:70:Tom3.wav
329,192,70283,1,0,0:0:0:0:
36,192,70364,128,2,70932:0:0:0:0:
109,192,70364,1,4,0:0:0:0:
182,192,70364,1,0,0:0:0:70:Tom3.wav
402,192,70364,128,0,70608:0:0:0:0:
475,192,70364,128,0,70608:0:0:0:0:
256,192,70527,1,0,0:0:0:0:
182,192,70689,1,8,0:0:0:0:
329,192,70689,128,0,70932:0:0:0:0:
402,192,70689,1,0,0:0:0:0:
475,192,70689,1,0,0:0:0:0:
109,192,70770,1,0,0:0:0:0:
256,192,70851,1,0,0:0:0:0:
182,192,70932,1,0,0:0:0:0:
36,192,71013,128,2,71094:0:0:0:0:
109,192,71013,1,0,0:0:0:0:
475,192,71013,128,0,71662:0:0:0:0:
402,192,71094,1,0,0:0:0:0:
109,192,71175,128,2,71256:0:0:0:0:
182,192,71175,1,0,0:0:0:0:
329,192,71175,1,0,0:0:0:0:
256,192,71256,1,0,0:0:0:0:
36,192,71337,1,8,0:0:0:0:
182,192,71337,128,0,71419:0:0:0:0:
402,192,71337,1,0,0:0:0:0:
329,192,71419,1,0,0:0:0:0:
256,192,71500,128,0,71662:0:0:0:0:
182,192,71581,1,0,0:0:0:0:
36,192,71662,128,2,71905:0:0:0:0:
109,192,71662,128,0,71905:0:0:0:0:
402,192,71662,128,0,72229:0:0:0:0:
256,192,71824,1,0,0:0:0:0:
36,192,71986,1,8,0:0:0:0:
182,192,71986,128,0,72229:0:0:0:0:
329,192,71986,1,0,0:0:0:0:
475,192,71986,1,0,0:0:0:0:
256,192,72067,1,0,0:0:0:0:
109,192,72148,1,0,0:0:0:0:
329,192,72229,1,0,0:0:0:0:
36,192,72310,128,2,72878:0:0:0:0:
182,192,72310,1,0,0:0:0:0:
256,192,72310,128,0,72391:0:0:0:0:
475,192,72391,1,0,0:0:0:0:
109,192,72473,1,2,0:0:0:0:
329,192,72473,128,0,72554:0:0:0:0:
402,192,72473,1,0,0:0:0:0:
182,192,72554,1,0,0:0:0:0:
109,192,72635,128,8,72878:0:0:0:0:
256,192,72635,1,0,0:0:0:0:
402,192,72635,128,0,72716:0:0:0:0:
475,192,72635,1,0,0:0:0:0:
329,192,72716,1,0,0:0:0:0:
475,192,72797,128,0,72959:0:0:0:0:
402,192,72878,1,0,0:0:0:0:
36,192,72959,128,2,73202:0:0:0:0:
109,192,72959,1,4,0:0:0:0:
256,192,72959,128,0,73608:0:0:0:0:
329,192,72959,128,0,73202:0:0:0:0:
182,192,73121,1,0,0:0:0:0:
36,192,73283,1,8,0:0:0:0:
109,192,73283,128,0,73446:0:0:0:0:
402,192,73283,1,0,0:0:0:0:
475,192,73283,128,0,73446:0:0:0:0:
329,192,73446,128,0,73608:0:0:0:0:
36,192,73608,128,2,73932:0:0:0:0:
109,192,73608,128,0,73932:0:0:0:0:
475,192,73608,1,0,0:0:0:0:
182,192,73770,1,2,0:0:0:0:
402,192,73770,1,0,0:0:0:0:
256,192,73932,1,8,0:0:0:0:
329,192,73932,128,0,74256:0:0:0:0:
475,192,73932,128,0,74256:0:0:0:0:
36,192,74094,1,2,0:0:0:0:
109,192,74094,1,0,0:0:0:0:
36,192,74256,1,8,0:0:0:0:
182,192,74256,128,4,74419:0:0:0:0:
256,192,74256,1,0,0:0:0:0:
402,192,74256,1,0,0:0:0:0:
329,192,74419,1,2,0:0:0:0:
475,192,74419,1,0,0:0:0:0:
109,192,74500,128,0,74662:0:0:0:0:
182,192,74581,1,8,0:0:0:0:
256,192,74581,1,0,0:0:0:0:
402,192,74581,1,0,0:0:0:0:
36,192,74743,128,2,75067:0:0:0:0:
109,192,74743,1,0,0:0:0:0:
329,192,74743,1,0,0:0:0:0:
182,192,74905,1,8,0:0:0:0:
256,192,74905,1,0,0:0:0:0:
402,192,74905,1,0,0:0:0:0:
475,192,74905,128,0,75067:0:0:0:0:
109,192,75067,1,2,0:0:0:0:
329,192,75067,1,0,0:0:0:0:
402,192,75148,128,0,75310:0:0:0:0:
36,192,75229,1,8,0:0:0:0:
256,192,75229,1,0,0:0:0:0:
475,192,75229,1,0,0:0:0:0:
36,192,75391,128,0,75554:0:0:0:70:Tom3.wav
182,192,75391,1,0,0:0:0:0:
329,192,75391,128,0,75554:0:0:0:0:
109,192,75473,1,0,0:0:0:70:Tom3.wav
182,192,75554,1,2,0:0:0:0:
256,192,75554,128,4,75878:0:0:0:0:
402,192,75554,1,0,0:0:0:70:Tom3.wav
475,192,75554,1,0,0:0:0:0:
109,192,75716,1,0,0:0:0:0:
36,192,75878,128,8,76364:0:0:0:0:
182,192,75878,128,0,76040:0:0:0:0:
329,192,75878,1,0,0:0:0:0:
402,192,75878,1,0,0:0:0:0:
475,192,76040,128,0,76364:0:0:0:0:
109,192,76202,1,2,0:0:0:0:
182,192,76202,1,0,0:0:0:0:
402,192,76202,1,0,0:0:0:0:
109,192,76364,128,2,76527:0:0:0:0:
256,192,76364,1,0,0:0:0:0:
329,192,76364,128,0,76851:0:0:0:0:
36,192,76527,1,8,0:0:0:0:
182,192,76527,1,0,0:0:0:0:
402,192,76527,128,0,76851:0:0:0:0:
475,192,76527,1,0,0:0:0:0:
256,192,76689,1,0,0:0:0:0:
36,192,76851,1,2,0:0:0:0:
109,192,76851,1,4,0:0:0:0:
475,192,76851,1,0,0:0:0:0:
329,192,77013,1,0,0:0:0:0:
36,192,77175,1,8,0:0:0:0:
109,192,77175,1,0,0:0:0:0:
256,192,77175,1,0,0:0:0:0:
402,192,77175,128,0,77500:0:0:0:0:
182,192,77337,1,0,0:0:0:0:
109,192,77500,1,2,0:0:0:0:
329,192,77500,128,0,77824:0:0:0:0:
475,192,77500,1,0,0:0:0:0:
36,192,77662,1,2,0:0:0:0:
182,192,77662,1,0,0:0:0:0:
402,192,77662,1,0,0:0:0:0:
36,192,77824,1,8,0:0:0:0:
109,192,77824,1,0,0:0:0:0:
256,192,77824,128,0,78148:0:0:0:0:
475,192,77824,1,0,0:0:0:0:
329,192,77986,1,0,0:0:0:0:
36,192,78148,1,2,0:0:0:0:
109,192,78148,1,4,0:0:0:0:
182,192,78148,1,0,0:0:0:0:
402,192,78148,1,0,0:0:0:0:
475,192,78148,1,0,0:0:0:0:
36,192,78310,1,8,0:0:0:0:
256,192,78310,1,0,0:0:0:0:
475,192,78310,1,0,0:0:0:0:
36,192,78473,1,8,0:0:0:0:
109,192,78473,1,0,0:0:0:0:
402,192,78473,1,0,0:0:0:0:
475,192,78473,1,0,0:0:0:0:
36,192,78635,1,8,0:0:0:0:
109,192,78635,1,0,0:0:0:0:
402,192,78635,1,0,0:0:0:0:
475,192,78635,1,0,0:0:0:0:
36,192,78797,1,8,0:0:0:0:
109,192,78797,1,0,0:0:0:0:
402,192,78797,1,0,0:0:0:0:
475,192,78797,1,0,0:0:0:0:
36,192,78959,1,8,0:0:0:0:
109,192,78959,1,0,0:0:0:0:
402,192,78959,1,0,0:0:0:0:
475,192,78959,1,0,0:0:0:0:
36,192,79121,1,8,0:0:0:0:
109,192,79121,1,0,0:0:0:0:
402,192,79121,1,0,0:0:0:0:
475,192,79121,1,0,0:0:0:0:
36,192,79283,1,8,0:0:0:0:
109,192,79283,1,0,0:0:0:0:
402,192,79283,1,0,0:0:0:0:
475,192,79283,1,0,0:0:0:0:
36,192,79446,1,2,0:0:0:0:
109,192,79446,1,4,0:0:0:0:
256,192,79446,1,8,0:0:0:0:
329,192,79446,128,0,80094:0:0:0:0:
402,192,79446,128,0,80094:0:0:0:0:
475,192,79446,128,0,80743:0:0:0:0:
182,192,79932,1,0,0:0:0:70:Tom2.wav
256,192,79932,1,0,0:0:0:0:
36,192,80094,128,2,80743:0:0:0:0:
109,192,80094,128,0,80743:0:0:0:0:
256,192,80419,1,0,0:0:0:70:Tom2.wav
402,192,80419,1,0,0:0:0:0:
182,192,80581,128,0,80743:0:0:0:0:
256,192,80743,128,0,81067:0:0:0:0:
329,192,80743,128,0,82040:0:0:0:0:
36,192,81067,128,0,81229:0:0:0:0:
475,192,81229,128,0,81554:0:0:0:0:
36,192,81554,128,0,81716:0:0:0:0:
182,192,81716,128,0,82040:0:0:0:0:
36,192,82040,1,0,0:0:0:0:
402,192,82040,128,0,83337:0:0:0:0:
475,192,82040,1,0,0:0:0:0:
256,192,82364,128,0,82689:0:0:0:0:
182,192,82689,128,0,83013:0:0:0:0:
109,192,83013,128,0,83337:0:0:0:0:
36,192,83337,1,8,0:0:0:0:
256,192,83337,128,2,83500:0:0:0:0:
329,192,83337,1,4,0:0:0:0:
475,192,83337,128,0,83986:0:0:0:0:
182,192,83500,128,0,83662:0:0:0:0:
36,192,83662,1,2,0:0:0:0:
109,192,83662,128,0,83824:0:0:0:0:
182,192,83824,128,0,83986:0:0:0:0:
36,192,83986,1,2,0:0:0:0:
109,192,83986,1,0,0:0:0:0:
256,192,83986,128,0,84310:0:0:0:0:
475,192,84148,1,0,0:0:0:0:
36,192,84310,1,2,0:0:0:0:
109,192,84310,1,0,0:0:0:0:
402,192,84310,128,0,84473:0:0:0:0:
329,192,84473,128,0,84635:0:0:0:0:
475,192,84554,1,0,0:0:0:0:
36,192,84635,1,2,0:0:0:0:
109,192,84635,1,0,0:0:0:0:
256,192,84635,128,0,84797:0:0:0:0:
182,192,84797,128,0,84959:0:0:0:0:
36,192,84959,1,2,0:0:0:0:
109,192,84959,1,0,0:0:0:0:
256,192,85121,128,0,85283:0:0:0:0:
475,192,85121,128,0,85283:0:0:0:0:
36,192,85283,1,2,0:0:0:0:
109,192,85283,1,0,0:0:0:0:
402,192,85283,128,0,85446:0:0:0:0:
329,192,85446,128,0,85608:0:0:0:0:
36,192,85608,1,2,0:0:0:0:
109,192,85608,1,0,0:0:0:0:
256,192,85608,128,0,85770:0:0:0:0:
475,192,85608,128,0,85770:0:0:0:0:
182,192,85770,128,0,85932:0:0:0:0:
109,192,85851,1,0,0:0:0:0:
36,192,85932,128,2,86094:0:0:0:0:
402,192,85932,128,0,86094:0:0:0:0:
475,192,85932,1,0,0:0:0:0:
109,192,86094,128,0,86256:0:0:0:0:
256,192,86094,128,0,86256:0:0:0:0:
182,192,86256,128,2,86419:0:0:0:0:
402,192,86256,128,0,86419:0:0:0:0:
475,192,86256,1,0,0:0:0:0:
256,192,86419,128,0,86581:0:0:0:0:
329,192,86419,128,0,86581:0:0:0:0:
36,192,86581,128,2,86905:0:0:0:0:
109,192,86581,128,0,86905:0:0:0:0:
402,192,86581,1,0,0:0:0:0:
475,192,86581,1,0,0:0:0:0:
182,192,86743,1,0,0:0:0:0:
256,192,86905,128,2,87067:0:0:0:0:
402,192,86905,128,0,87067:0:0:0:0:
475,192,86905,1,0,0:0:0:0:
182,192,87067,128,0,87229:0:0:0:0:
329,192,87067,128,0,87229:0:0:0:0:
36,192,87148,1,0,0:0:0:0:
109,192,87229,128,2,87391:0:0:0:0:
402,192,87229,128,0,87391:0:0:0:0:
475,192,87229,1,0,0:0:0:0:
36,192,87391,128,0,87554:0:0:0:0:
256,192,87391,128,0,87554:0:0:0:0:
402,192,87554,1,2,0:0:0:0:
475,192,87554,1,0,0:0:0:0:
109,192,87716,128,0,87878:0:0:0:0:
329,192,87716,128,0,87878:0:0:0:0:
182,192,87878,128,2,88040:0:0:0:0:
402,192,87878,128,0,88040:0:0:0:0:
475,192,87878,1,0,0:0:0:0:
36,192,88040,128,0,88202:0:0:0:0:
256,192,88040,128,0,88202:0:0:0:0:
109,192,88202,128,0,88364:0:0:0:0:
329,192,88202,128,0,88364:0:0:0:0:
182,192,88364,1,0,0:0:0:0:
402,192,88364,1,0,0:0:0:0:
475,192,88364,1,0,0:0:0:0:
