osu file format v14

[General]
AudioFilename: audio.mp3
AudioLeadIn: 0
PreviewTime: 59986
Countdown: 0
SampleSet: Soft
StackLeniency: 0.7
Mode: 3
LetterboxInBreaks: 0
SpecialStyle: 0
WidescreenStoryboard: 1

[Editor]
DistanceSpacing: 2.2
BeatDivisor: 2
GridSize: 32
TimelineZoom: 1.5

[Metadata]
Title:Careless (TV Size)
TitleUnicode:ケアレス (TV Size)
Artist:ClariS
ArtistUnicode:ClariS
Creator:Syrion-
Version:Normal
Source:マギアレコード 魔法少女まどか☆マギカ外伝 2nd SEASON -覚醒前夜-
Tags:virtue- heru20 Magia Record: Puella Magi Madoka*Magica Side Story Kakusei zenya magiarekodo mahou shoujo gaiden op opening japanese jpop j-pop pop anime クラリス Clara クララ Karen カレン 湯浅篤 Atsushi Yuasa 渡辺翔 sho watanabe
BeatmapID:3245114
BeatmapSetID:1555025

[Difficulty]
HPDrainRate:7.4
CircleSize:7
OverallDifficulty:7.4
ApproachRate:5
SliderMultiplier:1.4
SliderTickRate:1

[Events]
//Background and Video events
0,0,"Careless (TV Size).jpg",0,0
Video,0,"Careless (TV Size).mp4"
//Break Periods
//Storyboard Layer 0 (Background)
//Storyboard Layer 1 (Fail)
//Storyboard Layer 2 (Pass)
//Storyboard Layer 3 (Foreground)
//Storyboard Layer 4 (Overlay)
//Storyboard Sound Samples
Sample,25932,0,"tick.wav.wav",70
Sample,65175,0,"Tom3.wav",70

[TimingPoints]
311,324.324324324324,4,2,2,70,1,0
53500,315.789473684211,4,2,2,70,1,0
53500,-103.092783505155,4,2,2,70,0,0
54763,334.280461307037,4,2,2,70,1,0
54763,-97.0873786407767,4,2,2,70,0,0
56768,312.01248049922,4,2,2,70,1,0
56768,-104.166666666667,4,2,2,70,0,0
57392,324.324324324324,4,2,2,70,1,0
59986,-100,4,2,2,70,0,1
79446,-100,4,2,2,70,0,0

[HitObjects]
36,192,311,1,0,0:0:0:0:
182,192,473,1,0,0:0:0:0:
329,192,635,1,0,0:0:0:0:
475,192,797,1,0,0:0:0:0:
109,192,959,1,0,0:0:0:0:
402,192,1283,1,0,0:0:0:0:
182,192,1446,1,0,0:0:0:0:
475,192,1608,1,0,0:0:0:0:
109,192,1770,1,0,0:0:0:0:
329,192,2094,1,0,0:0:0:0:
36,192,2256,1,0,0:0:0:0:
182,192,2419,1,0,0:0:0:0:
475,192,2581,1,0,0:0:0:0:
329,192,2743,1,0,0:0:0:0:
36,192,2905,1,0,0:0:0:0:
109,192,3067,1,0,0:0:0:0:
182,192,3229,1,0,0:0:0:0:
329,192,3392,1,0,0:0:0:0:
475,192,3554,1,0,0:0:0:0:
109,192,3878,1,0,0:0:0:0:
402,192,4040,1,0,0:0:0:0:
256,192,4202,1,0,0:0:0:0:
109,192,4365,128,0,4851:0:0:0:0:
36,192,4851,1,2,0:0:0:0:
475,192,4851,1,8,0:0:0:0:
256,192,5013,1,2,0:0:0:0:
109,192,5175,1,0,0:0:0:70:Tom3.wav
329,192,5338,1,6,0:0:0:0:
402,192,5338,128,8,6148:0:0:0:0:
182,192,5662,1,2,0:0:0:0:
36,192,5824,1,8,0:0:0:0:
109,192,6148,128,2,6635:0:0:0:0:
475,192,6310,1,2,0:0:0:0:
182,192,6473,1,8,0:0:0:0:
329,192,6635,128,6,7446:0:0:0:0:
402,192,6635,1,8,0:0:0:0:
256,192,6959,1,2,0:0:0:0:
109,192,7121,1,8,0:0:0:0:
36,192,7446,1,2,0:0:0:0:
182,192,7608,1,8,0:0:0:0:
329,192,7770,1,8,0:0:0:0:
109,192,7932,1,6,0:0:0:0:
475,192,7932,128,8,8743:0:0:0:0:
256,192,8256,1,2,0:0:0:0:
36,192,8419,1,8,0:0:0:0:
402,192,8743,1,2,0:0:0:0:
329,192,8905,1,2,0:0:0:0:
182,192,9067,1,2,0:0:0:0:
36,192,9229,128,6,9878:0:0:0:0:
109,192,9229,1,8,0:0:0:0:
329,192,9554,1,2,0:0:0:0:
182,192,9716,1,8,0:0:0:0:
329,192,9878,1,2,0:0:0:0:
475,192,9878,1,4,0:0:0:0:
402,192,10202,1,2,0:0:0:0:
36,192,10365,1,8,0:0:0:0:
109,192,10365,1,0,0:0:0:0:
182,192,10527,1,0,0:0:0:0:
256,192,10689,1,2,0:0:0:0:
402,192,10689,128,4,11338:0:0:0:0:
109,192,11013,1,8,0:0:0:0:
36,192,11338,128,0,11986:0:0:0:0:
182,192,11500,1,2,0:0:0:0:
329,192,11662,1,8,0:0:0:0:
256,192,11986,1,2,0:0:0:0:
402,192,11986,128,0,12635:0:0:0:0:
109,192,12310,1,8,0:0:0:0:
256,192,12473,1,2,0:0:0:0:
109,192,12635,128,0,13283:0:0:0:0:
475,192,12797,1,2,0:0:0:0:
329,192,12959,1,8,0:0:0:0:
36,192,13283,1,2,0:0:0:0:
475,192,13283,128,4,13770:0:0:0:0:
182,192,13608,1,8,0:0:0:0:
329,192,13770,128,0,14094:0:0:0:0:
36,192,14094,128,2,14256:0:0:0:0:
182,192,14256,128,8,14419:0:0:0:0:
475,192,14256,1,0,0:0:0:0:
402,192,14419,128,2,14743:0:0:0:0:
109,192,14581,1,2,0:0:0:0:
36,192,14743,1,8,0:0:0:0:
329,192,14743,1,4,0:0:0:0:
182,192,15067,1,2,0:0:0:0:
256,192,15229,128,8,15878:0:0:0:0:
36,192,15392,1,0,0:0:0:70:Tom2.wav
402,192,15554,1,0,0:0:0:70:Tom1.wav
109,192,15716,1,0,0:0:0:70:Tom1.wav
329,192,15878,1,2,0:0:0:0:
475,192,15878,1,4,0:0:0:0:
109,192,16094,1,8,0:0:0:0:
182,192,16202,1,8,0:0:0:0:
256,192,16310,1,8,0:0:0:0:
329,192,16419,1,8,0:0:0:0:
402,192,16527,128,0,16851:0:0:0:70:Tom1.wav
329,192,16851,1,0,0:0:0:70:Tom2.wav
256,192,16959,1,0,0:0:0:70:Tom2.wav
182,192,17067,1,0,0:0:0:70:Tom2.wav
36,192,17175,1,4,0:0:0:0:
475,192,17175,1,8,0:0:0:0:
109,192,17338,1,8,0:0:0:0:
402,192,17338,1,4,0:0:0:0:
182,192,17662,1,0,0:0:0:0:
256,192,17743,1,0,0:0:0:0:
329,192,17824,1,0,0:0:0:0:
256,192,18148,128,0,18473:0:0:0:0:
36,192,18473,1,6,0:0:0:0:
475,192,18473,1,0,0:0:0:70:tick.wav.wav
182,192,18797,1,0,0:0:0:70:tick.wav.wav
402,192,19121,1,0,0:0:0:70:tick.wav.wav
256,192,19446,1,0,0:0:0:70:tick.wav.wav
36,192,19770,1,0,0:0:0:70:tick.wav.wav
182,192,20094,1,0,0:0:0:70:tick.wav.wav
475,192,20419,1,0,0:0:0:70:tick.wav.wav
329,192,20743,1,0,0:0:0:70:tick.wav.wav
109,192,20905,1,2,0:0:0:0:
36,192,21067,1,2,0:0:0:0:
256,192,21067,1,0,0:0:0:70:tick.wav.wav
475,192,21392,1,0,0:0:0:70:tick.wav.wav
329,192,21716,1,0,0:0:0:70:tick.wav.wav
36,192,22040,1,0,0:0:0:70:tick.wav.wav
182,192,22365,1,0,0:0:0:70:tick.wav.wav
402,192,22689,1,0,0:0:0:70:tick.wav.wav
256,192,23013,1,0,0:0:0:70:tick.wav.wav
36,192,23338,1,0,0:0:0:70:tick.wav.wav
402,192,23500,1,2,0:0:0:0:
182,192,23662,1,6,0:0:0:0:
256,192,23662,1,0,0:0:0:70:tick.wav.wav
475,192,23986,1,0,0:0:0:70:tick.wav.wav
329,192,24310,1,0,0:0:0:70:tick.wav.wav
109,192,24635,1,0,0:0:0:70:tick.wav.wav
329,192,24959,128,0,25608:0:0:0:70:tick.wav.wav
36,192,25283,1,0,0:0:0:70:tick.wav.wav
109,192,25608,128,0,26256:0:0:0:70:tick.wav.wav
475,192,25932,1,2,0:0:0:0:
256,192,26094,1,2,0:0:0:0:
329,192,26256,1,6,0:0:0:0:
402,192,26256,128,0,26905:0:0:0:70:tick.wav.wav
109,192,26581,1,0,0:0:0:70:tick.wav.wav
475,192,26743,1,0,0:0:0:0:
256,192,26905,1,0,0:0:0:70:tick.wav.wav
36,192,27067,1,0,0:0:0:0:
475,192,27229,1,0,0:0:0:70:tick.wav.wav
109,192,27392,1,0,0:0:0:0:
402,192,27554,1,0,0:0:0:70:tick.wav.wav
182,192,27716,1,0,0:0:0:0:
329,192,27878,1,0,0:0:0:70:tick.wav.wav
36,192,28040,1,8,0:0:0:0:
109,192,28121,1,8,0:0:0:0:
182,192,28202,1,8,0:0:0:0:
475,192,28202,1,2,0:0:0:0:
256,192,28365,1,2,0:0:0:0:
402,192,28365,128,0,28851:0:0:0:0:
36,192,28851,1,4,0:0:0:0:
109,192,28851,1,0,0:0:0:0:
475,192,28851,1,0,0:0:0:0:
182,192,29175,1,8,0:0:0:0:
329,192,29175,1,0,0:0:0:0:
475,192,29662,1,2,0:0:0:0:
109,192,29824,1,8,0:0:0:0:
329,192,29824,1,0,0:0:0:0:
182,192,30148,1,2,0:0:0:0:
36,192,30473,1,8,0:0:0:0:
402,192,30473,1,0,0:0:0:0:
256,192,30959,1,2,0:0:0:0:
109,192,31121,1,8,0:0:0:0:
402,192,31121,1,0,0:0:0:0:
475,192,31283,1,2,0:0:0:0:
256,192,31446,1,2,0:0:0:0:
36,192,31770,1,8,0:0:0:0:
109,192,31770,1,0,0:0:0:0:
182,192,32256,1,2,0:0:0:0:
402,192,32419,1,8,0:0:0:0:
475,192,32419,128,0,32743:0:0:0:0:
256,192,32743,128,2,33229:0:0:0:0:
36,192,33067,1,8,0:0:0:0:
329,192,33229,1,0,0:0:0:0:
475,192,33392,1,0,0:0:0:0:
182,192,33554,1,2,0:0:0:0:
36,192,33716,1,8,0:0:0:0:
402,192,33716,1,0,0:0:0:0:
109,192,33878,1,2,0:0:0:0:
329,192,34040,1,2,0:0:0:0:
402,192,34040,1,4,0:0:0:0:
36,192,34365,1,8,0:0:0:0:
475,192,34365,1,0,0:0:0:0:
182,192,34527,1,0,0:0:0:0:
256,192,34689,1,0,0:0:0:0:
329,192,34851,1,2,0:0:0:0:
402,192,35013,1,8,0:0:0:0:
475,192,35013,1,0,0:0:0:0:
109,192,35175,1,0,0:0:0:0:
36,192,35338,1,2,0:0:0:0:
256,192,35338,1,4,0:0:0:0:
329,192,35662,1,8,0:0:0:0:
402,192,35662,1,0,0:0:0:0:
109,192,35986,1,0,0:0:0:0:
402,192,36148,1,2,0:0:0:0:
182,192,36310,1,8,0:0:0:0:
256,192,36310,1,0,0:0:0:0:
475,192,36473,1,2,0:0:0:0:
36,192,36635,1,2,0:0:0:0:
109,192,36635,1,4,0:0:0:0:
329,192,36797,1,0,0:0:0:0:
182,192,36959,1,8,0:0:0:0:
475,192,36959,1,0,0:0:0:0:
36,192,37121,1,0,0:0:0:0:
256,192,37283,1,2,0:0:0:0:
329,192,37446,1,2,0:0:0:0:
109,192,37608,1,8,0:0:0:0:
402,192,37608,1,0,0:0:0:0:
182,192,37770,1,2,0:0:0:0:
475,192,37770,128,4,38094:0:0:0:0:
329,192,38094,128,0,38419:0:0:0:0:
36,192,38256,1,8,0:0:0:0:
182,192,38419,128,0,38743:0:0:0:70:Tom1.wav
402,192,38581,1,0,0:0:0:70:Tom2.wav
36,192,38743,128,2,39229:0:0:0:0:
256,192,38905,1,8,0:0:0:0:
402,192,39067,1,2,0:0:0:0:
182,192,39229,1,4,0:0:0:0:
329,192,39229,1,8,0:0:0:0:
36,192,39392,1,4,0:0:0:0:
475,192,39392,1,8,0:0:0:0:
182,192,39554,1,4,0:0:0:0:
329,192,39554,1,8,0:0:0:0:
36,192,39716,1,4,0:0:0:0:
475,192,39716,1,8,0:0:0:0:
256,192,39878,1,2,0:0:0:0:
402,192,40202,1,2,0:0:0:0:
36,192,40365,1,8,0:0:0:0:
109,192,40446,1,8,0:0:0:0:
182,192,40527,1,2,0:0:0:0:
329,192,40527,1,8,0:0:0:0:
402,192,40851,1,2,0:0:0:0:
109,192,41013,1,8,0:0:0:0:
182,192,41013,1,0,0:0:0:0:
475,192,41175,1,2,0:0:0:0:
329,192,41338,1,2,0:0:0:0:
109,192,41500,1,2,0:0:0:0:
256,192,41662,1,2,0:0:0:0:
36,192,41824,1,8,0:0:0:0:
475,192,41824,1,4,0:0:0:0:
182,192,41986,1,8,0:0:0:0:
329,192,41986,1,4,0:0:0:0:
36,192,42148,1,8,0:0:0:0:
475,192,42148,1,4,0:0:0:0:
182,192,42310,1,8,0:0:0:0:
329,192,42310,1,4,0:0:0:0:
256,192,42473,1,2,0:0:0:0:
402,192,42797,1,2,0:0:0:0:
329,192,42959,1,8,0:0:0:0:
256,192,43040,1,8,0:0:0:0:
36,192,43121,1,2,0:0:0:0:
182,192,43121,1,8,0:0:0:0:
256,192,43446,1,2,0:0:0:0:
36,192,43608,1,8,0:0:0:0:
402,192,43608,1,0,0:0:0:0:
109,192,43770,1,2,0:0:0:0:
182,192,43932,1,8,0:0:0:0:
329,192,43932,1,0,0:0:0:0:
475,192,44094,1,2,0:0:0:0:
402,192,44256,1,0,0:0:0:70:Tom1.wav
329,192,44338,1,0,0:0:0:70:Tom1.wav
109,192,44419,1,6,0:0:0:0:
256,192,44419,1,8,0:0:0:0:
36,192,44743,1,2,0:0:0:0:
182,192,45067,1,2,0:0:0:0:
402,192,45229,1,8,0:0:0:0:
475,192,45229,1,0,0:0:0:0:
36,192,45392,1,2,0:0:0:0:
109,192,45392,1,0,0:0:0:0:
256,192,45554,1,0,0:0:0:70:Tom1.wav
329,192,45635,1,0,0:0:0:70:Tom1.wav
402,192,45716,1,2,0:0:0:0:
36,192,46040,1,2,0:0:0:0:
182,192,46202,1,8,0:0:0:0:
329,192,46202,1,0,0:0:0:0:
256,192,46365,1,2,0:0:0:0:
475,192,46527,1,8,0:0:0:0:
329,192,46689,1,2,0:0:0:0:
182,192,46851,1,0,0:0:0:70:Tom1.wav
36,192,47013,1,2,0:0:0:0:
182,192,47338,1,2,0:0:0:0:
109,192,47500,1,8,0:0:0:0:
256,192,47500,1,4,0:0:0:0:
475,192,47662,1,2,0:0:0:0:
329,192,47824,1,8,0:0:0:0:
402,192,47824,1,0,0:0:0:0:
36,192,47986,1,0,0:0:0:70:Tom1.wav
109,192,48148,1,0,0:0:0:70:Tom2.wav
182,192,48310,1,2,0:0:0:0:
329,192,48310,1,0,0:0:0:0:
36,192,48473,1,8,0:0:0:0:
475,192,48473,1,4,0:0:0:0:
182,192,48635,1,8,0:0:0:0:
329,192,48635,1,4,0:0:0:0:
402,192,48797,1,2,0:0:0:0:
36,192,48959,1,8,0:0:0:0:
475,192,48959,1,4,0:0:0:0:
182,192,49121,1,8,0:0:0:0:
329,192,49121,1,0,0:0:0:0:
256,192,49283,1,2,0:0:0:0:
329,192,49446,1,2,0:0:0:0:
36,192,49608,1,4,0:0:0:0:
109,192,49608,1,0,0:0:0:0:
475,192,49608,128,0,49932:0:0:0:0:
402,192,49932,128,0,50256:0:0:0:0:
256,192,50256,128,0,50581:0:0:0:0:
182,192,50581,128,0,50905:0:0:0:0:
36,192,50905,128,2,51067:0:0:0:0:
109,192,50905,1,4,0:0:0:0:
402,192,51067,128,0,51229:0:0:0:0:
256,192,51229,128,0,51554:0:0:0:0:
36,192,51554,1,2,0:0:0:0:
475,192,51554,1,4,0:0:0:0:
109,192,52202,1,2,0:0:0:0:
182,192,52202,1,4,0:0:0:0:
402,192,52446,1,0,0:0:0:0:
256,192,52689,1,2,0:0:0:0:
36,192,52851,1,8,0:0:0:0:
475,192,52851,1,0,0:0:0:0:
182,192,53013,128,2,53500:0:0:0:0:
402,192,53500,1,2,0:0:0:0:
475,192,53500,1,4,0:0:0:0:
109,192,53710,1,8,0:0:0:0:
182,192,53815,1,8,0:0:0:0:
256,192,53921,1,8,0:0:0:0:
329,192,54026,1,8,0:0:0:0:
402,192,54131,128,0,54447:0:0:0:70:Tom1.wav
329,192,54447,1,0,0:0:0:70:Tom2.wav
256,192,54552,1,0,0:0:0:70:Tom2.wav
182,192,54657,1,0,0:0:0:70:Tom2.wav
36,192,54763,1,0,0:0:0:0:
475,192,54763,1,0,0:0:0:0:
182,192,56100,1,0,0:0:0:0:
402,192,56100,1,0,0:0:0:0:
36,192,57392,1,6,0:0:0:0:
109,192,57392,1,8,0:0:0:0:
182,192,57554,1,0,0:0:0:0:
256,192,57716,1,2,0:0:0:0:
475,192,57878,1,8,0:0:0:0:
402,192,58040,1,10,0:0:0:0:
109,192,58202,1,8,0:0:0:0:
182,192,58364,1,10,0:0:0:0:
256,192,58527,1,8,0:0:0:0:
402,192,58689,128,0,59013:0:0:0:0:
36,192,59013,128,0,59337:0:0:0:0:
182,192,59337,128,0,59662:0:0:0:0:
329,192,59662,128,2,59986:0:0:0:0:
36,192,59986,1,6,0:0:0:0:
475,192,59986,1,8,0:0:0:0:
36,192,60310,1,8,0:0:0:0:
109,192,60310,128,0,60473:0:0:0:0:
329,192,60473,128,0,60635:0:0:0:0:
182,192,60635,128,2,60959:0:0:0:0:
475,192,60797,1,2,0:0:0:0:
36,192,60959,1,8,0:0:0:0:
329,192,60959,128,0,61121:0:0:0:0:
475,192,61121,128,0,61283:0:0:0:0:
109,192,61283,128,2,61446:0:0:0:0:
256,192,61608,128,8,61932:0:0:0:0:
402,192,61608,1,0,0:0:0:0:
475,192,61932,128,2,62094:0:0:0:0:
329,192,62094,128,2,62256:0:0:0:0:
36,192,62256,128,8,62581:0:0:0:0:
182,192,62256,1,0,0:0:0:0:
256,192,62581,128,2,62905:0:0:0:0:
475,192,62581,1,4,0:0:0:0:
109,192,62905,1,8,0:0:0:0:
402,192,62905,128,0,63391:0:0:0:0:
182,192,63229,1,2,0:0:0:0:
36,192,63391,1,2,0:0:0:0:
329,192,63554,1,8,0:0:0:0:
475,192,63554,1,0,0:0:0:0:
256,192,63878,128,2,64202:0:0:0:0:
109,192,64202,128,8,64527:0:0:0:0:
402,192,64202,1,0,0:0:0:0:
329,192,64527,128,2,64851:0:0:0:0:
182,192,64851,1,8,0:0:0:0:
475,192,64851,128,0,65175:0:0:0:0:
329,192,65175,1,2,0:0:0:0:
256,192,65337,1,2,0:0:0:0:
109,192,65500,128,8,65662:0:0:0:0:
182,192,65500,1,4,0:0:0:0:
329,192,65662,128,0,65824:0:0:0:0:
36,192,65824,128,0,66148:0:0:0:0:
475,192,65986,1,2,0:0:0:0:
256,192,66148,1,8,0:0:0:0:
402,192,66148,1,0,0:0:0:0:
182,192,66310,128,0,66473:0:0:0:0:
329,192,66473,128,2,66797:0:0:0:0:
109,192,66797,1,8,0:0:0:0:
475,192,66797,128,0,67121:0:0:0:0:
402,192,67121,128,2,67283:0:0:0:0:
256,192,67283,128,2,67446:0:0:0:0:
109,192,67446,128,8,67770:0:0:0:0:
329,192,67446,1,0,0:0:0:0:
36,192,67770,128,2,68094:0:0:0:0:
475,192,67770,1,4,0:0:0:0:
256,192,68094,128,8,68256:0:0:0:0:
402,192,68094,1,0,0:0:0:0:
109,192,68256,128,0,68419:0:0:0:0:
329,192,68419,128,2,68581:0:0:0:0:
402,192,68581,128,2,68743:0:0:0:0:
109,192,68743,1,8,0:0:0:0:
475,192,68743,128,0,69067:0:0:0:0:
182,192,68905,1,2,0:0:0:0:
256,192,69067,1,8,0:0:0:0:
329,192,69067,1,0,0:0:0:0:
36,192,69229,1,2,0:0:0:0:
329,192,69391,1,8,0:0:0:0:
402,192,69391,1,0,0:0:0:0:
109,192,69554,1,2,0:0:0:0:
402,192,69716,1,8,0:0:0:0:
475,192,69716,1,0,0:0:0:0:
182,192,69878,1,0,0:0:0:70:Tom1.wav
36,192,70040,1,0,0:0:0:70:Tom2.wav
256,192,70040,1,0,0:0:0:0:
475,192,70202,1,0,0:0:0:70:Tom3.wav
402,192,70283,1,0,0:0:0:70:Tom3.wav
256,192,70364,1,6,0:0:0:0:
329,192,70364,1,0,0:0:0:70:Tom3.wav
36,192,70689,1,8,0:0:0:0:
109,192,70689,128,0,71013:0:0:0:0:
256,192,71013,128,2,71175:0:0:0:0:
402,192,71175,128,2,71337:0:0:0:0:
36,192,71337,1,8,0:0:0:0:
475,192,71337,128,0,71500:0:0:0:0:
182,192,71500,128,0,71662:0:0:0:0:
109,192,71662,1,2,0:0:0:0:
329,192,71662,1,0,0:0:0:0:
36,192,71986,1,8,0:0:0:0:
256,192,71986,128,0,72310:0:0:0:0:
475,192,72310,128,2,72473:0:0:0:0:
329,192,72473,128,2,72635:0:0:0:0:
182,192,72635,128,8,72797:0:0:0:0:
402,192,72635,1,0,0:0:0:0:
36,192,72797,128,0,72959:0:0:0:0:
256,192,72959,1,2,0:0:0:0:
475,192,72959,1,4,0:0:0:0:
109,192,73283,1,8,0:0:0:0:
182,192,73283,128,0,73446:0:0:0:0:
329,192,73446,128,0,73608:0:0:0:0:
109,192,73608,128,2,73770:0:0:0:0:
36,192,73770,1,2,0:0:0:0:
329,192,73932,1,8,0:0:0:0:
475,192,73932,128,0,74256:0:0:0:0:
256,192,74094,1,2,0:0:0:0:
36,192,74256,1,8,0:0:0:0:
109,192,74256,1,4,0:0:0:0:
329,192,74419,1,2,0:0:0:0:
36,192,74581,1,8,0:0:0:0:
109,192,74581,1,0,0:0:0:0:
329,192,74743,1,2,0:0:0:0:
402,192,74905,1,8,0:0:0:0:
475,192,74905,1,0,0:0:0:0:
182,192,75067,1,2,0:0:0:0:
402,192,75229,1,8,0:0:0:0:
475,192,75229,1,0,0:0:0:0:
182,192,75391,1,0,0:0:0:70:Tom3.wav
329,192,75473,1,0,0:0:0:70:Tom3.wav
36,192,75554,1,6,0:0:0:0:
475,192,75554,1,0,0:0:0:70:Tom3.wav
182,192,75878,1,8,0:0:0:0:
256,192,75878,1,0,0:0:0:0:
329,192,76202,1,2,0:0:0:0:
402,192,76364,1,2,0:0:0:0:
182,192,76527,1,8,0:0:0:0:
475,192,76527,1,0,0:0:0:0:
36,192,76851,1,2,0:0:0:0:
256,192,76851,1,4,0:0:0:0:
109,192,77175,1,8,0:0:0:0:
182,192,77175,128,0,77500:0:0:0:0:
329,192,77500,128,2,77824:0:0:0:0:
36,192,77662,1,2,0:0:0:0:
256,192,77824,1,8,0:0:0:0:
475,192,77824,128,0,78148:0:0:0:0:
36,192,78148,1,2,0:0:0:0:
182,192,78148,1,4,0:0:0:0:
109,192,78310,1,8,0:0:0:0:
256,192,78473,1,8,0:0:0:0:
182,192,78635,1,8,0:0:0:0:
329,192,78797,1,8,0:0:0:0:
256,192,78959,1,8,0:0:0:0:
402,192,79121,1,8,0:0:0:0:
329,192,79283,1,8,0:0:0:0:
36,192,79446,1,6,0:0:0:0:
182,192,79446,1,8,0:0:0:0:
475,192,79932,1,0,0:0:0:70:Tom2.wav
329,192,80013,1,0,0:0:0:70:Tom2.wav
182,192,80094,1,2,0:0:0:0:
402,192,80419,1,0,0:0:0:70:Tom2.wav
36,192,80743,1,0,0:0:0:0:
182,192,80743,1,0,0:0:0:0:
182,192,82040,1,0,0:0:0:0:
329,192,82040,1,0,0:0:0:0:
36,192,83337,1,10,0:0:0:0:
109,192,83337,1,4,0:0:0:0:
182,192,83500,1,0,0:0:0:0:
329,192,83662,1,2,0:0:0:0:
475,192,83824,1,0,0:0:0:0:
256,192,83986,1,2,0:0:0:0:
109,192,84310,1,2,0:0:0:0:
329,192,84473,1,0,0:0:0:0:
182,192,84635,1,2,0:0:0:0:
402,192,84797,1,0,0:0:0:0:
256,192,85121,1,0,0:0:0:0:
182,192,85283,1,2,0:0:0:0:
36,192,85446,1,0,0:0:0:0:
109,192,85608,1,2,0:0:0:0:
182,192,85770,1,0,0:0:0:0:
329,192,85932,1,2,0:0:0:0:
475,192,86094,1,0,0:0:0:0:
329,192,86256,1,2,0:0:0:0:
475,192,86419,1,0,0:0:0:0:
402,192,86581,1,2,0:0:0:0:
36,192,86905,1,2,0:0:0:0:
256,192,87067,1,0,0:0:0:0:
109,192,87229,1,2,0:0:0:0:
402,192,87391,1,0,0:0:0:0:
182,192,87716,1,0,0:0:0:0:
475,192,87878,1,2,0:0:0:0:
402,192,88040,1,0,0:0:0:0:
329,192,88202,1,0,0:0:0:0:
109,192,88364,1,0,0:0:0:0:
182,192,88364,1,0,0:0:0:0:
