osu file format v14

[General]
AudioFilename: audio.mp3
AudioLeadIn: 0
PreviewTime: 59986
Countdown: 0
SampleSet: Soft
StackLeniency: 0.7
Mode: 3
LetterboxInBreaks: 0
SpecialStyle: 0
WidescreenStoryboard: 1

[Editor]
DistanceSpacing: 2.2
BeatDivisor: 2
GridSize: 32
TimelineZoom: 1

[Metadata]
Title:Careless (TV Size)
TitleUnicode:ケアレス (TV Size)
Artist:ClariS
ArtistUnicode:ClariS
Creator:Syrion-
Version:Heru's Easy
Source:マギアレコード 魔法少女まどか☆マギカ外伝 2nd SEASON -覚醒前夜-
Tags:virtue- heru20 Magia Record: Puella Magi Madoka*Magica Side Story Kakusei zenya magiarekodo mahou shoujo gaiden op opening japanese jpop j-pop pop anime クラリス Clara クララ Karen カレン 湯浅篤 Atsushi Yuasa 渡辺翔 sho watanabe
BeatmapID:3178317
BeatmapSetID:1555025

[Difficulty]
HPDrainRate:7
CircleSize:7
OverallDifficulty:7
ApproachRate:5
SliderMultiplier:1.4
SliderTickRate:1

[Events]
//Background and Video events
0,0,"Careless (TV Size).jpg",0,0
Video,0,"Careless (TV Size).mp4"
//Break Periods
//Storyboard Layer 0 (Background)
//Storyboard Layer 1 (Fail)
//Storyboard Layer 2 (Pass)
//Storyboard Layer 3 (Foreground)
//Storyboard Layer 4 (Overlay)
//Storyboard Sound Samples
Sample,21067,0,"tick.wav.wav",70
Sample,25932,0,"tick.wav.wav",70
Sample,65175,0,"Tom3.wav",70

[TimingPoints]
311,324.324324324324,4,2,2,70,1,0
53500,315.789473684211,4,2,2,70,1,0
53500,-103.092783505155,4,2,2,70,0,0
54763,334.280461307037,4,2,2,70,1,0
54763,-97.0873786407767,4,2,2,70,0,0
56768,312.01248049922,4,2,2,70,1,0
56768,-104.166666666667,4,2,2,70,0,0
57392,324.324324324324,4,2,2,70,1,0
59986,-100,4,2,2,70,0,1
79446,-100,4,2,2,70,0,0

[HitObjects]
329,192,311,128,0,959:0:0:0:0:
109,192,959,1,0,0:0:0:0:
182,192,1283,128,0,1770:0:0:0:0:
402,192,1770,1,0,0:0:0:0:
329,192,2256,128,0,2581:0:0:0:0:
182,192,2581,128,0,2905:0:0:0:0:
36,192,2905,128,0,3554:0:0:0:0:
475,192,3554,1,0,0:0:0:0:
329,192,3878,128,0,4365:0:0:0:0:
182,192,4365,1,0,0:0:0:0:
36,192,4851,1,10,0:0:0:0:
109,192,5013,1,2,0:0:0:0:
182,192,5175,1,0,0:0:0:70:Tom3.wav
256,192,5338,1,6,0:0:0:0:
402,192,5338,128,8,6148:0:0:0:0:
256,192,6148,128,2,6635:0:0:0:0:
109,192,6635,128,6,7446:0:0:0:0:
475,192,6635,1,8,0:0:0:0:
329,192,7446,128,2,7932:0:0:0:0:
36,192,7932,128,6,8743:0:0:0:0:
475,192,7932,1,8,0:0:0:0:
256,192,8743,128,2,9229:0:0:0:0:
182,192,9229,1,6,0:0:0:0:
475,192,9229,128,8,9878:0:0:0:0:
36,192,9878,1,2,0:0:0:0:
329,192,9878,1,4,0:0:0:0:
182,192,10202,1,2,0:0:0:0:
256,192,10365,128,8,10689:0:0:0:0:
36,192,10689,1,2,0:0:0:0:
475,192,10689,128,4,11338:0:0:0:0:
182,192,11013,1,8,0:0:0:0:
329,192,11338,128,0,11986:0:0:0:0:
36,192,11662,1,8,0:0:0:0:
182,192,11986,128,2,12635:0:0:0:0:
475,192,12310,1,8,0:0:0:0:
36,192,12635,128,0,13283:0:0:0:0:
329,192,12959,1,8,0:0:0:0:
182,192,13283,1,2,0:0:0:0:
402,192,13283,128,4,13770:0:0:0:0:
329,192,13770,128,0,14094:0:0:0:0:
256,192,14094,1,2,0:0:0:0:
182,192,14256,1,8,0:0:0:0:
109,192,14419,128,2,14743:0:0:0:0:
329,192,14743,128,8,15229:0:0:0:0:
475,192,14743,1,4,0:0:0:0:
36,192,15229,1,8,0:0:0:0:
109,192,15392,1,0,0:0:0:70:Tom2.wav
182,192,15554,1,0,0:0:0:70:Tom1.wav
256,192,15716,1,0,0:0:0:70:Tom1.wav
329,192,15878,1,2,0:0:0:0:
475,192,15878,128,4,16202:0:0:0:0:
36,192,16202,128,8,16527:0:0:0:0:
402,192,16527,128,0,16851:0:0:0:70:Tom1.wav
109,192,16851,128,0,17175:0:0:0:70:Tom2.wav
329,192,17175,1,12,0:0:0:0:
182,192,17338,1,12,0:0:0:0:
109,192,18473,1,6,0:0:0:0:
402,192,18473,1,0,0:0:0:70:tick.wav.wav
329,192,18797,1,0,0:0:0:70:tick.wav.wav
182,192,19121,1,0,0:0:0:70:tick.wav.wav
402,192,19446,1,0,0:0:0:70:tick.wav.wav
256,192,19770,1,0,0:0:0:70:tick.wav.wav
475,192,20094,1,0,0:0:0:70:tick.wav.wav
329,192,20419,1,0,0:0:0:70:tick.wav.wav
182,192,20743,1,0,0:0:0:70:tick.wav.wav
36,192,21067,1,2,0:0:0:0:
256,192,21392,1,0,0:0:0:70:tick.wav.wav
109,192,21716,1,0,0:0:0:70:tick.wav.wav
329,192,22040,1,0,0:0:0:70:tick.wav.wav
182,192,22365,1,0,0:0:0:70:tick.wav.wav
402,192,22689,1,0,0:0:0:70:tick.wav.wav
256,192,23013,1,0,0:0:0:70:tick.wav.wav
475,192,23338,1,0,0:0:0:70:tick.wav.wav
109,192,23662,1,6,0:0:0:0:
329,192,23662,128,0,24310:0:0:0:70:tick.wav.wav
182,192,23986,1,0,0:0:0:70:tick.wav.wav
256,192,24310,1,0,0:0:0:70:tick.wav.wav
329,192,24635,1,0,0:0:0:70:tick.wav.wav
109,192,24959,128,0,25608:0:0:0:70:tick.wav.wav
475,192,25283,1,0,0:0:0:70:tick.wav.wav
256,192,25608,128,0,26256:0:0:0:70:tick.wav.wav
475,192,25932,1,2,0:0:0:0:
109,192,26256,1,6,0:0:0:0:
402,192,26256,1,0,0:0:0:70:tick.wav.wav
182,192,26581,1,0,0:0:0:70:tick.wav.wav
329,192,26905,128,0,27229:0:0:0:70:tick.wav.wav
109,192,27229,128,0,27554:0:0:0:70:tick.wav.wav
256,192,27554,128,0,27878:0:0:0:70:tick.wav.wav
402,192,27878,128,0,28202:0:0:0:70:tick.wav.wav
109,192,28202,1,10,0:0:0:0:
329,192,28365,128,2,28851:0:0:0:0:
36,192,28851,1,4,0:0:0:0:
256,192,28851,1,0,0:0:0:0:
402,192,29175,1,8,0:0:0:0:
182,192,29662,1,2,0:0:0:0:
329,192,29824,1,8,0:0:0:0:
109,192,30148,1,2,0:0:0:0:
256,192,30473,1,8,0:0:0:0:
402,192,30959,1,2,0:0:0:0:
329,192,31121,1,8,0:0:0:0:
182,192,31283,1,2,0:0:0:0:
109,192,31446,1,2,0:0:0:0:
256,192,31770,1,8,0:0:0:0:
36,192,32256,1,2,0:0:0:0:
329,192,32419,1,8,0:0:0:0:
475,192,32743,1,2,0:0:0:0:
256,192,33067,1,8,0:0:0:0:
109,192,33554,1,2,0:0:0:0:
182,192,33716,1,8,0:0:0:0:
475,192,33878,1,2,0:0:0:0:
36,192,34040,1,2,0:0:0:0:
329,192,34040,128,4,34365:0:0:0:0:
109,192,34365,1,8,0:0:0:0:
256,192,34851,1,2,0:0:0:0:
402,192,35013,1,8,0:0:0:0:
182,192,35338,128,2,35662:0:0:0:0:
475,192,35338,1,4,0:0:0:0:
329,192,35662,1,8,0:0:0:0:
256,192,36148,1,2,0:0:0:0:
109,192,36310,1,8,0:0:0:0:
475,192,36473,1,2,0:0:0:0:
36,192,36635,1,2,0:0:0:0:
329,192,36635,128,4,36959:0:0:0:0:
256,192,36959,128,8,37283:0:0:0:0:
36,192,37283,1,2,0:0:0:0:
182,192,37446,1,2,0:0:0:0:
329,192,37608,1,8,0:0:0:0:
36,192,37770,1,2,0:0:0:0:
475,192,37770,1,4,0:0:0:0:
329,192,38094,128,0,38581:0:0:0:0:
256,192,38581,128,0,38905:0:0:0:70:Tom2.wav
182,192,38905,128,8,39229:0:0:0:0:
329,192,39229,1,4,0:0:0:0:
475,192,39229,128,8,39554:0:0:0:0:
36,192,39554,128,4,39878:0:0:0:0:
256,192,39554,1,8,0:0:0:0:
402,192,39878,128,2,40202:0:0:0:0:
109,192,40202,128,2,40527:0:0:0:0:
329,192,40527,128,10,40851:0:0:0:0:
36,192,40851,1,2,0:0:0:0:
182,192,41013,1,8,0:0:0:0:
475,192,41338,1,2,0:0:0:0:
402,192,41500,1,2,0:0:0:0:
329,192,41662,1,2,0:0:0:0:
36,192,41824,128,8,42148:0:0:0:0:
256,192,41824,1,4,0:0:0:0:
402,192,42148,1,8,0:0:0:0:
475,192,42148,128,4,42473:0:0:0:0:
182,192,42473,128,2,42797:0:0:0:0:
329,192,42797,128,2,43121:0:0:0:0:
109,192,43121,128,10,43446:0:0:0:0:
402,192,43446,1,2,0:0:0:0:
329,192,43608,1,8,0:0:0:0:
256,192,43932,1,8,0:0:0:0:
182,192,44256,1,0,0:0:0:70:Tom1.wav
36,192,44419,128,6,45067:0:0:0:0:
402,192,44419,1,8,0:0:0:0:
329,192,44743,1,2,0:0:0:0:
182,192,45067,128,2,45716:0:0:0:0:
475,192,45392,1,2,0:0:0:0:
329,192,45716,128,2,46365:0:0:0:0:
109,192,46040,1,2,0:0:0:0:
475,192,46365,128,2,47013:0:0:0:0:
182,192,46689,1,2,0:0:0:0:
256,192,47013,128,2,47662:0:0:0:0:
36,192,47338,1,2,0:0:0:0:
109,192,47662,128,2,48310:0:0:0:0:
402,192,47986,1,0,0:0:0:70:Tom1.wav
329,192,48310,128,2,48959:0:0:0:0:
182,192,48635,1,12,0:0:0:0:
36,192,48959,1,8,0:0:0:0:
475,192,48959,128,4,49608:0:0:0:0:
256,192,49283,1,2,0:0:0:0:
36,192,49608,128,4,49932:0:0:0:0:
402,192,49608,1,0,0:0:0:0:
182,192,49932,128,0,50256:0:0:0:0:
329,192,50256,128,0,50581:0:0:0:0:
475,192,50581,128,0,50905:0:0:0:0:
36,192,50905,1,2,0:0:0:0:
256,192,50905,1,4,0:0:0:0:
109,192,51554,1,2,0:0:0:0:
329,192,51554,1,4,0:0:0:0:
182,192,52202,1,2,0:0:0:0:
402,192,52202,128,4,52689:0:0:0:0:
329,192,52689,1,2,0:0:0:0:
36,192,52851,1,8,0:0:0:0:
182,192,53013,128,2,53500:0:0:0:0:
109,192,53500,1,2,0:0:0:0:
402,192,53500,128,4,54131:0:0:0:0:
475,192,54131,128,0,54763:0:0:0:70:Tom1.wav
256,192,54763,1,0,0:0:0:0:
182,192,56100,1,0,0:0:0:0:
329,192,56100,1,0,0:0:0:0:
36,192,57392,1,6,0:0:0:0:
475,192,57392,1,8,0:0:0:0:
402,192,57716,128,2,58040:0:0:0:0:
109,192,58040,128,10,58364:0:0:0:0:
256,192,58364,128,10,58689:0:0:0:0:
475,192,58689,128,0,59013:0:0:0:0:
329,192,59013,128,0,59337:0:0:0:0:
182,192,59337,128,0,59662:0:0:0:0:
36,192,59662,128,2,59986:0:0:0:0:
256,192,59986,1,6,0:0:0:0:
475,192,59986,1,8,0:0:0:0:
402,192,60310,1,8,0:0:0:0:
36,192,60635,1,2,0:0:0:0:
182,192,60797,1,2,0:0:0:0:
329,192,60959,1,8,0:0:0:0:
109,192,61283,1,2,0:0:0:0:
256,192,61608,1,8,0:0:0:0:
182,192,61932,1,2,0:0:0:0:
329,192,62094,1,2,0:0:0:0:
475,192,62256,1,8,0:0:0:0:
36,192,62581,1,2,0:0:0:0:
182,192,62581,1,4,0:0:0:0:
402,192,62905,1,8,0:0:0:0:
182,192,63229,1,2,0:0:0:0:
256,192,63391,1,2,0:0:0:0:
329,192,63554,1,8,0:0:0:0:
475,192,63878,128,2,64202:0:0:0:0:
36,192,64202,128,8,64527:0:0:0:0:
402,192,64527,128,2,64851:0:0:0:0:
109,192,64851,128,8,65175:0:0:0:0:
256,192,65175,1,2,0:0:0:0:
182,192,65500,1,8,0:0:0:0:
475,192,65500,1,4,0:0:0:0:
402,192,65824,1,0,0:0:0:0:
256,192,65986,1,2,0:0:0:0:
109,192,66148,1,8,0:0:0:0:
329,192,66473,1,2,0:0:0:0:
475,192,66797,1,8,0:0:0:0:
109,192,67121,1,2,0:0:0:0:
256,192,67283,1,2,0:0:0:0:
402,192,67446,1,8,0:0:0:0:
36,192,67770,1,2,0:0:0:0:
182,192,67770,1,4,0:0:0:0:
329,192,68094,1,8,0:0:0:0:
182,192,68419,1,2,0:0:0:0:
109,192,68581,1,2,0:0:0:0:
256,192,68743,1,8,0:0:0:0:
329,192,68905,1,2,0:0:0:0:
36,192,69067,1,8,0:0:0:0:
475,192,69067,128,0,69391:0:0:0:0:
402,192,69391,128,8,69716:0:0:0:0:
329,192,69716,128,8,70040:0:0:0:0:
256,192,70040,128,0,70364:0:0:0:70:Tom2.wav
109,192,70364,1,6,0:0:0:0:
402,192,70364,1,0,0:0:0:70:Tom3.wav
329,192,70689,128,8,71013:0:0:0:0:
36,192,71013,1,2,0:0:0:0:
109,192,71175,1,2,0:0:0:0:
182,192,71337,1,8,0:0:0:0:
329,192,71662,1,2,0:0:0:0:
402,192,71662,1,0,0:0:0:0:
182,192,71986,128,8,72310:0:0:0:0:
475,192,72310,1,2,0:0:0:0:
402,192,72473,1,2,0:0:0:0:
329,192,72635,1,8,0:0:0:0:
109,192,72959,1,2,0:0:0:0:
256,192,72959,1,4,0:0:0:0:
329,192,73283,128,8,73608:0:0:0:0:
36,192,73608,1,2,0:0:0:0:
109,192,73770,1,2,0:0:0:0:
182,192,73932,1,8,0:0:0:0:
256,192,74256,1,8,0:0:0:0:
475,192,74256,1,4,0:0:0:0:
182,192,74581,1,8,0:0:0:0:
402,192,74581,1,0,0:0:0:0:
109,192,74905,1,8,0:0:0:0:
329,192,74905,1,0,0:0:0:0:
36,192,75229,1,8,0:0:0:0:
256,192,75229,1,0,0:0:0:0:
109,192,75554,1,6,0:0:0:0:
402,192,75554,1,0,0:0:0:70:Tom3.wav
329,192,75878,1,8,0:0:0:0:
36,192,76202,1,2,0:0:0:0:
182,192,76364,1,2,0:0:0:0:
329,192,76527,1,8,0:0:0:0:
109,192,76851,1,2,0:0:0:0:
475,192,76851,1,4,0:0:0:0:
402,192,77175,1,8,0:0:0:0:
182,192,77500,1,2,0:0:0:0:
109,192,77662,1,2,0:0:0:0:
36,192,77824,1,8,0:0:0:0:
256,192,78148,1,2,0:0:0:0:
329,192,78148,128,4,78797:0:0:0:0:
475,192,78797,128,8,79446:0:0:0:0:
36,192,79446,128,6,80094:0:0:0:0:
256,192,79446,1,8,0:0:0:0:
182,192,80094,128,2,80743:0:0:0:0:
475,192,80743,1,0,0:0:0:0:
329,192,82040,1,0,0:0:0:0:
36,192,83337,1,10,0:0:0:0:
475,192,83337,1,4,0:0:0:0:
329,192,83662,1,2,0:0:0:0:
182,192,83986,1,2,0:0:0:0:
109,192,84310,1,2,0:0:0:0:
256,192,84635,1,2,0:0:0:0:
402,192,84959,1,2,0:0:0:0:
329,192,85283,128,2,85608:0:0:0:0:
182,192,85608,128,2,85932:0:0:0:0:
36,192,85932,1,2,0:0:0:0:
182,192,86256,1,2,0:0:0:0:
329,192,86581,1,2,0:0:0:0:
109,192,86905,1,2,0:0:0:0:
256,192,87229,1,2,0:0:0:0:
402,192,87554,1,2,0:0:0:0:
182,192,87878,128,2,88364:0:0:0:0:
475,192,88364,1,0,0:0:0:0:
