osu file format v14

[General]
AudioFilename: audio.mp3
AudioLeadIn: 0
PreviewTime: 58696
Countdown: 0
SampleSet: Soft
StackLeniency: 0.7
Mode: 3
LetterboxInBreaks: 0
SpecialStyle: 0
WidescreenStoryboard: 1

[Editor]
DistanceSpacing: 0.8
BeatDivisor: 4
GridSize: 32
TimelineZoom: 4.599998

[Metadata]
Title:Careless (TV Size)
TitleUnicode:ケアレス (TV Size)
Artist:ClariS
ArtistUnicode:ClariS
Creator:Scotty
Version:Normal
Source:マギアレコード 魔法少女まどか☆マギカ外伝 2nd SEASON -覚醒前夜-
Tags:anatharax [ping] anime japanese magia record: puella magi madoka*magica side story kakusei zenya magiarekodo mahou shoujo gaiden op opening japanese jpop j-pop pop クラリス Clara クララ Karen カレン 湯浅篤 Atsushi Yuasa 渡辺翔 sho watanabe
BeatmapID:4386501
BeatmapSetID:2092082

[Difficulty]
HPDrainRate:7.5
CircleSize:4
OverallDifficulty:7.5
ApproachRate:5
SliderMultiplier:1.4
SliderTickRate:1

[Events]
//Background and Video events
0,0,"not at all stolen from a stolen bg.jpg",0,0
//Break Periods
//Storyboard Layer 0 (Background)
//Storyboard Layer 1 (Fail)
//Storyboard Layer 2 (Pass)
//Storyboard Layer 3 (Foreground)
//Storyboard Layer 4 (Overlay)
//Storyboard Sound Samples

[TimingPoints]
318,324.324324324324,4,2,1,70,1,0
53507,315.789473684211,4,2,1,70,1,0
53507,-103.092783505155,4,2,1,70,0,0
54770,334.280461307037,4,2,1,70,1,0
54770,-97.0873786407767,4,2,1,70,0,0
56775,312.01248049922,4,2,1,70,1,0
56775,-104.166666666667,4,2,1,70,0,0
57399,324.324324324324,4,2,1,70,1,0
59993,-100,4,2,1,70,0,1
79453,-100,4,2,1,70,0,0

[HitObjects]
320,192,318,5,0,0:0:0:0:
64,192,480,1,0,0:0:0:0:
320,192,642,1,0,0:0:0:0:
192,192,804,1,0,0:0:0:0:
448,192,966,1,0,0:0:0:0:
320,192,1290,1,0,0:0:0:0:
64,192,1453,1,0,0:0:0:0:
192,192,1615,1,0,0:0:0:0:
448,192,1777,1,0,0:0:0:0:
64,192,2101,1,0,0:0:0:0:
320,192,2263,1,0,0:0:0:0:
448,192,2426,1,0,0:0:0:0:
192,192,2588,1,0,0:0:0:0:
64,192,2750,1,0,0:0:0:0:
320,192,2912,128,0,3074:0:0:0:0:
64,192,3074,128,0,3236:0:0:0:0:
320,192,3236,128,0,3399:0:0:0:0:
192,192,3399,128,0,3561:0:0:0:0:
448,192,3561,128,0,3723:0:0:0:0:
64,192,3885,128,0,4047:0:0:0:0:
320,192,4047,128,0,4209:0:0:0:0:
192,192,4209,128,0,4372:0:0:0:0:
448,192,4372,128,0,4696:0:0:0:0:
64,192,4696,1,0,0:0:0:0:
192,192,4858,1,8,0:0:0:0:
448,192,4858,1,0,0:0:0:0:
320,192,5020,1,2,0:0:0:0:
192,192,5182,1,0,0:0:0:70:Tom3.wav
64,192,5345,1,2,0:0:0:0:
448,192,5345,128,4,6155:0:0:0:0:
192,192,5669,1,2,0:0:0:0:
64,192,5831,1,8,0:0:0:0:
192,192,6155,128,2,6480:0:0:0:0:
320,192,6317,1,2,0:0:0:0:
448,192,6480,1,8,0:0:0:0:
64,192,6642,128,4,7453:0:0:0:0:
192,192,6642,1,2,0:0:0:0:
320,192,6966,1,2,0:0:0:0:
448,192,7128,1,8,0:0:0:0:
320,192,7453,128,2,7777:0:0:0:0:
192,192,7615,1,8,0:0:0:0:
192,192,7777,1,8,0:0:0:0:
320,192,7939,1,4,0:0:0:0:
448,192,7939,128,2,8588:0:0:0:0:
64,192,8263,1,2,0:0:0:0:
192,192,8426,1,8,0:0:0:0:
320,192,8588,128,0,8750:0:0:0:0:
448,192,8750,128,2,9236:0:0:0:0:
192,192,8912,1,0,0:0:0:70:Tom2.wav
64,192,9074,1,0,0:0:0:70:Tom1.wav
192,192,9236,1,4,0:0:0:0:
320,192,9236,128,2,9723:0:0:0:0:
64,192,9561,1,2,0:0:0:0:
448,192,9723,1,8,0:0:0:0:
192,192,9885,128,4,10209:0:0:0:0:
320,192,9885,1,2,0:0:0:0:
64,192,10209,128,2,10372:0:0:0:0:
192,192,10372,128,8,10534:0:0:0:0:
448,192,10372,1,4,0:0:0:0:
320,192,10534,128,0,10696:0:0:0:0:
64,192,10696,128,4,11345:0:0:0:0:
192,192,10696,1,2,0:0:0:0:
448,192,11020,1,8,0:0:0:0:
192,192,11345,128,0,11993:0:0:0:0:
320,192,11507,1,2,0:0:0:0:
448,192,11669,1,8,0:0:0:0:
320,192,11993,128,2,12642:0:0:0:0:
64,192,12317,1,8,0:0:0:0:
192,192,12480,1,2,0:0:0:0:
448,192,12642,128,0,13128:0:0:0:0:
192,192,12804,1,2,0:0:0:0:
64,192,12966,1,8,0:0:0:0:
320,192,13290,128,2,13453:0:0:0:0:
448,192,13290,128,4,13453:0:0:0:0:
64,192,13615,1,8,0:0:0:0:
448,192,13615,1,0,0:0:0:0:
192,192,13777,128,0,13939:0:0:0:0:
320,192,13777,128,0,13939:0:0:0:0:
64,192,14101,1,2,0:0:0:0:
320,192,14263,1,8,0:0:0:0:
448,192,14263,1,0,0:0:0:0:
192,192,14426,1,2,0:0:0:0:
64,192,14588,128,2,15074:0:0:0:0:
320,192,14750,1,8,0:0:0:0:
448,192,14750,1,4,0:0:0:0:
320,192,15074,1,2,0:0:0:0:
448,192,15236,1,8,0:0:0:0:
64,192,15399,1,0,0:0:0:70:Tom2.wav
448,192,15561,1,0,0:0:0:70:Tom1.wav
320,192,15723,1,0,0:0:0:70:Tom1.wav
64,192,15885,1,4,0:0:0:0:
192,192,15885,1,2,0:0:0:0:
320,192,16101,1,8,0:0:0:0:
192,192,16209,1,8,0:0:0:0:
64,192,16317,1,8,0:0:0:0:
448,192,16426,1,8,0:0:0:0:
320,192,16534,1,0,0:0:0:70:Tom1.wav
64,192,16642,1,0,0:0:0:70:Tom1.wav
192,192,16750,1,0,0:0:0:70:Tom1.wav
320,192,16858,1,0,0:0:0:70:Tom2.wav
448,192,17020,1,0,0:0:0:0:
64,192,17182,1,8,0:0:0:0:
192,192,17182,1,0,0:0:0:0:
320,192,17345,1,8,0:0:0:0:
448,192,17345,1,0,0:0:0:0:
64,192,18480,1,2,0:0:0:0:
448,192,18480,1,4,0:0:0:0:
448,192,18804,1,0,0:0:0:0:
448,192,19128,1,0,0:0:0:0:
448,192,19453,1,0,0:0:0:0:
64,192,19777,1,0,0:0:0:0:
64,192,20101,1,0,0:0:0:0:
64,192,20426,1,0,0:0:0:0:
64,192,20750,1,0,0:0:0:0:
192,192,20912,1,2,0:0:0:0:
320,192,21074,1,2,0:0:0:0:
448,192,21074,1,0,0:0:0:0:
320,192,21399,1,0,0:0:0:0:
320,192,21723,1,0,0:0:0:0:
320,192,22047,1,0,0:0:0:0:
192,192,22372,1,0,0:0:0:0:
192,192,22696,1,0,0:0:0:0:
192,192,23020,1,0,0:0:0:0:
192,192,23345,1,0,0:0:0:0:
320,192,23507,1,2,0:0:0:0:
64,192,23669,1,2,0:0:0:0:
448,192,23669,1,4,0:0:0:0:
448,192,23993,1,0,0:0:0:0:
448,192,24317,1,0,0:0:0:0:
448,192,24642,1,0,0:0:0:0:
64,192,24966,1,0,0:0:0:0:
64,192,25290,1,0,0:0:0:0:
64,192,25615,1,0,0:0:0:0:
64,192,25939,1,0,0:0:0:0:
320,192,26101,1,2,0:0:0:0:
64,192,26263,1,2,0:0:0:0:
448,192,26263,1,4,0:0:0:0:
320,192,26588,1,0,0:0:0:0:
192,192,26750,1,0,0:0:0:0:
448,192,26912,1,0,0:0:0:0:
64,192,27074,1,0,0:0:0:0:
320,192,27236,1,0,0:0:0:0:
192,192,27399,1,0,0:0:0:0:
448,192,27561,1,0,0:0:0:0:
320,192,27723,1,0,0:0:0:0:
64,192,27885,1,0,0:0:0:0:
192,192,28047,1,0,0:0:0:0:
320,192,28209,1,8,0:0:0:0:
320,192,28372,128,2,28858:0:0:0:0:
448,192,28372,128,0,28858:0:0:0:0:
64,192,28858,1,4,0:0:0:0:
192,192,28858,1,2,0:0:0:0:
320,192,29182,1,8,0:0:0:0:
448,192,29182,1,0,0:0:0:0:
192,192,29669,1,2,0:0:0:0:
64,192,29831,1,8,0:0:0:0:
448,192,29831,1,0,0:0:0:0:
320,192,30155,1,2,0:0:0:0:
64,192,30480,1,8,0:0:0:0:
192,192,30480,1,0,0:0:0:0:
192,192,30966,1,2,0:0:0:0:
320,192,31128,1,8,0:0:0:0:
448,192,31128,1,0,0:0:0:0:
192,192,31290,1,2,0:0:0:0:
320,192,31453,1,2,0:0:0:0:
64,192,31777,1,8,0:0:0:0:
448,192,31777,1,0,0:0:0:0:
320,192,32263,1,2,0:0:0:0:
192,192,32426,128,8,32750:0:0:0:0:
448,192,32426,1,0,0:0:0:0:
448,192,32750,128,2,32912:0:0:0:0:
192,192,33074,1,8,0:0:0:0:
320,192,33074,1,0,0:0:0:0:
64,192,33236,128,0,33399:0:0:0:0:
448,192,33399,1,0,0:0:0:0:
64,192,33561,1,2,0:0:0:0:
320,192,33723,1,8,0:0:0:0:
448,192,33723,1,0,0:0:0:0:
192,192,33885,1,2,0:0:0:0:
64,192,34047,1,2,0:0:0:0:
448,192,34047,128,4,34372:0:0:0:0:
64,192,34372,1,8,0:0:0:0:
320,192,34372,1,0,0:0:0:0:
192,192,34534,128,0,34696:0:0:0:0:
448,192,34696,1,0,0:0:0:0:
64,192,34858,1,2,0:0:0:0:
320,192,35020,1,8,0:0:0:0:
448,192,35020,1,0,0:0:0:0:
192,192,35182,1,0,0:0:0:0:
64,192,35345,128,2,35669:0:0:0:0:
192,192,35669,1,8,0:0:0:0:
448,192,35669,1,0,0:0:0:0:
320,192,35831,128,0,35993:0:0:0:0:
64,192,35993,1,0,0:0:0:0:
320,192,36155,1,2,0:0:0:0:
64,192,36317,1,8,0:0:0:0:
192,192,36317,1,0,0:0:0:0:
320,192,36480,1,2,0:0:0:0:
192,192,36642,128,4,36804:0:0:0:0:
448,192,36642,1,2,0:0:0:0:
64,192,36804,128,0,36966:0:0:0:0:
320,192,36966,128,8,37128:0:0:0:0:
192,192,37128,128,0,37290:0:0:0:0:
64,192,37290,128,2,37453:0:0:0:0:
320,192,37453,128,2,37615:0:0:0:0:
448,192,37615,128,8,38101:0:0:0:0:
64,192,37777,1,4,0:0:0:0:
320,192,37777,128,2,38101:0:0:0:0:
192,192,38101,1,0,0:0:0:0:
64,192,38263,1,8,0:0:0:0:
448,192,38426,1,0,0:0:0:70:Tom1.wav
320,192,38588,1,0,0:0:0:70:Tom2.wav
192,192,38750,1,2,0:0:0:0:
64,192,38912,1,8,0:0:0:0:
448,192,38912,1,0,0:0:0:0:
320,192,39074,1,2,0:0:0:0:
64,192,39236,1,4,0:0:0:0:
448,192,39236,128,2,39561:0:0:0:0:
192,192,39399,1,0,0:0:0:0:
64,192,39561,1,2,0:0:0:0:
320,192,39561,128,0,39885:0:0:0:0:
192,192,39723,1,0,0:0:0:0:
448,192,39885,128,2,40209:0:0:0:0:
192,192,40209,128,2,40534:0:0:0:0:
448,192,40372,1,8,0:0:0:0:
320,192,40534,1,2,0:0:0:0:
64,192,40696,1,0,0:0:0:0:
192,192,40858,1,2,0:0:0:0:
320,192,41020,1,8,0:0:0:0:
448,192,41020,128,4,41345:0:0:0:0:
64,192,41345,1,2,0:0:0:0:
320,192,41507,1,2,0:0:0:0:
192,192,41669,1,2,0:0:0:0:
64,192,41831,128,2,42155:0:0:0:0:
448,192,41831,1,4,0:0:0:0:
320,192,41993,1,0,0:0:0:0:
192,192,42155,128,2,42480:0:0:0:0:
448,192,42155,1,0,0:0:0:0:
320,192,42317,1,0,0:0:0:0:
64,192,42480,128,2,42804:0:0:0:0:
320,192,42804,128,2,43128:0:0:0:0:
192,192,42966,1,8,0:0:0:0:
64,192,43128,1,2,0:0:0:0:
192,192,43290,1,0,0:0:0:0:
320,192,43453,1,2,0:0:0:0:
64,192,43615,1,8,0:0:0:0:
448,192,43615,1,4,0:0:0:0:
192,192,43777,1,2,0:0:0:0:
320,192,43939,1,8,0:0:0:0:
448,192,43939,1,4,0:0:0:0:
192,192,44101,1,2,0:0:0:0:
320,192,44263,1,0,0:0:0:70:Tom1.wav
64,192,44426,1,2,0:0:0:0:
448,192,44426,128,4,45074:0:0:0:0:
64,192,44750,1,2,0:0:0:0:
192,192,45074,128,2,45723:0:0:0:0:
320,192,45236,1,8,0:0:0:0:
64,192,45399,1,2,0:0:0:0:
448,192,45561,1,0,0:0:0:70:Tom1.wav
64,192,45723,128,2,46372:0:0:0:0:
192,192,46047,1,2,0:0:0:0:
320,192,46209,1,8,0:0:0:0:
448,192,46209,1,4,0:0:0:0:
192,192,46372,128,2,47020:0:0:0:0:
320,192,46534,1,8,0:0:0:0:
64,192,46696,1,2,0:0:0:0:
448,192,46858,1,0,0:0:0:70:Tom1.wav
320,192,47020,128,2,47669:0:0:0:0:
192,192,47345,1,2,0:0:0:0:
64,192,47507,1,4,0:0:0:0:
448,192,47507,1,8,0:0:0:0:
192,192,47669,128,2,48317:0:0:0:0:
448,192,47831,1,8,0:0:0:0:
320,192,47993,1,0,0:0:0:70:Tom1.wav
64,192,48155,1,0,0:0:0:70:Tom2.wav
320,192,48317,1,2,0:0:0:0:
64,192,48480,1,8,0:0:0:0:
192,192,48480,1,0,0:0:0:0:
320,192,48642,1,8,0:0:0:0:
448,192,48642,1,0,0:0:0:0:
192,192,48804,1,2,0:0:0:0:
64,192,48966,1,8,0:0:0:0:
448,192,48966,1,4,0:0:0:0:
320,192,49128,1,8,0:0:0:0:
192,192,49290,1,2,0:0:0:0:
320,192,49453,1,2,0:0:0:0:
64,192,49615,128,4,50263:0:0:0:0:
192,192,49939,128,0,50263:0:0:0:0:
448,192,50263,128,0,50912:0:0:0:0:
320,192,50588,128,0,50912:0:0:0:0:
64,192,50912,1,2,0:0:0:0:
192,192,50912,1,4,0:0:0:0:
320,192,51561,1,4,0:0:0:0:
448,192,51561,1,2,0:0:0:0:
64,192,52209,128,2,52453:0:0:0:0:
448,192,52209,1,4,0:0:0:0:
192,192,52453,128,0,52696:0:0:0:0:
320,192,52696,1,2,0:0:0:0:
320,192,52858,128,8,53101:0:0:0:0:
448,192,52858,1,0,0:0:0:0:
192,192,53101,128,0,53345:0:0:0:0:
64,192,53399,128,0,53717:0:0:0:0:
192,192,53507,1,4,0:0:0:0:
448,192,53507,1,2,0:0:0:0:
320,192,53717,1,8,0:0:0:0:
192,192,53822,1,8,0:0:0:0:
448,192,53928,1,8,0:0:0:0:
320,192,54033,1,8,0:0:0:0:
64,192,54138,1,0,0:0:0:70:Tom1.wav
192,192,54138,128,0,54454:0:0:0:0:
448,192,54454,128,0,54770:0:0:0:70:Tom2.wav
64,192,54770,1,0,0:0:0:0:
320,192,56107,1,0,0:0:0:0:
64,192,57399,1,2,0:0:0:0:
448,192,57399,1,4,0:0:0:0:
320,192,57561,1,0,0:0:0:0:
64,192,57723,1,2,0:0:0:0:
192,192,57885,1,8,0:0:0:0:
64,192,58047,1,8,0:0:0:0:
320,192,58209,1,8,0:0:0:0:
192,192,58371,1,10,0:0:0:0:
320,192,58534,1,8,0:0:0:0:
448,192,58696,128,0,59020:0:0:0:0:
64,192,59020,128,0,59344:0:0:0:0:
320,192,59344,128,0,59993:0:0:0:0:
192,192,59669,128,0,59993:0:0:0:0:
64,192,59993,1,4,0:0:0:0:
448,192,59993,1,2,0:0:0:0:
192,192,60317,1,8,0:0:0:0:
320,192,60317,1,0,0:0:0:0:
192,192,60480,1,0,0:0:0:0:
64,192,60642,128,2,60966:0:0:0:0:
192,192,60966,1,8,0:0:0:0:
448,192,60966,1,0,0:0:0:0:
320,192,61128,1,0,0:0:0:0:
320,192,61290,1,2,0:0:0:0:
192,192,61615,128,8,61939:0:0:0:0:
448,192,61615,1,0,0:0:0:0:
64,192,61939,1,2,0:0:0:0:
64,192,62101,1,2,0:0:0:0:
320,192,62263,1,8,0:0:0:0:
448,192,62263,128,0,62588:0:0:0:0:
192,192,62588,1,6,0:0:0:0:
192,192,62750,1,0,0:0:0:0:
320,192,62912,128,8,63561:0:0:0:0:
448,192,62912,1,0,0:0:0:0:
192,192,63236,1,2,0:0:0:0:
64,192,63561,1,8,0:0:0:0:
448,192,63561,1,0,0:0:0:0:
64,192,63885,128,2,64534:0:0:0:0:
192,192,64209,128,8,64534:0:0:0:0:
320,192,64209,1,0,0:0:0:0:
448,192,64534,128,2,64858:0:0:0:0:
64,192,64858,128,8,65020:0:0:0:0:
320,192,64858,1,0,0:0:0:0:
192,192,65020,128,0,65182:0:0:0:70:Tom3.wav
320,192,65182,128,0,65344:0:0:0:70:Tom3.wav
192,192,65344,1,2,0:0:0:0:
64,192,65507,1,4,0:0:0:0:
448,192,65507,1,8,0:0:0:0:
320,192,65669,1,0,0:0:0:0:
192,192,65831,128,0,66155:0:0:0:0:
320,192,66155,1,8,0:0:0:0:
448,192,66155,1,0,0:0:0:0:
64,192,66317,1,0,0:0:0:0:
448,192,66480,128,2,66804:0:0:0:0:
64,192,66804,1,8,0:0:0:0:
192,192,66804,128,0,67128:0:0:0:0:
320,192,67128,1,2,0:0:0:0:
192,192,67290,1,2,0:0:0:0:
64,192,67453,128,8,67777:0:0:0:0:
448,192,67453,1,0,0:0:0:0:
320,192,67777,1,4,0:0:0:0:
448,192,67777,128,2,68101:0:0:0:0:
64,192,68101,1,8,0:0:0:0:
192,192,68101,1,0,0:0:0:0:
448,192,68263,1,0,0:0:0:0:
192,192,68426,1,2,0:0:0:0:
64,192,68588,1,2,0:0:0:0:
320,192,68750,128,8,69074:0:0:0:0:
64,192,69074,1,8,0:0:0:0:
448,192,69074,128,0,69398:0:0:0:0:
192,192,69236,1,2,0:0:0:0:
64,192,69398,128,8,69723:0:0:0:0:
320,192,69398,1,0,0:0:0:0:
448,192,69561,1,2,0:0:0:0:
320,192,69723,1,8,0:0:0:0:
192,192,69885,1,0,0:0:0:70:Tom1.wav
320,192,70047,1,0,0:0:0:70:Tom2.wav
64,192,70209,1,0,0:0:0:70:Tom3.wav
192,192,70371,1,4,0:0:0:0:
448,192,70371,1,2,0:0:0:0:
64,192,70696,1,8,0:0:0:0:
192,192,70696,128,0,71020:0:0:0:0:
448,192,71020,128,2,71344:0:0:0:0:
192,192,71182,128,2,71344:0:0:0:0:
64,192,71344,128,8,71669:0:0:0:0:
320,192,71344,1,0,0:0:0:0:
448,192,71507,128,0,71669:0:0:0:0:
192,192,71669,1,2,0:0:0:0:
192,192,71993,1,8,0:0:0:0:
320,192,71993,128,0,72317:0:0:0:0:
64,192,72317,128,2,72642:0:0:0:0:
320,192,72480,128,2,72642:0:0:0:0:
192,192,72642,1,8,0:0:0:0:
448,192,72642,128,0,72966:0:0:0:0:
64,192,72804,128,0,72966:0:0:0:0:
192,192,72966,1,2,0:0:0:0:
320,192,72966,1,4,0:0:0:0:
64,192,73290,1,8,0:0:0:0:
320,192,73453,1,0,0:0:0:0:
448,192,73615,128,2,73939:0:0:0:0:
64,192,73939,128,8,74507:0:0:0:0:
320,192,73939,1,0,0:0:0:0:
192,192,74263,128,4,74507:0:0:0:0:
448,192,74263,1,8,0:0:0:0:
320,192,74507,1,0,0:0:0:0:
192,192,74750,1,2,0:0:0:0:
448,192,74912,1,8,0:0:0:0:
320,192,75155,1,0,0:0:0:0:
192,192,75398,1,0,0:0:0:70:Tom3.wav
64,192,75561,1,4,0:0:0:0:
448,192,75561,128,2,75885:0:0:0:0:
64,192,75885,1,8,0:0:0:0:
192,192,75885,1,0,0:0:0:0:
320,192,76047,128,0,76209:0:0:0:0:
192,192,76209,1,2,0:0:0:0:
448,192,76371,1,2,0:0:0:0:
64,192,76534,128,8,76858:0:0:0:0:
320,192,76858,1,2,0:0:0:0:
448,192,76858,1,0,0:0:0:0:
192,192,77182,128,8,77507:0:0:0:0:
320,192,77182,1,0,0:0:0:0:
64,192,77507,128,2,77831:0:0:0:0:
320,192,77831,1,8,0:0:0:0:
448,192,77831,128,0,78155:0:0:0:0:
64,192,78155,1,4,0:0:0:0:
192,192,78155,1,2,0:0:0:0:
448,192,78317,1,8,0:0:0:0:
320,192,78480,1,8,0:0:0:0:
448,192,78642,1,8,0:0:0:0:
64,192,78804,1,8,0:0:0:0:
192,192,78966,1,8,0:0:0:0:
64,192,79128,1,8,0:0:0:0:
320,192,79290,1,8,0:0:0:0:
192,192,79453,1,4,0:0:0:0:
448,192,79453,1,2,0:0:0:0:
320,192,79939,1,0,0:0:0:70:Tom2.wav
64,192,80101,128,2,80750:0:0:0:0:
448,192,80426,1,0,0:0:0:70:Tom2.wav
320,192,80750,128,0,81074:0:0:0:0:
448,192,80750,1,0,0:0:0:0:
192,192,81074,1,0,0:0:0:0:
64,192,81236,1,0,0:0:0:0:
448,192,81561,1,0,0:0:0:0:
320,192,81723,1,0,0:0:0:0:
64,192,82047,1,0,0:0:0:0:
192,192,82371,128,0,82696:0:0:0:0:
320,192,82696,128,0,83020:0:0:0:0:
448,192,83020,128,0,83344:0:0:0:0:
192,192,83344,1,2,0:0:0:0:
320,192,83344,1,4,0:0:0:0:
64,192,83507,1,0,0:0:0:0:
320,192,83669,1,2,0:0:0:0:
192,192,83831,1,0,0:0:0:0:
448,192,83993,1,2,0:0:0:0:
320,192,84317,1,2,0:0:0:0:
64,192,84480,1,0,0:0:0:0:
192,192,84642,1,2,0:0:0:0:
448,192,84804,1,0,0:0:0:0:
64,192,85128,1,0,0:0:0:0:
320,192,85290,1,2,0:0:0:0:
448,192,85453,1,0,0:0:0:0:
192,192,85615,1,2,0:0:0:0:
64,192,85777,1,0,0:0:0:0:
320,192,85939,128,2,86101:0:0:0:0:
64,192,86101,128,0,86263:0:0:0:0:
320,192,86263,128,2,86426:0:0:0:0:
192,192,86426,128,0,86588:0:0:0:0:
448,192,86588,128,2,86750:0:0:0:0:
192,192,86912,128,2,87074:0:0:0:0:
320,192,87074,128,0,87236:0:0:0:0:
448,192,87236,128,2,87398:0:0:0:0:
64,192,87398,128,0,87561:0:0:0:0:
64,192,87723,128,0,87885:0:0:0:0:
192,192,87885,128,2,88047:0:0:0:0:
320,192,88047,128,0,88209:0:0:0:0:
448,192,88209,128,0,88534:0:0:0:0:
64,192,88371,128,0,88534:0:0:0:0:
