osu file format v14

[General]
AudioFilename: audio.mp3
AudioLeadIn: 0
PreviewTime: 58423
Countdown: 0
SampleSet: Soft
StackLeniency: 0.7
Mode: 0
LetterboxInBreaks: 0
WidescreenStoryboard: 1

[Editor]
DistanceSpacing: 1.7
BeatDivisor: 4
GridSize: 32
TimelineZoom: 1

[Metadata]
Title:Careless (TV Size)
TitleUnicode:ケアレス (TV Size)
Artist:ClariS
ArtistUnicode:ClariS
Creator:Kyutei
Version:Mocaotic's Normal
Source:マギアレコード 魔法少女まどか☆マギカ外伝 2nd SEASON -覚醒前夜-
Tags:Anya Melfissa Anya_Melfissa Crissa Eula- Kagayaki Erisu Mayuzumi Fuyuko Lanzhu Mocaotic クララ Clara カレン Karen Mahō Shōjo mahou shoujo magia record puella magi madoka☆magica gaiden side story 2nd season s2 kakusei zenya anime opening japanese pop j-pop jpop
BeatmapID:3145641
BeatmapSetID:1538547

[Difficulty]
HPDrainRate:4
CircleSize:3.4
OverallDifficulty:4.5
ApproachRate:5.5
SliderMultiplier:1.05
SliderTickRate:1

[Events]
//Background and Video events
0,0,"Iroha.jpg",0,0
Video,-150,"Video.mp4"
//Break Periods
//Storyboard Layer 0 (Background)
//Storyboard Layer 1 (Fail)
//Storyboard Layer 2 (Pass)
//Storyboard Layer 3 (Foreground)
//Storyboard Layer 4 (Overlay)
//Storyboard Sound Samples

[TimingPoints]
346,324.324324324324,4,2,1,30,1,0
346,-111.111111111111,4,2,1,30,0,0
5210,-100,4,2,1,30,0,0
5373,-100,4,2,1,70,0,0
15102,-100,4,2,2,70,0,0
17210,-100,4,2,1,70,0,0
18508,-111.111111111111,4,2,1,40,0,0
18832,-111.111111111111,4,2,2,40,0,0
19805,-111.111111111111,4,2,1,40,0,0
25481,-111.111111111111,4,2,3,40,0,0
25643,-111.111111111111,4,2,2,40,0,0
26616,-111.111111111111,4,2,1,40,0,0
28886,-105.263157894737,4,2,1,50,0,0
39264,-100,4,2,1,60,0,0
44454,-100,4,2,1,60,0,0
49643,-100,4,2,1,55,0,0
53535,315.789473684211,4,2,1,50,1,0
53535,-100,4,2,1,55,0,0
54166,-100,4,2,3,55,0,0
54271,-100,4,2,1,55,0,0
54798,334.280461307037,4,2,1,50,1,0
56803,312.01248049922,4,2,1,50,1,0
57427,324.324324324324,4,2,1,60,1,0
58724,-100,4,2,1,70,0,0
60021,-100,4,2,3,80,0,0
60102,-95.2380952380952,4,2,1,80,0,0
78345,-95.2380952380952,4,2,1,80,0,0
79481,-100,4,2,3,80,0,0
79562,-100,4,2,1,80,0,0
80778,-100,4,2,1,60,0,0
83373,-100,4,2,1,40,0,0
85156,-100,4,2,4,40,0,0
85318,-100,4,2,1,40,0,0

[Colours]
Combo1 : 106,106,181
Combo2 : 230,191,111
Combo3 : 208,223,164
Combo4 : 197,149,236
Combo5 : 207,82,151
Combo6 : 217,190,174

[HitObjects]
173,47,346,54,0,P|174:15|182:-22,2,47.2499985580445,2|2|2,0:0|0:0|0:0,0:0:0:0:
144,85,832,1,2,0:0:0:0:
144,85,994,1,2,0:0:0:0:
223,135,1318,2,0,P|250:130|282:129,2,47.2499985580445,2|2|2,0:0|0:0|0:0,0:0:0:0:
194,173,1805,2,0,P|206:228|209:277,1,94.499997116089,2|2,0:0|0:0,0:0:0:0:
175,299,2291,2,0,P|148:294|116:293,2,47.2499985580445,2|2|2,0:0|0:0|0:0,0:0:0:0:
261,338,2940,6,0,P|266:365|267:397,2,47.2499985580445,2|2|2,0:0|0:0|0:0,0:0:0:0:
293,303,3427,1,2,0:0:0:0:
293,303,3589,1,2,0:0:0:0:
354,231,3913,2,0,P|381:226|413:225,2,47.2499985580445,2|2|2,0:0|0:0|0:0,0:0:0:0:
312,207,4400,1,2,0:0:0:0:
251,134,4724,53,2,0:0:0:0:
251,134,4886,2,0,L|258:65,1,47.2499985580445,10|8,0:0|0:3,0:0:0:0:
282,43,5210,1,8,0:3:0:0:
282,43,5373,2,0,B|310:40|331:26|331:26|345:53|395:69,1,105,6|0,1:2|1:2,0:0:0:0:
422,51,5859,1,8,0:0:0:0:
506,113,6183,38,0,P|483:169|479:226,1,105,2|8,1:2|0:0,0:0:0:0:
449,256,6670,2,0,B|407:247|407:247|383:228|383:228|321:215,1,105,6|0,1:2|1:2,0:0:0:0:
304,242,7156,1,8,0:0:0:0:
237,160,7481,2,0,L|244:100,1,52.5,2|8,1:2|0:0,0:0:0:0:
220,66,7805,1,8,0:0:0:0:
220,66,7967,2,0,B|166:54|166:54|116:88,1,105,6|0,1:2|1:2,0:0:0:0:
94,125,8454,1,8,0:0:0:0:
50,218,8778,38,0,P|20:220|-12:229,2,52.5,2|8|8,1:2|0:3|0:3,0:0:0:0:
89,251,9264,2,0,B|133:280|133:280|184:266,1,105,6|0,1:2|1:2,0:0:0:0:
217,227,9751,1,8,0:0:0:0:
217,227,9913,2,0,B|261:198|261:198|312:211,1,105,2|2,1:2|1:2,0:0:0:0:
360,191,10400,1,10,0:0:0:0:
415,279,10724,38,0,B|444:260|452:242|452:242|482:231|521:255,2,105,6|10|2,1:2|0:0|0:0,0:0:0:0:
392,328,11535,1,0,1:2:0:0:
392,328,11697,1,8,0:0:0:0:
302,382,12021,2,0,P|249:360|177:376,1,105,6|8,1:2|0:0,0:0:0:0:
159,344,12508,1,0,1:2:0:0:
159,344,12670,2,0,P|165:288|176:224,1,105,2|8,0:2|0:0,0:0:0:0:
268,196,13318,38,0,B|299:212|299:212|389:194,1,105,6|8,1:2|0:0,0:0:0:0:
407,164,13805,2,0,P|401:108|390:44,1,105,2|2,0:2|1:2,0:0:0:0:
376,15,14291,1,10,0:2:0:0:
376,15,14454,1,2,1:2:0:0:
279,56,14778,2,0,B|236:47|236:47|222:34|222:34|138:20,1,105,6|10,1:2|0:3,0:0:0:0:
145,66,15264,2,0,P|152:100|156:135,1,52.5,10|8,0:3|0:3,0:0:0:0:
196,149,15589,2,0,P|189:183|185:218,1,52.5,8|8,0:3|0:3,0:0:0:0:
165,248,15913,37,6,1:2:0:0:
66,211,16237,1,10,0:0:0:0:
0,293,16562,1,10,0:3:0:0:
57,381,16886,1,10,0:3:0:0:
159,353,17210,1,8,1:2:0:0:
159,353,17373,1,8,1:2:0:0:
159,353,18508,38,0,P|208:345|262:373,2,94.499997116089,6|0|2,1:2|3:0|3:0,0:0:0:0:
69,383,19481,1,2,3:0:0:0:
1,317,19805,1,2,3:3:0:0:
55,239,20129,2,0,P|66:186|54:109,1,94.499997116089,2|2,3:2|3:2,0:0:0:0:
3,73,20778,2,0,P|-2:42|10:13,1,47.2499985580445,2|0,3:2|1:2,0:0:0:0:
43,4,21102,6,0,P|88:23|142:19,1,94.499997116089,2|2,1:3|3:2,0:0:0:0:
211,74,21751,2,0,P|256:55|310:59,1,94.499997116089,2|2,3:2|3:2,0:0:0:0:
385,13,22400,1,2,3:3:0:0:
459,71,22724,2,0,P|466:107|446:173,1,94.499997116089,2|2,3:2|3:2,0:0:0:0:
372,212,23373,2,0,P|343:208|298:190,1,47.2499985580445,2|0,3:2|1:0,0:0:0:0:
281,216,23697,70,0,P|260:271|281:331,1,94.499997116089,6|2,1:2|3:2,0:0:0:0:
337,366,24345,1,2,3:2:0:0:
423,327,24670,2,0,P|429:305|427:259,1,47.2499985580445,2|0,3:2|1:2,0:0:0:0:
409,238,24994,1,2,3:3:0:0:
327,191,25318,2,0,P|256:188|213:210,1,94.499997116089,2|2,3:2|3:0,0:0:0:0:
192,280,25967,2,0,P|170:286|124:284,1,47.2499985580445,2|0,3:0|1:2,0:0:0:0:
100,274,26291,1,6,1:2:0:0:
25,217,26616,6,0,P|35:164|35:114,1,94.499997116089,2|2,0:3|0:3,0:0:0:0:
17,85,27102,1,2,0:2:0:0:
17,85,27264,1,2,0:3:0:0:
91,26,27589,2,0,P|127:34|156:36,1,47.2499985580445,2|2,3:1|0:1,0:0:0:0:
180,54,27913,2,0,P|216:46|245:44,1,47.2499985580445,2|2,3:1|1:2,0:0:0:0:
272,69,28237,1,10,0:2:0:0:
272,69,28400,2,0,P|262:121|256:205,1,94.499997116089,2|2,1:2|0:2,0:0:0:0:
227,202,28886,1,4,1:2:0:0:
296,272,29210,22,0,P|357:256|400:261,1,99.7499973363877,8|2,0:2|0:2,0:0:0:0:
439,290,29697,1,0,1:2:0:0:
439,290,29859,1,10,0:2:0:0:
507,218,30183,2,0,P|503:189|505:164,1,49.8749986681939,2|2,1:3|0:2,0:0:0:0:
471,130,30508,2,0,P|410:114|367:119,1,99.7499973363877,10|0,0:2|1:2,0:0:0:0:
335,146,30994,1,2,1:2:0:0:
335,146,31156,1,10,0:2:0:0:
254,87,31481,70,0,P|255:45|248:18,2,49.8749986681939,2|2|10,1:3|0:2|0:2,0:0:0:0:
223,126,31967,1,2,0:2:0:0:
223,126,32129,2,0,P|181:125|154:132,1,49.8749986681939,2|2,0:2|1:2,0:0:0:0:
131,153,32454,1,10,0:2:0:0:
33,130,32778,2,0,P|19:65|45:28,1,99.7499973363877,2|10,1:3|0:2,0:0:0:0:
81,19,33264,1,2,1:2:0:0:
81,19,33427,2,0,P|122:23|150:19,1,49.8749986681939,2|2,1:2|1:2,0:0:0:0:
178,9,33751,1,10,0:2:0:0:
245,82,34075,6,0,P|234:134|230:215,1,99.7499973363877,2|10,1:3|0:2,0:0:0:0:
199,221,34562,1,2,0:2:0:0:
199,221,34724,2,0,P|208:256|215:308,1,49.8749986681939,2|2,0:2|1:2,0:0:0:0:
243,306,35048,1,10,0:2:0:0:
171,376,35373,2,0,P|102:364|62:371,1,99.7499973363877,2|10,1:3|0:2,0:0:0:0:
8,292,36021,2,0,P|15:256|19:204,1,49.8749986681939,2|2,0:2|1:2,0:0:0:0:
2,195,36345,1,10,0:2:0:0:
75,127,36670,70,0,P|131:132|161:175,1,99.7499973363877,2|8,1:3|0:2,0:0:0:0:
191,206,37156,1,2,0:2:0:0:
191,206,37318,2,0,L|183:284,2,49.8749986681939,2|2|10,1:2|1:2|0:2,0:0:0:0:
235,182,37805,2,0,B|274:175|274:175|291:183|291:183|351:173,1,99.7499973363877,4|10,1:2|0:2,0:0:0:0:
372,147,38291,1,10,0:2:0:0:
467,176,38616,1,4,0:3:0:0:
511,86,38940,1,8,0:0:0:0:
441,7,39264,54,0,B|390:34|390:34|317:25,1,105,6|10,1:2|0:2,0:0:0:0:
241,0,39913,1,2,1:2:0:0:
182,87,40237,1,0,1:2:0:0:
261,155,40562,2,0,P|308:145|333:148,1,52.5,2|2,1:2|0:2,0:0:0:0:
360,164,40886,1,2,1:2:0:0:
360,164,41048,2,0,L|341:299,1,105,10|8,0:2|0:3,0:0:0:0:
314,310,41535,1,0,1:2:0:0:
401,368,41859,38,0,P|467:371|506:329,1,105,6|10,1:2|0:2,0:0:0:0:
503,243,42508,1,2,1:2:0:0:
411,192,42832,1,0,1:2:0:0:
339,268,43156,2,0,P|291:258|274:260,1,52.5,2|2,1:2|0:2,0:0:0:0:
246,234,43481,1,2,1:2:0:0:
246,234,43643,1,10,0:2:0:0:
159,290,43967,1,8,0:0:0:0:
159,290,44129,2,0,L|166:351,1,52.5,2|8,1:2|0:3,0:0:0:0:
129,381,44454,38,0,B|60:372|60:372|37:338,1,105,6|10,1:2|0:2,0:0:0:0:
6,309,44940,1,2,0:2:0:0:
6,309,45102,2,0,P|15:242|12:190,1,105,2|2,1:2|1:2,0:0:0:0:
82,124,45751,2,0,P|121:117|181:158,1,105,2|2,1:2|1:2,0:0:0:0:
204,192,46237,1,6,1:2:0:0:
304,153,46562,1,8,0:3:0:0:
304,153,46724,2,0,P|306:114|297:81,1,52.5,8|8,0:3|0:3,0:0:0:0:
270,60,47048,1,2,1:2:0:0:
360,4,47373,37,2,1:2:0:0:
360,4,47535,2,0,B|406:14|406:14|422:31|422:31|484:42,1,105,6|10,1:2|0:2,0:0:0:0:
497,69,48021,1,8,0:3:0:0:
458,166,48345,2,0,L|385:178,1,52.5,2|8,1:2|0:2,0:0:0:0:
354,185,48670,1,8,0:2:0:0:
268,245,48994,2,0,L|195:233,1,52.5,8|8,0:2|0:3,0:0:0:0:
176,201,49318,2,0,L|103:213,1,52.5,8|8,0:3|0:3,0:0:0:0:
78,235,49643,38,0,P|69:283|100:352,2,105,6|2|2,1:2|0:2|0:2,0:0:0:0:
0,164,50616,1,2,1:2:0:0:
69,85,50940,2,0,B|181:70|139:164|263:145,1,210,2|2,1:2|1:2,0:0:0:0:
259,145,52237,2,0,P|266:97|280:51,2,78.75,6|2|2,0:2|0:2|1:2,0:0:0:0:
219,180,52886,2,0,P|233:223|240:274,2,78.75,10|2|2,0:2|0:2|0:2,0:0:0:0:
170,159,53535,37,6,1:2:0:0:
89,225,53850,1,8,0:2:0:0:
1,168,54166,1,10,0:3:0:0:
27,66,54482,1,8,0:3:0:0:
132,61,54798,37,2,0:0:0:0:
132,61,56135,37,2,0:0:0:0:
132,61,57427,37,6,1:2:0:0:
219,3,57751,2,0,P|252:11|269:30,1,52.5,8|8,0:2|0:2,0:0:0:0:
314,40,58075,2,0,P|323:72|315:96,1,52.5,8|8,0:3|0:3,0:0:0:0:
329,140,58400,2,0,P|305:164|280:169,1,52.5,4|4,0:3|0:3,0:0:0:0:
245,199,58724,1,2,0:0:0:0:
245,199,60021,38,0,B|185:185|185:185|157:191|149:228,1,105,4|10,1:2|0:0,0:0:0:0:
111,246,60508,1,2,0:0:0:0:
111,246,60670,2,0,P|132:299|129:359,1,110.249996635437,2|10,1:2|0:0,0:0:0:0:
181,384,61156,1,2,0:0:0:0:
181,384,61318,1,2,1:2:0:0:
276,328,61643,2,0,P|340:322|395:356,1,110.249996635437,10|2,0:0|1:2,0:0:0:0:
426,379,62129,1,2,1:2:0:0:
426,379,62291,1,10,0:0:0:0:
512,309,62616,38,0,P|505:274|513:234,1,55.1249983177186,6|2,1:2|0:2,0:0:0:0:
473,210,62940,2,0,P|409:204|354:238,1,110.249996635437,10|0,0:0|1:2,0:0:0:0:
333,265,63427,1,0,1:2:0:0:
333,265,63589,1,8,0:0:0:0:
234,216,63913,1,2,1:2:0:0:
250,106,64237,1,8,0:0:0:0:
359,88,64562,2,0,P|394:98|425:96,1,55.1249983177186,2|0,1:2|0:0,0:0:0:0:
457,130,64886,2,0,P|444:163|446:197,1,55.1249983177186,8|0,0:0|1:0,0:0:0:0:
457,235,65210,1,2,1:2:0:0:
377,311,65535,38,0,B|347:297|347:297|311:303,1,55.1249983177186,6|2,1:2|0:0,0:0:0:0:
279,270,65859,2,0,L|292:139,1,110.249996635437,2|8,1:2|0:0,0:0:0:0:
321,116,66345,1,2,0:2:0:0:
321,116,66508,1,2,1:2:0:0:
253,28,66832,1,10,0:0:0:0:
159,86,67156,2,0,P|170:133|170:150,1,55.1249983177186,2|0,1:2|1:2,0:0:0:0:
203,184,67481,1,10,0:0:0:0:
131,267,67805,38,0,B|85:258|85:258|74:244|74:244|3:230,1,110.249996635437,6|10,1:2|0:0,0:0:0:0:
0,283,68291,1,2,0:0:0:0:
0,283,68454,2,0,P|7:312|6:353,1,55.1249983177186,2|2,1:2|1:2,0:0:0:0:
51,371,68778,2,0,P|80:364|121:365,1,55.1249983177186,10|0,0:0|1:2,0:0:0:0:
156,383,69102,1,2,1:2:0:0:
228,299,69427,1,8,0:0:0:0:
161,211,69751,2,0,P|132:218|91:217,1,55.1249983177186,2|0,1:2|1:2,0:0:0:0:
61,187,70075,2,0,P|68:158|67:117,1,55.1249983177186,8|2,0:3|1:2,0:0:0:0:
95,83,70400,38,0,B|127:61|150:68|150:68|171:91|210:97,1,110.249996635437,4|10,1:2|0:0,0:0:0:0:
256,183,71048,2,0,P|296:171|320:173,1,55.1249983177186,2|2,1:2|1:2,0:0:0:0:
358,147,71373,2,0,P|398:159|422:157,1,55.1249983177186,10|2,0:0|0:0,0:0:0:0:
458,186,71697,1,0,1:2:0:0:
511,89,72021,1,10,0:0:0:0:
430,14,72345,2,0,P|390:26|366:24,1,55.1249983177186,2|2,1:2|1:2,0:0:0:0:
328,50,72670,2,0,P|288:38|264:40,1,55.1249983177186,10|2,0:0|0:0,0:0:0:0:
228,11,72994,1,4,1:2:0:0:
137,73,73318,38,0,P|149:117|146:163,1,55.1249983177186,10|2,0:0|0:0,0:0:0:0:
179,172,73643,1,2,1:2:0:0:
275,118,73967,1,10,0:0:0:0:
339,206,74291,2,0,P|327:250|330:296,1,55.1249983177186,4|0,1:2|1:2,0:0:0:0:
283,294,74616,2,0,P|239:282|193:285,1,55.1249983177186,8|2,0:2|1:2,0:0:0:0:
187,245,74940,2,0,P|143:257|97:254,1,55.1249983177186,10|0,0:2|1:2,0:0:0:0:
90,291,75264,1,10,0:2:0:0:
1,225,75589,38,0,B|6:175|6:175|12:168|12:168|17:105,1,110.249996635437,4|10,1:2|0:2,0:0:0:0:
44,70,76075,2,0,P|107:53|162:85,1,110.249996635437,2|2,0:2|1:2,0:0:0:0:
184,110,76562,2,0,P|176:144|176:175,1,55.1249983177186,10|0,0:2|0:0,0:0:0:0:
205,209,76886,1,4,1:2:0:0:
141,298,77210,1,10,0:2:0:0:
229,363,77535,2,0,P|263:355|294:355,1,55.1249983177186,2|0,1:2|1:2,0:0:0:0:
328,384,77859,1,10,0:2:0:0:
424,331,78183,38,0,B|448:300|448:300|434:187,1,110.249996635437,4|0,1:2|1:2,0:0:0:0:
399,199,78670,1,0,1:2:0:0:
399,199,78832,2,0,L|410:103,1,55.1249983177186,0|0,1:0|1:0,0:0:0:0:
435,98,79156,2,0,L|424:2,1,55.1249983177186,0|0,1:0|1:0,0:0:0:0:
393,4,79481,2,0,B|270:9|316:95|189:83,1,210,4|0,1:2|1:2,0:0:0:0:
12,6,80778,37,2,0:2:0:0:
12,6,82075,37,2,0:2:0:0:
12,6,83373,54,0,P|27:47|28:85,1,52.5,6|2,1:2|0:2,0:0:0:0:
67,90,83697,2,0,P|52:131|51:169,1,52.5,2|2,1:2|0:2,0:0:0:0:
30,187,84021,1,2,1:2:0:0:
129,221,84345,2,0,P|170:206|208:205,1,52.5,2|2,1:2|0:2,0:0:0:0:
223,175,84670,1,2,1:2:0:0:
223,175,84832,2,0,P|286:193|343:193,1,105,2|2,0:2|0:3,0:0:0:0:
366,227,85318,2,0,P|351:268|350:306,1,52.5,2|2,1:2|0:2,0:0:0:0:
367,326,85643,1,2,1:2:0:0:
278,382,85967,6,0,P|237:367|199:366,1,52.5,2|2,1:2|0:2,0:0:0:0:
194,327,86291,2,0,P|153:342|115:343,1,52.5,2|2,1:2|0:2,0:0:0:0:
97,364,86615,1,2,1:2:0:0:
48,270,86940,2,0,P|7:255|-31:254,2,52.5,2|2|2,1:2|0:2|1:2,0:0:0:0:
93,243,87427,2,0,P|153:205|226:211,1,105,2|2,0:2|0:2,0:0:0:0:
232,178,87913,2,0,P|273:193|311:194,1,52.5,2|2,1:2|0:2,0:0:0:0:
318,230,88237,2,0,P|359:215|397:214,1,52.5,2|2,1:2|0:3,0:0:0:0:
