osu file format v14

[General]
AudioFilename: audio.mp3
AudioLeadIn: 0
PreviewTime: 58423
Countdown: 0
SampleSet: Soft
StackLeniency: 0
Mode: 0
LetterboxInBreaks: 0
WidescreenStoryboard: 1

[Editor]
DistanceSpacing: 1.7
BeatDivisor: 4
GridSize: 32
TimelineZoom: 3.499999

[Metadata]
Title:Careless (TV Size)
TitleUnicode:ケアレス (TV Size)
Artist:ClariS
ArtistUnicode:ClariS
Creator:Kyutei
Version:Despair
Source:マギアレコード 魔法少女まどか☆マギカ外伝 2nd SEASON -覚醒前夜-
Tags:Anya Melfissa Anya_Melfissa Crissa Eula- Kagayaki Erisu Mayuzumi Fuyuko Lanzhu Mocaotic クララ Clara カレン Karen Mahō Shōjo mahou shoujo magia record puella magi madoka☆magica gaiden side story 2nd season s2 kakusei zenya anime opening japanese pop j-pop jpop
BeatmapID:3324677
BeatmapSetID:1538547

[Difficulty]
HPDrainRate:5.6
CircleSize:3.7
OverallDifficulty:9
ApproachRate:9.4
SliderMultiplier:1.85
SliderTickRate:1

[Events]
//Background and Video events
0,0,"Iroha.jpg",0,0
Video,-150,"Video.mp4"
//Break Periods
//Storyboard Layer 0 (Background)
//Storyboard Layer 1 (Fail)
//Storyboard Layer 2 (Pass)
//Storyboard Layer 3 (Foreground)
//Storyboard Layer 4 (Overlay)
//Storyboard Sound Samples

[TimingPoints]
346,324.324324324324,4,2,1,30,1,0
5373,-71.4285714285714,4,2,1,70,0,0
5616,-100,4,2,1,5,0,0
5697,-71.4285714285714,4,2,1,70,0,0
5859,-83.3333333333333,4,2,1,70,0,0
6102,-100,4,2,1,5,0,0
6183,-83.3333333333333,4,2,1,70,0,0
6670,-55.5555555555556,4,2,1,70,0,0
6913,-100,4,2,1,5,0,0
6994,-55.5555555555556,4,2,1,70,0,0
7156,-83.3333333333333,4,2,1,70,0,0
7400,-100,4,2,1,5,0,0
7481,-83.3333333333333,4,2,1,70,0,0
7967,-71.4285714285714,4,2,1,70,0,0
8210,-100,4,2,1,5,0,0
8291,-71.4285714285714,4,2,1,70,0,0
8453,-125,4,2,1,70,0,0
9264,-83.3333333333333,4,2,1,70,0,0
9508,-100,4,2,1,5,0,0
9589,-83.3333333333333,4,2,1,70,0,0
9751,-71.4285714285714,4,2,1,70,0,0
9832,-100,4,2,1,5,0,0
9913,-71.4285714285714,4,2,1,70,0,0
10724,-83.3333333333333,4,2,1,70,0,0
11697,-166.666666666667,4,2,1,70,0,0
11940,-100,4,2,1,5,0,0
12021,-66.6666666666667,4,2,1,70,0,0
12264,-100,4,2,1,5,0,0
12345,-66.6666666666667,4,2,1,70,0,0
12508,-55.5555555555556,4,2,1,70,0,0
12589,-100,4,2,1,5,0,0
12670,-55.5555555555556,4,2,1,70,0,0
12751,-100,4,2,1,5,0,0
12832,-62.5,4,2,1,70,0,0
12994,-100,4,2,1,70,0,0
13237,-100,4,2,1,5,0,0
13318,-71.4285714285714,4,2,1,70,0,0
13562,-100,4,2,1,5,0,0
13643,-71.4285714285714,4,2,1,70,0,0
13805,-62.5,4,2,1,70,0,0
14048,-100,4,2,1,5,0,0
14129,-125,4,2,1,70,0,0
14210,-100,4,2,1,5,0,0
14291,-83.3333333333333,4,2,1,70,0,0
14373,-100,4,2,1,5,0,0
14454,-83.3333333333333,4,2,1,70,0,0
14778,-100,4,2,1,70,0,0
15102,-100,4,2,2,70,0,0
15913,-76.9230769230769,4,2,2,70,0,0
16562,-100,4,2,2,70,0,0
17210,-100,4,2,1,70,0,0
18508,-100,4,2,1,40,0,0
18751,-100,4,2,1,5,0,0
18832,-166.666666666667,4,2,2,40,0,0
19805,-166.666666666667,4,2,1,40,0,0
20129,-125,4,2,1,40,0,0
21102,-83.3333333333333,4,2,1,40,0,0
21345,-100,4,2,1,5,0,0
21427,-83.3333333333333,4,2,1,40,0,0
22075,-111.111111111111,4,2,1,40,0,0
22318,-100,4,2,1,5,0,0
22400,-111.111111111111,4,2,1,40,0,0
23048,-83.3333333333333,4,2,1,40,0,0
23373,-100,4,2,1,40,0,0
24994,-83.3333333333333,4,2,1,40,0,0
25237,-100,4,2,1,5,0,0
25318,-83.3333333333333,4,2,1,40,0,0
25481,-83.3333333333333,4,2,3,40,0,0
25643,-83.3333333333333,4,2,2,40,0,0
25805,-62.5,4,2,2,40,0,0
25886,-100,4,2,1,5,0,0
25967,-62.5,4,2,2,40,0,0
26129,-71.4285714285714,4,2,2,40,0,0
26210,-100,4,2,1,5,0,0
26291,-83.3333333333333,4,2,2,40,0,0
26616,-83.3333333333333,4,2,1,40,0,0
28481,-100,4,2,1,5,0,0
28562,-83.3333333333333,4,2,1,40,0,0
28643,-100,4,2,1,5,0,0
28724,-83.3333333333333,4,2,1,40,0,0
28886,-71.4285714285714,4,2,1,50,0,0
29129,-100,4,2,1,5,0,0
29210,-100,4,2,1,50,0,0
30021,-83.3333333333333,4,2,1,50,0,0
30102,-100,4,2,1,5,0,0
30183,-83.3333333333333,4,2,1,50,0,0
30264,-100,4,2,1,5,0,0
30345,-83.3333333333333,4,2,1,50,0,0
32454,-71.4285714285714,4,2,1,50,0,0
32697,-100,4,2,1,5,0,0
32778,-62.5,4,2,1,50,0,0
33021,-100,4,2,1,5,0,0
33102,-62.5,4,2,1,50,0,0
33751,-71.4285714285714,4,2,1,50,0,0
33832,-100,4,2,1,5,0,0
33913,-71.4285714285714,4,2,1,50,0,0
33994,-100,4,2,1,5,0,0
34075,-62.5,4,2,1,50,0,0
34318,-100,4,2,1,5,0,0
34400,-71.4285714285714,4,2,1,50,0,0
35048,-83.3333333333333,4,2,1,50,0,0
35373,-71.4285714285714,4,2,1,50,0,0
35697,-71.4285714285714,4,2,1,50,0,0
37400,-100,4,2,1,5,0,0
37481,-71.4285714285714,4,2,1,50,0,0
37562,-100,4,2,1,5,0,0
37643,-71.4285714285714,4,2,1,50,0,0
37805,-62.5,4,2,1,50,0,0
38048,-100,4,2,1,5,0,0
38129,-62.5,4,2,1,50,0,0
38291,-100,4,2,1,50,0,0
38454,-62.5,4,2,1,50,0,0
38616,-100,4,2,1,50,0,0
38778,-62.5,4,2,1,50,0,0
38940,-125,4,2,1,50,0,0
39102,-166.666666666667,4,2,1,50,0,0
39264,-55.5555555555556,4,2,1,60,0,0
39913,-333.333333333333,4,2,1,60,0,0
40156,-100,4,2,1,5,0,0
40237,-333.333333333333,4,2,1,60,0,0
41048,-71.4285714285714,4,2,1,60,0,0
42832,-125,4,2,1,60,0,0
44129,-83.3333333333333,4,2,1,60,0,0
44454,-76.9230769230769,4,2,1,60,0,0
44697,-100,4,2,1,5,0,0
44778,-76.9230769230769,4,2,1,60,0,0
45102,-100,4,2,1,60,0,0
45751,-71.4285714285714,4,2,1,60,0,0
45994,-100,4,2,1,5,0,0
46075,-71.4285714285714,4,2,1,60,0,0
46237,-125,4,2,1,60,0,0
47048,-71.4285714285714,4,2,1,60,0,0
47291,-100,4,2,1,5,0,0
47373,-71.4285714285714,4,2,1,60,0,0
47535,-125,4,2,1,60,0,0
48021,-100,4,2,1,60,0,0
48670,-166.666666666667,4,2,1,60,0,0
49643,-166.666666666667,4,2,1,55,0,0
52237,-166.666666666667,4,2,1,55,0,0
53535,315.789473684211,4,2,1,55,1,0
53535,-71.4285714285714,4,2,1,55,0,0
53956,-83.3333333333333,4,2,1,55,0,0
54166,-166.666666666667,4,2,3,55,0,0
54271,-166.666666666667,4,2,1,55,0,0
54798,334.280461307037,4,2,1,55,1,0
54798,-500.000000000003,4,2,1,55,0,0
56803,312.01248049922,4,2,1,50,1,0
57427,324.324324324324,4,2,1,55,1,0
57427,-83.3333333333333,4,2,1,55,0,0
57670,-100,4,2,1,5,0,0
57751,-62.5,4,2,1,55,0,0
58724,-333.333333333333,4,2,1,70,0,0
60021,-83.3333333333333,4,2,3,80,0,1
60102,-100,4,2,1,80,0,1
60264,-100,4,2,1,5,0,1
60345,-100,4,2,1,80,0,1
60832,-100,4,2,1,80,0,1
60913,-100,4,2,1,5,0,1
60994,-250,4,2,1,80,0,1
61318,-41.6666666666667,4,2,1,80,0,1
61562,-100,4,2,1,5,0,1
61643,-31.25,4,2,1,80,0,1
61886,-100,4,2,1,5,0,1
61967,-38.4615384615385,4,2,1,80,0,1
62048,-100,4,2,1,5,0,1
62129,-50,4,2,1,80,0,1
62210,-100,4,2,1,5,0,1
62291,-62.5,4,2,1,80,0,1
62535,-100,4,2,1,5,0,1
62616,-100,4,2,1,80,0,1
63589,-333.333333333334,4,2,1,80,0,1
63832,-100,4,2,1,5,0,1
63913,-71.4285714285714,4,2,1,80,0,1
64156,-100,4,2,1,5,0,1
64237,-55.5555555555556,4,2,1,80,0,1
64481,-100,4,2,1,5,0,1
64562,-100,4,2,1,80,0,1
65210,-166.666666666667,4,2,1,80,0,1
65373,-100,4,2,1,80,0,1
65535,-100,4,2,1,80,0,1
65940,-100,4,2,1,5,0,1
66021,-100,4,2,1,80,0,1
66102,-100,4,2,1,5,0,1
66183,-250,4,2,1,80,0,1
66508,-41.6666666666667,4,2,1,80,0,1
66751,-100,4,2,1,5,0,1
66832,-31.25,4,2,1,80,0,1
67075,-100,4,2,1,5,0,1
67156,-38.4615384615385,4,2,1,80,0,1
67237,-100,4,2,1,5,0,1
67318,-50,4,2,1,80,0,1
67399,-100,4,2,1,5,0,1
67481,-35.7142857142857,4,2,1,80,0,1
67724,-100,4,2,1,5,0,1
67805,-200,4,2,1,80,0,1
68048,-100,4,2,1,5,0,1
68129,-200,4,2,1,80,0,1
68778,-125,4,2,1,80,0,1
69751,-83.3333333333333,4,2,1,80,0,1
69832,-100,4,2,1,5,0,1
69913,-83.3333333333333,4,2,1,80,0,1
69994,-100,4,2,1,5,0,1
70075,-83.3333333333333,4,2,1,80,0,1
70399,-55.5555555555556,4,2,1,80,0,1
70643,-100,4,2,1,5,0,1
70724,-100,4,2,1,80,0,1
71697,-55.5555555555556,4,2,1,80,0,1
71940,-100,4,2,1,5,0,1
72021,-100,4,2,1,80,0,1
72994,-71.4285714285714,4,2,1,80,0,1
73237,-100,4,2,1,5,0,1
73318,-100,4,2,1,80,0,1
73643,-83.3333333333333,4,2,1,80,0,1
73724,-100,4,2,1,5,0,1
73805,-83.3333333333333,4,2,1,80,0,1
73886,-100,4,2,1,5,0,1
73967,-83.3333333333333,4,2,1,80,0,1
74210,-100,4,2,1,5,0,1
74291,-111.111111111111,4,2,1,80,0,1
75589,-100,4,2,1,80,0,1
75832,-100,4,2,1,5,0,1
75913,-125,4,2,1,80,0,1
76562,-71.4285714285714,4,2,1,80,0,1
76805,-100,4,2,1,5,0,1
76886,-62.5,4,2,1,80,0,1
77129,-100,4,2,1,5,0,1
77210,-55.5555555555556,4,2,1,80,0,1
77454,-100,4,2,1,5,0,1
77535,-100,4,2,1,80,0,1
77859,-125,4,2,1,80,0,1
78102,-100,4,2,1,5,0,1
78183,-125,4,2,1,80,0,1
79481,-200,4,2,3,80,0,1
79562,-200,4,2,1,80,0,1
80129,-100,4,2,1,80,0,1
80372,-100,4,2,1,5,0,1
80454,-83.3333333333334,4,2,1,80,0,1
80778,-166.666666666667,4,2,1,60,0,0
81751,-125,4,2,1,60,0,0
81994,-100,4,2,1,5,0,0
82075,-125,4,2,1,60,0,0
82400,-333.333333333333,4,2,1,60,0,0
83373,-250.000000000001,4,2,1,40,0,0
85156,-250.000000000001,4,2,4,40,0,0
85318,-250.000000000001,4,2,1,40,0,0
85643,-83.3333333333333,4,2,1,40,0,0
85724,-100,4,2,1,5,0,0
85805,-83.3333333333333,4,2,1,40,0,0
85886,-100,4,2,1,5,0,0
85967,-250.000000000001,4,2,1,40,0,0
88237,-83.3333333333333,4,2,1,40,0,0
88318,-100,4,2,1,5,0,0
88399,-83.3333333333333,4,2,1,40,0,0
88481,-100,4,2,1,5,0,0

[Colours]
Combo1 : 106,106,181
Combo2 : 230,191,111
Combo3 : 208,223,164
Combo4 : 197,149,236
Combo5 : 207,82,151
Combo6 : 217,190,174

[HitObjects]
415,76,346,5,2,0:0:0:0:
447,149,508,1,2,0:0:0:0:
313,172,670,5,2,0:0:0:0:
361,10,832,1,2,0:0:0:0:
271,82,994,5,2,0:0:0:0:
48,272,1318,5,2,0:0:0:0:
72,345,1481,1,2,0:0:0:0:
158,192,1643,5,2,0:0:0:0:
182,265,1806,1,2,0:0:0:0:
400,286,2129,5,2,0:0:0:0:
331,326,2291,1,2,0:0:0:0:
350,185,2453,5,2,0:0:0:0:
480,249,2616,1,2,0:0:0:0:
449,148,2778,5,2,0:0:0:0:
266,118,2940,5,2,0:0:0:0:
246,39,3102,1,2,0:0:0:0:
169,102,3264,5,2,0:0:0:0:
344,56,3426,1,2,0:0:0:0:
176,0,3589,5,2,0:0:0:0:
47,210,3913,5,2,0:0:0:0:
71,283,4076,1,2,0:0:0:0:
206,293,4238,5,2,0:0:0:0:
230,366,4401,1,2,0:0:0:0:
419,90,4724,6,0,L|411:141,1,46.25,2|0,0:0|0:0,0:0:0:0:
468,188,4886,5,10,0:0:0:0:
341,98,5048,1,8,0:3:0:0:
478,36,5210,1,8,0:3:0:0:
346,190,5373,6,0,B|296:222|254:174|286:145|236:97|188:133,1,194.249994071961,6|0,1:2|0:0,0:0:0:0:
135,188,5697,1,0,1:2:0:0:
1,245,5859,6,0,P|84:272|164:323,1,166.499994918823,8|0,0:0|0:0,0:0:0:0:
158,330,6183,5,2,1:2:0:0:
239,246,6345,1,0,1:2:0:0:
135,188,6508,1,8,0:0:0:0:
288,358,6670,6,0,B|340:392|428:339|425:228|317:232|310:290,1,249.749992378235,6|0,1:2|0:0,0:0:0:0:
304,286,6994,1,0,1:2:0:0:
432,384,7156,6,0,P|421:304|406:200,1,166.499994918823,8|0,0:0|0:0,0:0:0:0:
504,139,7481,5,2,1:2:0:0:
487,214,7643,1,8,0:0:0:0:
512,131,7805,1,8,0:0:0:0:
333,113,7967,6,0,B|295:4|295:4|334:72,1,194.249994071961,6|0,1:2|0:0,0:0:0:0:
349,95,8291,1,0,1:2:0:0:
226,42,8454,1,8,0:0:0:0:
104,207,8616,5,2,0:0:0:0:
104,199,8697,1,2,0:0:0:0:
110,203,8778,1,2,1:2:0:0:
5,141,8940,1,8,0:3:0:0:
93,63,9102,1,8,0:3:0:0:
213,140,9264,6,0,P|198:259|189:328,1,166.499994918823,6|0,1:2|0:0,0:0:0:0:
177,233,9589,1,0,1:2:0:0:
260,350,9751,2,0,B|275:347|284:332|284:332|281:351|260:357,1,64.7499980239869,8|0,0:0|0:0,0:0:0:0:
195,314,9913,1,2,1:2:0:0:
359,176,10075,5,0,1:2:0:0:
323,261,10237,1,2,1:2:0:0:
487,105,10400,5,10,0:0:0:0:
497,110,10481,1,2,0:2:0:0:
508,127,10562,1,2,0:2:0:0:
500,153,10643,1,2,0:2:0:0:
435,195,10724,6,0,P|331:152|219:135,2,221.999993225098,6|10|2,1:2|0:0|0:0,0:0:0:0:
350,24,11535,1,0,1:2:0:0:
479,261,11697,6,0,B|498:257|509:237|509:237|505:262|479:269,1,83.2499974594117,8|0,0:0|0:0,0:0:0:0:
407,332,12021,6,0,B|355:356|308:313|339:282|290:231|228:269,1,208.125007939339,6|0,1:2|0:0,0:0:0:0:
221,295,12345,1,8,0:0:0:0:
359,176,12508,6,0,P|352:215|317:235,1,83.2499974594117,0|0,1:2|0:0,0:0:0:0:
259,181,12670,1,2,0:2:0:0:
350,24,12832,5,0,1:2:0:0:
301,111,12994,2,0,B|279:106|258:79|265:52|265:52|271:86|306:98,1,138.75,8|0,0:0|0:0,0:0:0:0:
350,24,13318,6,0,P|266:91|142:82,1,194.249994071961,6|0,1:2|0:0,0:0:0:0:
174,76,13643,1,8,0:0:0:0:
67,217,13805,6,0,B|39:92|39:92|58:147|106:159,1,222,2|0,0:2|0:0,0:0:0:0:
108,171,14129,6,0,P|126:166|144:163,1,37,2|0,1:2|0:0,0:0:0:0:
207,288,14291,6,0,P|180:281|152:275,1,55.4999983062745,10|0,0:2|0:0,0:0:0:0:
256,192,14454,5,2,1:2:0:0:
376,315,14616,5,8,0:0:0:0:
305,341,14778,2,0,P|290:312|322:261,1,92.5,6|0,1:2|0:0,0:0:0:0:
472,186,15102,5,10,0:3:0:0:
480,186,15183,1,10,0:3:0:0:
476,192,15264,1,10,0:3:0:0:
404,134,15427,1,8,0:3:0:0:
379,215,15589,5,8,0:3:0:0:
499,106,15751,1,8,0:3:0:0:
335,1,15913,5,6,1:2:0:0:
320,13,16021,2,0,P|320:47|333:92,1,80.1666629969281,10|10,0:3|0:0,0:0:0:0:
216,17,16237,1,10,0:0:0:0:
234,26,16345,2,0,P|245:64|246:104,1,80.1666629969281,10|10,0:0|0:0,0:0:0:0:
65,156,16562,5,10,0:3:0:0:
75,165,16670,2,0,P|73:189|63:224,1,61.6666666666667,10|10,0:3|0:3,0:0:0:0:
167,175,16886,1,10,0:3:0:0:
156,179,16994,2,0,P|147:207|145:237,1,61.6666666666667,10|10,0:3|0:3,0:0:0:0:
133,73,17210,5,8,1:2:0:0:
82,353,17373,1,8,1:2:0:0:
307,376,17697,5,2,0:0:0:0:
299,376,17778,1,2,0:0:0:0:
302,382,17859,1,2,0:0:0:0:
240,226,18021,1,2,0:0:0:0:
421,200,18183,5,2,0:0:0:0:
382,280,18345,1,2,0:0:0:0:
503,182,18508,6,0,P|443:181|415:96,1,138.75,6|0,1:2|0:0,0:0:0:0:
475,78,18832,2,0,P|493:71|477:82,1,55.4999983062745,0|0,3:0|0:0,0:0:0:0:
388,39,19156,5,2,3:0:0:0:
324,94,19318,1,2,0:0:0:0:
303,18,19481,5,2,3:0:0:0:
409,117,19643,1,2,0:0:0:0:
164,214,19805,5,2,3:3:0:0:
257,154,19967,1,2,0:2:0:0:
324,212,20129,6,0,P|315:247|305:294,2,74,2|2|2,3:2|0:2|3:2,0:0:0:0:
227,316,20616,5,2,0:2:0:0:
391,268,20778,1,2,3:2:0:0:
257,154,20940,1,0,1:2:0:0:
291,382,21102,6,0,P|226:338|132:350,1,166.499994918823,2|0,1:3|0:0,0:0:0:0:
134,358,21427,5,2,3:2:0:0:
1,265,21589,1,2,0:2:0:0:
28,340,21751,5,2,3:2:0:0:
103,279,21913,1,2,0:2:0:0:
33,120,22075,6,0,B|14:135|14:135|22:152|19:173|19:173|24:153|40:141|40:141|33:120,1,124.874996189118,2|0,3:2|0:0,0:0:0:0:
54,45,22400,1,2,3:3:0:0:
178,9,22562,5,2,0:2:0:0:
268,54,22724,1,2,3:2:0:0:
203,139,22886,1,2,0:2:0:0:
138,84,23048,5,2,3:2:0:0:
138,84,23210,1,2,0:2:0:0:
308,125,23373,6,0,B|332:119|340:98|340:98|336:126|308:133,1,92.5,2|0,3:2|1:0,0:0:0:0:
254,187,23697,5,6,1:2:0:0:
364,285,23859,1,2,0:0:0:0:
448,124,24021,5,2,3:2:0:0:
365,194,24183,1,2,0:0:0:0:
426,354,24345,5,2,3:2:0:0:
504,314,24507,1,2,0:0:0:0:
444,247,24670,1,2,3:2:0:0:
308,343,24832,5,0,1:2:0:0:
303,349,24913,1,0,1:2:0:0:
298,356,24994,2,0,B|257:374|218:342|244:316|202:275|149:309,1,166.499994918823,2|0,3:3|0:0,0:0:0:0:
157,319,25318,5,2,3:2:0:0:
217,195,25481,1,2,0:3:0:0:
51,141,25643,5,2,3:0:0:0:
127,121,25805,2,0,P|135:155|105:195,1,74,2|0,0:0|0:0,0:0:0:0:
10,341,25967,5,2,3:0:0:0:
67,277,26129,2,0,B|82:283|81:307|81:307|73:289|60:284,1,64.7499980239869,0|0,1:2|0:0,0:0:0:0:
1,237,26291,6,0,P|111:212|240:189,1,221.999993225098,6|2,1:2|0:2,0:0:0:0:
372,303,26778,5,2,0:2:0:0:
448,310,26940,1,2,0:3:0:0:
481,241,27102,1,2,0:2:0:0:
424,188,27264,1,2,0:3:0:0:
356,226,27427,1,2,0:2:0:0:
250,362,27589,5,2,3:1:0:0:
105,295,27751,1,2,0:1:0:0:
219,193,27913,1,2,3:1:0:0:
284,284,28075,5,2,1:2:0:0:
276,284,28156,1,8,0:2:0:0:
280,278,28237,1,10,0:2:0:0:
169,367,28400,6,0,P|171:342|185:311,1,55.4999983062745,2|0,1:2|0:0,0:0:0:0:
91,347,28562,2,0,P|102:321|104:294,1,55.4999983062745,2|0,0:2|0:0,0:0:0:0:
161,242,28724,5,2,0:2:0:0:
0,146,28886,6,0,P|100:136|161:24,1,194.249994071961,4|0,1:2|0:0,0:0:0:0:
104,7,29210,2,0,P|63:21|71:86,1,92.5,8|0,0:2|0:0,0:0:0:0:
201,164,29535,5,2,0:2:0:0:
255,82,29697,1,0,1:2:0:0:
340,140,29859,1,10,0:2:0:0:
487,40,30021,6,0,P|476:66|474:93,1,55.4999983062745,2|0,0:2|0:0,0:0:0:0:
409,20,30183,2,0,P|407:45|393:76,1,55.4999983062745,2|0,1:3|0:0,0:0:0:0:
481,222,30345,5,2,0:2:0:0:
414,178,30508,1,10,0:2:0:0:
487,324,30670,1,0,1:2:0:0:
479,324,30751,1,0,1:2:0:0:
482,332,30832,1,0,1:2:0:0:
301,355,30993,5,2,1:2:0:0:
373,382,31156,2,0,B|389:329|389:329|338:286,1,110.999996612549,10|0,0:2|1:2,0:0:0:0:
179,206,31481,5,2,1:3:0:0:
112,280,31643,1,2,0:2:0:0:
198,327,31805,1,10,0:2:0:0:
309,199,31967,5,2,0:2:0:0:
425,139,32129,1,2,0:2:0:0:
338,45,32291,1,2,1:2:0:0:
259,112,32454,6,0,P|268:232|273:308,1,194.249994071961,10|0,0:2|0:0,0:0:0:0:
328,364,32778,6,0,B|366:390|453:348|460:264|370:251|351:297,1,222,2|0,1:3|0:0,0:0:0:0:
345,287,33102,1,10,0:2:0:0:
185,354,33264,5,2,1:2:0:0:
174,351,33345,1,0,1:2:0:0:
164,348,33426,1,2,1:2:0:0:
154,345,33507,1,0,1:2:0:0:
143,342,33588,1,2,1:2:0:0:
47,175,33751,6,0,P|78:179|110:175,1,64.7499980239869,10|0,0:2|0:0,0:0:0:0:
72,279,33913,2,0,P|97:260|131:248,1,64.7499980239869,2|0,1:2|0:0,0:0:0:0:
229,164,34075,6,0,B|257:39|257:39|244:96|187:104,1,222,2|0,1:3|0:0,0:0:0:0:
180,26,34400,1,10,0:2:0:0:
389,204,34562,5,2,0:2:0:0:
451,118,34724,1,2,0:2:0:0:
351,73,34886,1,2,1:2:0:0:
295,250,35048,5,10,0:2:0:0:
315,151,35210,1,2,0:2:0:0:
383,353,35373,6,0,B|336:374|293:331|308:317|324:304|270:254|221:289,1,194.249994071961,2|0,1:3|0:0,0:0:0:0:
184,354,35697,1,10,0:2:0:0:
56,219,35859,5,2,0:3:0:0:
48,219,35940,1,0,0:0:0:0:
52,213,36021,1,2,0:2:0:0:
81,307,36183,1,2,1:2:0:0:
203,111,36345,1,10,0:2:0:0:
156,254,36507,1,2,1:2:0:0:
17,72,36670,5,2,1:3:0:0:
138,173,36832,1,2,0:2:0:0:
208,0,36994,5,8,0:2:0:0:
111,81,37156,1,2,0:2:0:0:
315,199,37318,6,0,P|290:179|256:168,1,64.7499980239869,2|0,1:2|0:0,0:0:0:0:
340,93,37481,2,0,P|309:97|277:93,1,64.7499980239869,2|0,1:2|0:0,0:0:0:0:
202,112,37643,5,10,0:2:0:0:
129,319,37805,6,0,B|245:277|245:277|242:331|284:368,1,222,4|0,1:2|0:0,0:0:0:0:
332,291,38129,5,10,0:2:0:0:
358,305,38183,5,10,0:2:0:0:
391,273,38237,5,10,0:2:0:0:
398,261,38291,6,0,L|387:212,5,30.8333333333333,10|2|8|2|2|2,0:2|0:2|0:3|0:2|0:2|0:2,0:0:0:0:
323,170,38616,6,0,L|314:207,2,30.8333333333333,4|2|2,0:3|0:2|1:2,0:0:0:0:
252,141,38778,6,0,L|238:195,2,49.3333333333333,2|2|2,1:2|0:2|0:2,0:0:0:0:
155,95,38940,6,0,L|150:71,2,24.6666666666667,10|2|2,0:0|0:2|1:2,0:0:0:0:
76,73,39102,6,0,L|73:55,2,18.4999994354248,2|2|2,1:2|0:2|0:2,0:0:0:0:
5,124,39264,5,6,1:2:0:0:
208,275,39427,1,10,0:2:0:0:
0,336,39589,5,10,0:2:0:0:
102,233,39751,1,10,0:2:0:0:
137,375,39913,6,0,L|131:332,1,41.6249987297059,2|0,1:2|0:0,0:0:0:0:
141,328,40237,1,0,1:2:0:0:
267,224,40400,5,10,1:2:0:0:
259,224,40481,1,10,1:2:0:0:
263,218,40562,1,2,1:2:0:0:
378,265,40724,1,2,0:2:0:0:
294,350,40886,1,2,1:2:0:0:
197,142,41048,6,0,B|177:158|177:158|186:175|184:197|184:197|188:176|205:163|205:163|197:142,1,129.499996047974,10|0,0:2|1:2,0:0:0:0:
77,17,41373,5,8,0:3:0:0:
96,124,41535,1,0,1:2:0:0:
80,28,41697,1,0,1:2:0:0:
157,241,41859,5,6,1:2:0:0:
0,107,42022,1,10,0:2:0:0:
296,0,42184,5,10,0:2:0:0:
158,69,42346,1,10,0:2:0:0:
320,259,42508,5,2,1:2:0:0:
323,251,42589,1,2,0:2:0:0:
326,244,42670,1,2,0:2:0:0:
330,237,42751,1,2,0:2:0:0:
334,227,42832,2,0,L|326:186,1,37,0|2,1:2|0:2,0:0:0:0:
480,72,42994,5,10,1:2:0:0:
472,72,43075,1,10,1:2:0:0:
476,78,43156,1,2,1:2:0:0:
396,140,43318,1,2,0:2:0:0:
356,52,43481,5,2,1:2:0:0:
502,159,43643,1,10,0:2:0:0:
334,227,43805,1,0,1:2:0:0:
146,63,43967,5,8,0:0:0:0:
157,70,44048,1,2,0:0:0:0:
166,75,44129,2,0,L|174:132,1,55.4999983062745,2|2,1:2|0:0,0:0:0:0:
18,258,44291,5,8,0:3:0:0:
0,215,44373,1,8,0:3:0:0:
35,189,44454,2,0,B|144:206|75:269|182:290,1,180.374991743088,6|0,1:2|0:0,0:0:0:0:
228,234,44778,1,10,0:2:0:0:
369,325,44940,5,2,0:2:0:0:
315,381,45102,2,0,P|290:360|300:298,1,92.5,2|8,1:2|0:2,0:0:0:0:
389,180,45427,5,2,1:2:0:0:
478,248,45589,1,8,0:3:0:0:
484,224,45670,1,8,0:3:0:0:
470,209,45751,2,0,B|408:196|376:251|376:251|396:281|392:317|360:330,1,194.249994071961,2|0,1:2|0:0,0:0:0:0:
295,304,46075,1,2,1:2:0:0:
152,369,46237,5,6,1:2:0:0:
272,210,46400,1,0,1:2:0:0:
79,151,46562,5,8,0:3:0:0:
185,245,46724,1,8,0:3:0:0:
62,357,46886,5,8,0:3:0:0:
53,350,46967,1,8,0:3:0:0:
44,342,47048,2,0,P|64:232|81:144,1,194.249994071961,2|0,1:2|0:0,0:0:0:0:
22,97,47373,1,2,1:2:0:0:
185,245,47535,6,0,P|218:235|262:221,1,74,6|2,1:2|1:2,0:0:0:0:
416,352,47859,1,10,0:2:0:0:
345,378,48021,2,0,P|330:339|381:292,1,92.5,8|8,0:3|0:3,0:0:0:0:
503,141,48345,5,2,1:2:0:0:
463,259,48508,1,8,0:2:0:0:
333,124,48670,6,0,P|385:113|409:108,1,55.4999983062745,8|0,0:2|1:2,0:0:0:0:
420,44,48913,1,0,1:2:0:0:
423,36,48994,5,8,0:2:0:0:
280,183,49156,1,8,0:3:0:0:
234,98,49318,5,8,0:3:0:0:
136,22,49481,1,8,0:3:0:0:
39,146,49643,6,0,P|66:149|93:146,1,55.4999983062745,6|0,1:2|0:0,0:0:0:0:
65,249,49967,2,0,P|86:232|115:222,1,55.4999983062745,2|0,0:2|0:0,0:0:0:0:
316,256,50291,6,0,P|289:259|261:256,1,55.4999983062745,2|0,0:2|0:0,0:0:0:0:
289,356,50615,2,0,P|267:339|238:329,1,55.4999983062745,2|2,1:2|1:2,0:0:0:0:
115,379,50940,5,2,1:2:0:0:
150,291,51102,1,2,0:2:0:0:
148,370,51264,1,2,0:2:0:0:
39,146,51589,5,2,1:2:0:0:
348,62,52237,6,0,P|378:72|413:86,1,55.4999983062745,6|0,1:2|0:0,0:0:0:0:
460,36,52481,1,2,0:2:0:0:
463,26,52562,1,2,0:2:0:0:
234,128,52724,5,2,1:2:0:0:
297,177,52886,2,0,P|322:167|349:158,1,55.4999983062745,10|8,0:2|0:3,0:0:0:0:
407,205,53129,1,2,0:2:0:0:
412,215,53210,1,2,0:2:0:0:
356,338,53373,5,2,0:2:0:0:
431,366,53535,6,0,B|447:324|447:324|412:288,1,86.3333306986492,6|0,1:2|0:0,0:0:0:0:
297,177,53745,5,8,0:2:0:0:
309,187,53850,5,8,0:2:0:0:
321,197,53956,6,0,P|311:245|305:286,1,73.9999977416993,8|8,0:2|0:2,0:0:0:0:
244,343,54166,5,10,0:3:0:0:
213,365,54271,5,8,0:3:0:0:
163,330,54377,5,8,0:3:0:0:
142,250,54482,5,8,0:3:0:0:
120,203,54587,5,4,0:3:0:0:
41,215,54692,5,4,0:3:0:0:
7,289,54798,6,0,L|16:328,1,37,2|2,0:0|0:0,0:0:0:0:
208,48,56135,5,2,0:0:0:0:
464,312,57427,6,0,B|422:329|382:297|408:271|367:235|316:260,1,166.499994918823,6|0,1:2|0:0,0:0:0:0:
316,268,57751,6,0,P|314:305|331:344,3,74,8|8|8|8,0:2|0:0|0:0|0:0,0:0:0:0:
214,273,58075,5,8,0:3:0:0:
222,277,58156,1,8,0:3:0:0:
229,282,58237,2,0,P|241:316|238:353,1,74,8|8,0:3|0:3,0:0:0:0:
21,249,58400,5,4,0:3:0:0:
40,269,58481,1,4,0:3:0:0:
90,262,58562,1,4,0:3:0:0:
111,215,58643,1,4,0:3:0:0:
53,151,58724,6,0,P|17:163|-8:166,2,55.4999983062745,2|2|2,0:0|0:0|0:0,0:0:0:0:
112,35,59697,5,2,0:0:0:0:
107,43,59778,1,2,0:0:0:0:
103,52,59859,1,2,0:0:0:0:
99,61,59940,1,2,0:0:0:0:
95,70,60021,6,0,B|131:93|131:93|251:38,1,166.499994918823,4|0,1:2|0:0,0:0:0:0:
310,0,60345,5,10,0:0:0:0:
485,120,60508,1,2,0:0:0:0:
216,226,60670,6,0,L|229:176,1,46.25,2|0,1:2|0:0,0:0:0:0:
129,140,60832,2,0,L|142:190,1,46.25,0|0,1:2|0:0,0:0:0:0:
296,367,60994,5,10,0:0:0:0:
512,251,61156,1,2,0:0:0:0:
413,355,61318,6,0,B|400:312|359:318|350:323|296:310|310:235|321:190|406:175|460:231|453:299|389:320,1,332.999989837647,2|0,1:2|0:0,0:0:0:0:
251,299,61643,6,0,B|266:244|327:243|331:258|399:242|381:146|366:93|258:70|188:133|198:228|280:255,1,444,10|0,0:0|0:0,0:0:0:0:
169,267,61967,6,0,P|116:265|103:195,1,120.249994495392,2|0,1:2|0:0,0:0:0:0:
31,165,62129,2,0,P|16:124|54:87,1,92.5,2|0,1:2|0:0,0:0:0:0:
5,4,62291,6,0,P|78:76|206:78,1,222,10|0,0:0|0:0,0:0:0:0:
247,25,62616,5,6,1:2:0:0:
96,208,62778,1,2,0:2:0:0:
356,98,62940,2,0,P|348:62|328:-8,1,92.5,10|0,0:0|0:0,0:0:0:0:
44,89,63264,5,0,1:2:0:0:
277,254,63427,1,0,1:2:0:0:
11,381,63589,2,0,L|2:334,1,41.6249987297059,8|0,0:0|0:0,0:0:0:0:
27,262,63913,6,0,B|92:250|117:302|117:302|96:335|97:370|133:386,1,194.249994071961,2|0,1:2|0:0,0:0:0:0:
204,351,64237,6,0,P|188:255|162:90,1,249.749992378235,8|0,0:0|0:0,0:0:0:0:
227,58,64562,2,0,B|248:62|261:83|261:83|257:56|229:52,1,92.5,2|0,1:2|0:0,0:0:0:0:
156,115,64886,1,8,0:0:0:0:
60,3,65048,5,0,1:0:0:0:
56,13,65129,1,0,1:0:0:0:
51,21,65210,2,0,L|33:27,2,18.4999994354248,2|2|2,1:2|1:2|1:2,0:0:0:0:
76,92,65373,6,0,L|42:103,2,30.8333333333333,2|2|2,1:2|1:2|1:2,0:0:0:0:
134,34,65535,5,6,1:2:0:0:
332,163,65697,1,2,0:0:0:0:
204,351,65859,6,0,L|217:301,1,46.25,2|0,1:2|0:0,0:0:0:0:
124,220,66021,2,0,L|137:270,1,46.25,0|0,1:2|0:0,0:0:0:0:
281,379,66183,5,8,0:0:0:0:
495,233,66345,1,2,0:2:0:0:
385,147,66508,6,0,B|372:104|324:103|322:115|268:102|282:27|293:-18|378:-32|432:23|425:91|361:112,1,332.999989837647,2|0,1:2|0:0,0:0:0:0:
198,210,66832,6,0,B|213:154|275:152|278:168|348:151|330:54|317:-3|205:-23|135:49|144:137|227:164,1,444,10|0,0:0|0:0,0:0:0:0:
350,323,67156,6,0,P|403:321|416:251,1,120.249994495392,2|0,1:2|0:0,0:0:0:0:
495,233,67318,2,0,P|508:192|460:163,1,92.5,0|0,1:2|0:0,0:0:0:0:
511,91,67481,6,0,P|404:151|239:366,1,388.499988143921,10|0,0:0|0:0,0:0:0:0:
233,353,67805,6,0,P|246:373|238:350,1,69.375,6|0,1:2|0:0,0:0:0:0:
188,287,68129,1,10,0:0:0:0:
51,184,68291,5,2,0:0:0:0:
101,258,68454,1,2,1:2:0:0:
0,282,68616,5,2,1:2:0:0:
148,166,68778,2,0,P|138:123|124:65,1,74,10|0,0:0|1:2,0:0:0:0:
10,48,69102,5,2,1:2:0:0:
261,238,69264,1,0,1:2:0:0:
308,2,69427,5,8,0:0:0:0:
217,111,69589,1,0,1:2:0:0:
470,138,69751,6,0,P|451:117|420:108,1,55.4999983062745,2|0,1:2|0:0,0:0:0:0:
498,32,69914,2,0,P|469:41|439:34,1,55.4999983062745,0|0,1:2|0:0,0:0:0:0:
372,53,70075,5,8,0:3:0:0:
497,246,70237,5,2,1:2:0:0:
499,235,70318,1,0,1:0:0:0:
501,225,70399,2,0,P|397:223|294:335,1,249.749992378235,4|0,1:2|0:0,0:0:0:0:
361,369,70724,2,0,P|401:354|406:303,1,92.5,10|0,0:0|0:0,0:0:0:0:
304,143,71048,5,2,1:2:0:0:
231,372,71210,1,2,1:2:0:0:
112,196,71373,5,10,0:0:0:0:
214,267,71535,1,2,0:0:0:0:
43,365,71697,6,0,L|89:115,1,249.749992378235,0|0,1:2|0:0,0:0:0:0:
29,68,72021,2,0,B|8:72|-5:93|-5:93|-1:66|27:62,1,92.5,10|0,0:0|0:0,0:0:0:0:
106,109,72345,5,2,1:2:0:0:
254,0,72508,1,2,1:2:0:0:
357,269,72670,5,10,0:0:0:0:
194,175,72832,1,2,0:0:0:0:
417,99,72994,6,0,B|375:25|375:25|425:138,1,194.249994071961,4|0,1:2|0:0,0:0:0:0:
476,180,73318,5,10,0:0:0:0:
512,79,73481,1,2,0:0:0:0:
320,184,73643,6,0,P|318:209|304:240,1,55.4999983062745,2|0,1:2|0:0,0:0:0:0:
398,204,73805,2,0,P|387:230|385:257,1,55.4999983062745,2|0,1:2|0:0,0:0:0:0:
464,367,73967,6,0,P|420:308|306:325,1,166.499994918823,10|0,0:0|1:0,0:0:0:0:
306,236,74291,6,0,P|270:246|259:303,1,83.2499974594117,4|0,1:2|1:2,0:0:0:0:
200,337,74535,1,2,0:2:0:0:
203,351,74616,1,8,0:2:0:0:
181,239,74778,1,2,1:2:0:0:
24,358,74940,5,10,0:2:0:0:
220,122,75102,1,0,1:2:0:0:
19,142,75264,5,10,0:2:0:0:
101,192,75427,1,10,0:2:0:0:
111,182,75508,1,10,0:2:0:0:
119,172,75589,6,0,B|139:142|139:142|84:44,1,138.75,4|0,1:2|0:0,0:0:0:0:
152,0,75913,6,0,L|227:17,1,74,10|2,0:2|0:2,0:0:0:0:
394,150,76237,1,0,1:2:0:0:
325,1,76400,1,2,1:2:0:0:
492,154,76562,6,0,B|430:141|398:196|398:196|418:226|414:262|382:275,1,194.249994071961,10|0,0:2|0:0,0:0:0:0:
234,323,76886,6,0,B|192:343|112:292|119:216|207:203|218:253,1,222,4|0,1:2|0:0,0:0:0:0:
323,369,77210,6,0,P|306:240|285:107,1,249.749992378235,10|0,0:2|0:0,0:0:0:0:
356,82,77535,2,0,B|376:85|391:106|391:106|384:78|355:73,1,92.5,2|0,1:2|1:2,0:0:0:0:
277,135,77859,6,0,P|287:190|295:251,1,111,10|0,0:2|0:0,0:0:0:0:
303,258,78183,5,4,1:2:0:0:
119,172,78345,1,0,1:2:0:0:
434,1,78508,5,0,1:2:0:0:
195,136,78670,1,0,1:2:0:0:
478,312,78832,5,0,1:0:0:0:
371,171,78994,1,0,1:0:0:0:
337,380,79156,5,0,1:0:0:0:
508,101,79318,1,0,1:0:0:0:
94,9,79481,6,0,P|110:56|124:108,1,92.5,4|0,1:2|0:0,0:0:0:0:
12,0,79967,5,0,1:2:0:0:
7,9,80048,1,0,1:2:0:0:
2,17,80129,2,0,P|26:85|50:175,1,138.75,0|0,1:2|0:0,0:0:0:0:
42,242,80454,6,0,B|17:246|0:241|-7:216|-7:216|13:235|41:228,1,110.999996612549,0|2,1:2|0:2,0:0:0:0:
201,179,80778,6,0,P|267:197|307:216,1,110.999996612549,2|2,0:2|0:2,0:0:0:0:
371,171,81264,1,2,0:2:0:0:
238,291,81589,5,2,0:2:0:0:
295,345,81751,2,0,P|346:322|400:308,1,110.999996612549,2|0,0:2|0:0,0:0:0:0:
496,209,82075,5,2,0:2:0:0:
161,378,82400,6,0,P|156:346|151:314,2,55.4999983062745,2|2|2,0:2|0:2|0:2,0:0:0:0:
161,378,83372,5,6,1:2:0:0:
23,277,83535,1,2,0:2:0:0:
57,360,83697,5,2,1:2:0:0:
128,296,83859,1,2,0:2:0:0:
240,376,84021,6,0,P|264:370|281:365,1,37,2|0,1:2|0:0,0:0:0:0:
358,375,84345,5,2,1:2:0:0:
308,286,84508,1,2,0:2:0:0:
308,278,84589,1,0,0:0:0:0:
314,282,84670,1,2,1:2:0:0:
431,317,84832,6,0,P|434:298|439:281,1,37,2|2,0:2|1:2,0:0:0:0:
469,207,85156,1,2,0:3:0:0:
367,188,85318,5,2,1:2:0:0:
512,121,85481,1,2,0:2:0:0:
319,10,85643,6,0,P|317:35|303:66,1,55.4999983062745,2|0,1:2|0:0,0:0:0:0:
402,30,85805,2,0,P|391:56|389:83,1,55.4999983062745,2|0,0:2|0:0,0:0:0:0:
189,168,85967,5,2,1:2:0:0:
66,78,86130,1,2,0:2:0:0:
93,156,86292,5,2,1:2:0:0:
164,92,86454,1,2,0:2:0:0:
279,175,86616,6,0,P|273:199|270:217,1,37,2|0,1:2|0:0,0:0:0:0:
217,345,86940,5,2,1:2:0:0:
180,273,87103,1,2,0:2:0:0:
180,265,87184,1,0,0:0:0:0:
186,269,87265,1,2,1:2:0:0:
50,315,87426,6,0,P|56:295|59:276,1,37,2|0,0:2|1:0,0:0:0:0:
6,219,87751,1,2,0:2:0:0:
134,188,87913,5,2,1:2:0:0:
0,103,88076,1,2,0:2:0:0:
168,29,88238,6,0,P|170:54|184:85,1,55.4999983062745,2|0,1:2|0:0,0:0:0:0:
85,112,88400,6,0,P|83:84|72:59,1,55.4999983062745,2|0,0:3|0:0,0:0:0:0:
