osu file format v14

[General]
AudioFilename: audio.mp3
AudioLeadIn: 0
PreviewTime: 58423
Countdown: 0
SampleSet: Soft
StackLeniency: 0.7
Mode: 0
LetterboxInBreaks: 0
WidescreenStoryboard: 1

[Editor]
DistanceSpacing: 1.35
BeatDivisor: 4
GridSize: 32
TimelineZoom: 2

[Metadata]
Title:Careless (TV Size)
TitleUnicode:ケアレス (TV Size)
Artist:ClariS
ArtistUnicode:ClariS
Creator:Kyutei
Version:Crissa's Hard
Source:マギアレコード 魔法少女まどか☆マギカ外伝 2nd SEASON -覚醒前夜-
Tags:Anya Melfissa Anya_Melfissa Crissa Eula- Kagayaki Erisu Mayuzumi Fuyuko Lanzhu Mocaotic クララ Clara カレン Karen Mahō Shōjo mahou shoujo magia record puella magi madoka☆magica gaiden side story 2nd season s2 kakusei zenya anime opening japanese pop j-pop jpop
BeatmapID:3145640
BeatmapSetID:1538547

[Difficulty]
HPDrainRate:5
CircleSize:3.6
OverallDifficulty:6
ApproachRate:8
SliderMultiplier:1.55
SliderTickRate:1

[Events]
//Background and Video events
0,0,"Iroha.jpg",0,0
Video,-150,"Video.mp4"
//Break Periods
//Storyboard Layer 0 (Background)
//Storyboard Layer 1 (Fail)
//Storyboard Layer 2 (Pass)
//Storyboard Layer 3 (Foreground)
//Storyboard Layer 4 (Overlay)
//Storyboard Sound Samples

[TimingPoints]
346,324.324324324324,4,2,1,30,1,0
5373,-83.3333333333333,4,2,1,70,0,0
15102,-83.3333333333333,4,2,2,70,0,0
17210,-83.3333333333333,4,2,1,70,0,0
18508,-125,4,2,1,40,0,0
18832,-125,4,2,2,40,0,0
19805,-125,4,2,1,40,0,0
25481,-125,4,2,3,40,0,0
25643,-125,4,2,2,40,0,0
26616,-125,4,2,1,40,0,0
28886,-100,4,2,1,50,0,0
39264,-100,4,2,1,60,0,0
44454,-125,4,2,1,60,0,0
49643,-125,4,2,1,55,0,0
53535,315.789473684211,4,2,1,50,1,0
53535,-100,4,2,1,55,0,0
54166,-100,4,2,3,55,0,0
54271,-100,4,2,1,55,0,0
54798,334.280461307037,4,2,1,50,1,0
56803,312.01248049922,4,2,1,50,1,0
57427,324.324324324324,4,2,1,60,1,0
58724,-100,4,2,1,70,0,0
60021,-90.9090909090909,4,2,3,80,0,0
60102,-90.9090909090909,4,2,1,80,0,0
78345,-111.111111111111,4,2,1,80,0,0
79481,-142.857142857143,4,2,3,80,0,0
79562,-142.857142857143,4,2,1,80,0,0
80778,-166.666666666667,4,2,1,60,0,0
83373,-166.666666666667,4,2,1,40,0,0
85156,-166.666666666667,4,2,4,40,0,0
85318,-166.666666666667,4,2,1,40,0,0

[Colours]
Combo1 : 106,106,181
Combo2 : 230,191,111
Combo3 : 208,223,164
Combo4 : 197,149,236
Combo5 : 207,82,151
Combo6 : 217,190,174

[HitObjects]
102,241,346,5,2,0:0:0:0:
77,314,508,1,2,0:0:0:0:
144,351,670,2,0,L|227:328,1,77.5,2|2,0:0|0:0,0:0:0:0:
272,248,994,1,2,0:0:0:0:
272,248,1318,5,2,0:0:0:0:
349,242,1481,1,2,0:0:0:0:
401,360,1643,1,2,0:0:0:0:
448,299,1805,1,2,0:0:0:0:
448,299,2129,5,2,0:0:0:0:
439,222,2291,1,2,0:0:0:0:
430,144,2454,1,2,0:0:0:0:
486,91,2616,1,2,0:0:0:0:
435,32,2778,1,2,0:0:0:0:
378,85,2940,6,0,L|300:104,2,77.5,2|2|2,0:0|0:0|0:0,0:0:0:0:
421,154,3427,1,2,0:0:0:0:
374,221,3589,1,2,0:0:0:0:
374,221,3913,5,2,0:0:0:0:
298,190,4075,1,2,0:0:0:0:
220,214,4237,1,2,0:0:0:0:
179,285,4400,2,0,B|150:248|168:208|177:211|199:173|169:133,1,155,2|2,0:0|0:0,0:0:0:0:
75,116,4886,5,10,0:0:0:0:
139,66,5048,1,8,0:3:0:0:
150,146,5210,1,8,0:3:0:0:
69,26,5373,6,0,P|129:45|255:66,1,185.999994323731,6|0,1:2|1:2,0:0:0:0:
216,194,5859,2,0,P|256:152|347:129,1,139.499995742798,8|0,0:0|0:0,0:0:0:0:
361,137,6183,1,2,1:2:0:0:
427,71,6345,1,0,1:2:0:0:
428,196,6508,1,8,0:0:0:0:
512,186,6670,6,0,P|448:207|406:310,1,185.999994323731,6|0,1:2|1:2,0:0:0:0:
292,378,7156,2,0,P|326:298|314:232,1,139.499995742798,8|0,0:0|0:0,0:0:0:0:
297,236,7481,1,2,1:2:0:0:
207,287,7643,1,8,0:0:0:0:
125,231,7805,1,8,0:0:0:0:
147,142,7967,6,0,P|78:297|68:344,1,185.999994323731,6|0,1:2|1:2,0:0:0:0:
204,209,8454,2,0,P|248:194|315:187,1,92.9999971618653,8|2,0:0|0:0,0:0:0:0:
328,206,8697,1,2,0:0:0:0:
328,206,8778,1,2,1:2:0:0:
348,115,8940,1,8,0:3:0:0:
289,43,9102,1,8,0:3:0:0:
164,39,9264,6,0,P|215:42|254:159,1,185.999994323731,6|0,1:2|1:2,0:0:0:0:
123,220,9751,1,8,0:0:0:0:
176,143,9913,2,0,P|157:207|179:330,1,185.999994323731,2|2,1:2|1:2,0:0:0:0:
202,349,10318,1,2,1:2:0:0:
202,349,10400,2,0,L|261:358,2,46.4999985809327,10|2|2,0:0|0:2|0:2,0:0:0:0:
354,355,10724,6,0,B|381:309|342:262|337:268|298:239|325:177,2,185.999994323731,6|10|2,1:2|0:0|0:0,0:0:0:0:
451,378,11535,1,0,1:2:0:0:
508,267,11697,2,0,P|450:250|366:250,1,139.499995742798,8|0,0:0|0:0,0:0:0:0:
349,264,12021,6,0,P|368:179|374:68,1,185.999994323731,6|8,1:2|0:0,0:0:0:0:
306,16,12508,1,0,1:2:0:0:
217,45,12670,2,0,P|243:84|268:132,1,92.9999971618653,2|0,0:2|1:2,0:0:0:0:
264,248,12994,1,8,0:0:0:0:
140,179,13318,6,0,P|119:269|105:371,1,185.999994323731,6|8,1:2|0:0,0:0:0:0:
31,313,13805,1,2,0:2:0:0:
31,313,13967,2,0,P|21:267|7:215,2,92.9999971618653,0|2|10,0:0|1:2|0:2,0:0:0:0:
106,362,14454,1,2,1:2:0:0:
186,302,14616,1,8,0:0:0:0:
287,381,14778,6,0,P|234:354|103:332,1,185.999994323731,6|10,1:2|0:3,0:0:0:0:
77,343,15183,1,10,0:3:0:0:
77,343,15264,1,10,0:3:0:0:
29,273,15427,1,8,0:3:0:0:
57,194,15589,2,0,L|150:167,1,92.9999971618653,8|8,0:3|0:3,0:0:0:0:
246,212,15913,6,0,B|258:230|258:230|239:307|239:307|212:318,1,123.99999621582,6|10,1:2|0:0,0:0:0:0:
146,350,16237,2,0,P|118:341|67:330,2,61.9999981079102,10|10|10,0:0|0:0|0:0,0:0:0:0:
120,257,16562,2,0,P|96:233|65:210,2,61.9999981079102,10|10|10,0:3|0:3|0:3,0:0:0:0:
164,183,16886,2,0,P|157:144|144:111,2,61.9999981079102,10|10|10,0:3|0:3|0:3,0:0:0:0:
236,129,17210,6,0,P|277:100|327:87,1,92.9999971618653,8|8,1:2|1:2,0:0:0:0:
373,106,18508,6,0,P|330:140|302:222,2,124,6|0|2,1:2|3:0|3:0,0:0:0:0:
428,98,19318,2,0,L|490:115,2,62,2|2|2,0:0|3:0|0:0,0:0:0:0:
366,22,19805,6,0,L|290:35,1,62,2|2,3:3|0:2,0:0:0:0:
273,78,20129,2,0,P|247:32|177:31,1,124,2|2,3:2|3:2,0:0:0:0:
117,92,20616,1,2,0:2:0:0:
117,92,20778,2,0,L|141:167,1,62,2|0,3:2|1:2,0:0:0:0:
104,249,21102,6,0,P|163:225|235:198,1,124,2|2,1:3|3:2,0:0:0:0:
272,223,21589,1,2,0:2:0:0:
347,169,21751,2,0,P|349:137|323:109,1,62,2|2,3:2|0:2,0:0:0:0:
283,79,22075,2,0,L|415:101,1,124,2|2,3:2|3:3,0:0:0:0:
464,193,22724,1,2,3:2:0:0:
404,288,23048,1,2,3:2:0:0:
404,288,23210,2,0,P|350:303|285:335,1,124,2|0,0:2|1:0,0:0:0:0:
166,317,23697,6,0,P|188:344|201:373,2,62,6|2|2,1:2|0:0|3:2,0:0:0:0:
239,260,24183,1,2,0:0:0:0:
239,260,24345,2,0,P|252:232|272:208,1,62,2|2,3:2|0:0,0:0:0:0:
381,178,24670,2,0,P|346:143|264:111,1,124,2|2,3:2|3:3,0:0:0:0:
386,61,25318,5,2,3:2:0:0:
386,61,25481,2,0,P|427:37|452:30,2,62,2|2|2,0:3|3:0|0:0,0:0:0:0:
302,33,25967,2,0,P|281:19|240:7,1,62,2|0,3:0|1:2,0:0:0:0:
136,29,26291,6,0,P|160:92|181:162,2,124,6|2|2,1:2|0:3|0:3,0:0:0:0:
81,16,27102,1,2,0:2:0:0:
17,40,27264,1,2,0:3:0:0:
1,119,27427,1,2,0:2:0:0:
52,196,27589,2,0,L|118:218,2,62,2|2|2,3:1|0:1|3:1,0:0:0:0:
178,150,28075,5,2,1:2:0:0:
178,150,28156,1,8,0:2:0:0:
178,150,28237,2,0,L|250:135,1,62,10|2,0:2|1:2,0:0:0:0:
315,193,28562,1,2,0:2:0:0:
393,116,28724,1,2,0:2:0:0:
393,116,28886,6,0,P|375:168|358:275,1,155,4|8,1:2|0:2,0:0:0:0:
512,210,29535,1,2,0:2:0:0:
512,210,29697,2,0,P|497:174|444:163,2,77.5,0|10|2,1:2|0:2|0:2,0:0:0:0:
512,305,30183,2,0,L|486:379,1,77.5,2|2,1:3|0:2,0:0:0:0:
331,384,30508,2,0,P|329:337|422:312,1,155,10|0,0:2|1:2,0:0:0:0:
486,378,30994,1,2,1:2:0:0:
512,255,31156,2,0,P|491:209|434:165,1,116.25,10|0,0:2|0:0,0:0:0:0:
414,173,31481,5,2,1:3:0:0:
341,109,31643,2,0,P|339:62|358:38,2,77.5,2|10|2,0:2|0:2|0:2,0:0:0:0:
304,205,32129,2,0,P|281:168|248:151,1,77.5,2|2,0:2|1:2,0:0:0:0:
121,171,32454,6,0,P|192:156|255:127,1,116.25,10|0,0:2|0:0,0:0:0:0:
246,125,32778,2,0,P|250:68|163:61,1,155,2|10,1:3|0:2,0:0:0:0:
98,157,33264,2,0,P|108:199|129:248,2,77.5,2|2|2,1:2|1:2|1:2,0:0:0:0:
81,65,33751,2,0,P|45:85|15:112,1,77.5,10|2,0:2|1:2,0:0:0:0:
1,229,34075,6,0,P|53:227|143:302,1,155,2|10,1:3|0:2,0:0:0:0:
173,377,34562,1,2,0:2:0:0:
173,377,34724,2,0,P|225:355|242:338,2,77.5,2|2|10,0:2|1:2|0:2,0:0:0:0:
74,358,35210,1,2,0:2:0:0:
15,275,35373,6,0,P|58:243|127:221,1,116.25,2|0,1:3|0:0,0:0:0:0:
136,232,35697,2,0,P|175:222|192:180,1,77.5,10|2,0:2|0:3,0:0:0:0:
131,70,36021,1,2,0:2:0:0:
131,70,36183,2,0,P|112:111|126:142,2,77.5,2|10|2,1:2|0:2|1:2,0:0:0:0:
239,17,36670,6,0,L|327:35,1,77.5,2|2,1:3|0:2,0:0:0:0:
336,126,36994,2,0,L|431:103,1,77.5,8|2,0:2|0:2,0:0:0:0:
512,3,37318,1,2,1:2:0:0:
512,3,37481,2,0,L|493:87,1,77.5,2|10,1:2|0:2,0:0:0:0:
505,224,37805,6,0,B|475:192|429:209|432:215|389:233|358:208,1,155,4|10,1:2|0:2,0:0:0:0:
340,188,38210,1,10,0:2:0:0:
340,188,38291,1,10,0:0:0:0:
347,289,38454,1,8,0:3:0:0:
278,363,38616,6,0,P|246:341|193:323,1,77.5,8|0,0:3|1:0,0:0:0:0:
57,300,38940,1,8,0:2:0:0:
122,223,39102,1,0,1:0:0:0:
247,231,39264,6,0,L|256:140,1,77.5,6|10,1:2|0:2,0:0:0:0:
326,83,39589,2,0,L|319:-4,1,77.5,10|10,0:2|0:2,0:0:0:0:
434,95,39913,2,0,P|432:142|339:166,1,155,2|0,1:2|1:2,0:0:0:0:
245,78,40400,5,10,1:2:0:0:
245,78,40481,1,10,1:2:0:0:
245,78,40562,2,0,P|257:35|296:26,1,77.5,2|2,1:2|0:2,0:0:0:0:
364,64,40886,1,2,1:2:0:0:
315,164,41048,2,0,P|252:129|169:112,1,155,10|8,0:2|0:3,0:0:0:0:
100,61,41535,2,0,P|60:76|24:102,1,77.5,0|0,1:2|1:2,0:0:0:0:
11,225,41859,5,6,1:2:0:0:
69,286,42021,1,10,0:2:0:0:
152,268,42183,2,0,L|175:190,1,77.5,10|10,0:2|0:2,0:0:0:0:
209,75,42508,2,0,P|151:52|114:128,1,155,2|0,1:2|1:2,0:0:0:0:
200,218,42994,1,10,1:2:0:0:
200,218,43075,1,10,1:2:0:0:
200,218,43156,2,0,L|287:200,1,77.5,2|2,1:2|0:2,0:0:0:0:
345,128,43481,1,2,1:2:0:0:
442,203,43643,6,0,P|442:240|409:281,1,77.5,10|0,0:2|1:2,0:0:0:0:
324,353,43967,2,0,P|302:321|302:282,1,77.5,8|2,0:0|1:2,0:0:0:0:
345,194,44291,1,8,0:3:0:0:
345,194,44373,1,8,0:3:0:0:
345,194,44454,6,0,P|347:148|277:122,1,124,6|10,1:2|0:2,0:0:0:0:
215,168,44940,1,2,0:2:0:0:
146,215,45102,2,0,P|130:189|122:145,1,62,2|8,1:2|0:0,0:0:0:0:
44,130,45427,2,0,P|37:96|25:71,1,62,2|8,1:2|0:3,0:0:0:0:
32,42,45670,1,8,0:3:0:0:
32,42,45751,6,0,P|83:20|130:77,1,124,2|2,1:2|1:2,0:0:0:0:
192,176,46237,2,0,P|168:208|160:230,1,62,6|0,1:2|1:2,0:0:0:0:
86,270,46562,2,0,P|93:310|109:339,1,62,8|8,0:3|0:3,0:0:0:0:
188,380,46886,1,8,0:3:0:0:
188,380,46967,1,8,0:3:0:0:
188,380,47048,6,0,P|243:353|319:332,1,124,2|2,1:2|1:2,0:0:0:0:
435,373,47535,2,0,P|410:343|409:313,1,62,6|2,1:2|1:2,0:0:0:0:
453,243,47859,1,10,0:2:0:0:
336,242,48021,2,0,P|370:218|382:186,1,62,8|8,0:3|0:3,0:0:0:0:
375,95,48345,5,2,1:2:0:0:
283,75,48508,1,8,0:2:0:0:
234,154,48670,2,0,L|251:224,1,62,8|0,0:2|1:2,0:0:0:0:
246,363,48994,1,8,0:2:0:0:
284,292,49156,1,8,0:3:0:0:
357,259,49318,2,0,L|427:274,1,62,8|8,0:3|0:3,0:0:0:0:
425,361,49643,6,0,P|405:305|374:247,1,124,6|2,1:2|0:2,0:0:0:0:
490,167,50291,2,0,P|448:159|367:162,1,124,2|2,0:2|1:2,0:0:0:0:
191,293,50940,5,2,1:2:0:0:
208,214,51102,1,2,0:2:0:0:
205,133,51264,1,2,0:2:0:0:
161,0,51589,1,2,1:2:0:0:
161,0,52237,6,0,B|134:39|134:39|151:100,2,93,6|2|2,0:2|0:2|1:2,0:0:0:0:
244,59,52886,2,0,L|349:34,2,93,10|2|2,0:2|0:2|0:2,0:0:0:0:
173,169,53535,6,0,B|208:156|208:156|272:178,1,103.333333333333,6|8,1:2|0:2,0:0:0:0:
317,239,53850,2,0,L|326:298,2,51.6666666666667,8|8|8,0:2|0:2|0:2,0:0:0:0:
375,187,54166,2,0,L|391:135,2,51.6666666666667,10|8|8,0:3|0:3|0:3,0:0:0:0:
430,244,54482,2,0,L|489:253,2,51.6666666666667,8|4|4,0:3|0:3|0:3,0:0:0:0:
417,263,54798,5,2,0:0:0:0:
201,327,56135,5,2,0:0:0:0:
7,214,57427,6,0,P|10:163|67:135,1,116.25,6|0,1:2|0:0,0:0:0:0:
85,139,57751,2,0,L|128:154,3,38.75,8|8|8|8,0:2|0:2|0:2|0:2,0:0:0:0:
161,135,58075,2,0,L|204:120,3,38.75,8|8|8|8,0:3|0:3|0:3|0:3,0:0:0:0:
233,156,58400,2,0,L|273:166,3,38.75,4|4|4|0,0:3|0:3|0:3|0:0,0:0:0:0:
281,186,58724,5,2,0:0:0:0:
335,74,59048,1,2,0:0:0:0:
471,117,59373,6,0,P|420:131|402:195,1,116.25,2|0,0:0|0:0,0:0:0:0:
408,211,59697,2,0,L|426:249,2,38.75,2|2|2,0:0|0:0|0:0,0:0:0:0:
352,64,60021,6,0,B|331:44|331:44|226:67,1,127.875003902435,4|0,1:2|0:0,0:0:0:0:
221,83,60345,1,10,0:0:0:0:
150,34,60508,1,2,0:0:0:0:
74,73,60670,2,0,B|56:102|56:102|96:196|96:196|141:207,1,170.500005203247,2|10,1:2|0:0,0:0:0:0:
238,169,61156,5,2,0:0:0:0:
238,169,61318,2,0,L|230:260,1,85.2500026016236,2|0,1:2|0:0,0:0:0:0:
301,339,61643,2,0,L|312:211,1,127.875003902435,10|0,0:0|0:0,0:0:0:0:
314,189,61967,1,2,1:2:0:0:
375,130,62129,1,2,1:2:0:0:
456,154,62291,2,0,P|490:207|507:277,1,127.875003902435,10|0,0:0|0:0,0:0:0:0:
501,292,62616,6,0,P|468:267|426:258,1,85.2500026016236,6|2,1:2|0:0,0:0:0:0:
347,348,62940,1,10,0:2:0:0:
261,334,63102,2,0,P|307:344|319:245,1,170.500005203247,0|0,0:0|1:2,0:0:0:0:
222,221,63589,1,8,0:0:0:0:
419,179,63913,6,0,B|394:152|357:161|359:169|321:172|297:147,1,127.875003902435,2|0,1:2|0:0,0:0:0:0:
274,149,64237,2,0,P|263:93|327:70,1,127.875003902435,8|0,0:0|0:0,0:0:0:0:
341,82,64562,1,2,1:2:0:0:
416,42,64724,1,0,0:0:0:0:
507,135,64886,1,8,0:0:0:0:
436,183,65048,2,0,L|421:233,2,42.6250013008118,0|0|2,1:0|1:0|1:2,0:0:0:0:
479,349,65535,5,6,1:2:0:0:
402,312,65697,1,2,0:0:0:0:
319,333,65859,2,0,P|283:298|350:215,1,170.500005203247,2|8,1:2|0:0,0:0:0:0:
423,223,66345,1,2,0:2:0:0:
329,127,66508,6,0,P|277:103|203:85,1,127.875003902435,2|0,1:2|0:0,0:0:0:0:
186,89,66832,2,0,P|161:133|183:168,1,85.2500026016236,10|0,0:0|0:0,0:0:0:0:
271,199,67156,1,2,1:2:0:0:
283,283,67318,1,0,1:2:0:0:
210,327,67481,2,0,P|156:303|74:289,1,127.875003902435,10|0,0:0|0:0,0:0:0:0:
66,301,67805,6,0,B|49:219|49:219|52:210|52:210|34:120,1,170.500005203247,6|10,1:2|0:0,0:0:0:0:
100,38,68291,1,2,0:0:0:0:
100,38,68454,2,0,L|119:134,1,85.2500026016236,2|2,1:2|1:2,0:0:0:0:
200,178,68778,2,0,L|181:274,1,85.2500026016236,10|0,0:0|1:2,0:0:0:0:
133,384,69102,6,0,P|181:349|301:321,1,170.500005203247,2|8,1:2|0:0,0:0:0:0:
407,361,69589,1,0,1:2:0:0:
407,361,69751,2,0,P|440:332|439:288,1,85.2500026016236,2|0,1:2|1:2,0:0:0:0:
395,219,70075,2,0,L|309:202,1,85.2500026016236,8|2,0:3|1:2,0:0:0:0:
285,221,70318,1,0,1:0:0:0:
285,221,70400,6,0,P|261:167|352:122,2,170.500005203247,4|10|2,1:2|0:0|1:2,0:0:0:0:
313,301,71210,1,2,1:2:0:0:
191,258,71373,2,0,P|160:231|144:182,1,85.2500026016236,10|2,0:0|0:0,0:0:0:0:
158,81,71697,5,0,1:2:0:0:
297,27,72021,2,0,P|260:81|233:190,1,170.500005203247,10|2,0:0|1:2,0:0:0:0:
183,251,72508,1,2,1:2:0:0:
183,251,72670,2,0,P|220:302|256:323,1,85.2500026016236,10|2,0:0|0:0,0:0:0:0:
338,304,72994,5,4,1:2:0:0:
474,244,73318,2,0,P|462:205|439:156,1,85.2500026016236,10|2,0:0|0:0,0:0:0:0:
278,182,73643,2,0,P|317:191|371:195,1,85.2500026016236,2|2,1:2|1:2,0:0:0:0:
429,43,73967,2,0,P|401:72|370:117,1,85.2500026016236,10|2,0:0|1:2,0:0:0:0:
317,281,74291,6,0,P|294:226|227:177,2,127.875003902435,4|2|2,1:2|0:2|1:2,0:0:0:0:
225,384,74940,2,0,P|235:336|216:255,2,127.875003902435,10|2|10,0:2|0:0|0:2,0:0:0:0:
108,312,75589,6,0,P|86:262|170:199,1,170.500005203247,4|10,1:2|0:2,0:0:0:0:
266,223,76075,2,0,P|272:292|260:322,1,85.2500026016236,2|0,0:2|1:2,0:0:0:0:
181,380,76400,1,2,1:2:0:0:
181,380,76562,2,0,P|155:335|153:291,1,85.2500026016236,10|0,0:2|0:0,0:0:0:0:
187,180,76886,5,4,1:2:0:0:
344,245,77210,2,0,P|365:180|400:113,1,127.875003902435,10|0,0:2|0:0,0:0:0:0:
413,116,77535,1,2,1:2:0:0:
363,46,77697,1,0,1:2:0:0:
251,55,77859,2,0,P|239:97|235:145,1,85.2500026016236,10|2,0:2|0:2,0:0:0:0:
263,248,78183,5,4,1:2:0:0:
219,314,78345,2,0,P|181:329|136:341,2,69.749997871399,0|0|0,1:2|1:2|1:2,0:0:0:0:
156,256,78832,2,0,P|125:245|84:225,1,69.749997871399,0|0,1:0|1:0,0:0:0:0:
141,164,79156,2,0,P|126:123|117:93,1,69.749997871399,0|0,1:0|1:0,0:0:0:0:
132,0,79481,6,0,B|170:-7|194:19|191:24|216:76|275:58,1,162.749995033264,4|0,1:2|1:2,0:0:0:0:
330,0,80129,2,0,P|312:45|300:123,1,108.499996688843,0|0,1:2|1:2,0:0:0:0:
321,266,80778,6,0,P|339:232|391:215,1,92.9999971618653,2|2,0:2|0:2,0:0:0:0:
471,230,81264,2,0,L|486:285,1,46.4999985809327,2|0,0:2|0:0,0:0:0:0:
394,381,81589,1,2,0:2:0:0:
394,381,81751,2,0,P|394:331|410:285,1,92.9999971618653,2|2,0:2|0:2,0:0:0:0:
284,335,82400,2,0,P|256:303|209:273,2,92.9999971618653,2|2|2,0:2|0:2|0:2,0:0:0:0:
195,165,83373,6,0,P|168:194|153:202,1,46.4999985809327,6|2,1:2|0:2,0:0:0:0:
125,269,83697,2,0,P|85:273|69:270,2,46.4999985809327,2|2|2,1:2|0:2|1:2,0:0:0:0:
251,355,84345,6,0,P|236:330|230:308,1,46.4999985809327,2|2,1:2|0:2,0:0:0:0:
288,255,84670,1,2,1:2:0:0:
288,255,84832,2,0,P|292:226|302:205,1,46.4999985809327,2|2,0:2|1:2,0:0:0:0:
323,118,85156,5,2,0:3:0:0:
323,118,85318,2,0,P|295:128|273:130,1,46.4999985809327,2|2,1:2|0:2,0:0:0:0:
205,163,85643,2,0,P|177:153|158:140,1,46.4999985809327,2|2,1:2|0:2,0:0:0:0:
122,43,85967,5,2,1:2:0:0:
122,43,86129,1,2,0:2:0:0:
122,43,86291,2,0,P|101:81|84:93,1,46.4999985809327,2|2,1:2|0:2,0:0:0:0:
22,100,86616,1,2,1:2:0:0:
2,233,86940,6,0,P|38:244|56:262,1,46.4999985809327,2|2,1:2|0:2,0:0:0:0:
125,229,87264,1,2,1:2:0:0:
125,229,87427,2,0,P|145:260|147:285,1,46.4999985809327,2|0,0:2|1:0,0:0:0:0:
162,372,87751,5,2,0:2:0:0:
162,372,87913,2,0,P|185:358|212:350,1,46.4999985809327,2|2,1:2|0:2,0:0:0:0:
245,283,88237,1,2,1:2:0:0:
344,318,88399,1,2,0:3:0:0:
