osu file format v14

[General]
AudioFilename: audio.mp3
AudioLeadIn: 0
PreviewTime: 188187
Countdown: 0
SampleSet: Soft
StackLeniency: 0.5
Mode: 0
LetterboxInBreaks: 0
WidescreenStoryboard: 1

[Editor]
Bookmarks: 23511,39078,52051,65349,80592,93565,109132,124700,140592,155835,198646,210322,223295,233673
DistanceSpacing: 1.4
BeatDivisor: 3
GridSize: 32
TimelineZoom: 2.5

[Metadata]
Title:Careless
TitleUnicode:ケアレス
Artist:ClariS
ArtistUnicode:ClariS
Creator:Azu
Version:Ex & Sharpay's Hard
Source:マギアレコード 魔法少女まどか☆マギカ外伝 2nd SEASON -覚醒前夜-
Tags:Magia Record: Mahou Shoujo Madoka Magica Gaiden Kakusei Zenya Puella Magi full size length version opening japanese jpop j-pop pop anime Clara Karen - Ex -_Ex_- Sharpay Mayu Sakuma Xexyz Azunyan- Ayana Yorita Yoshino -ClariS- ImpurePug
BeatmapID:3356722
BeatmapSetID:1596835

[Difficulty]
HPDrainRate:5
CircleSize:4
OverallDifficulty:6
ApproachRate:8
SliderMultiplier:1.4
SliderTickRate:1

[Events]
//Background and Video events
0,0,"kearesu.jpg",0,0
//Break Periods
2,158630,162840
2,189765,196408
//Storyboard Layer 0 (Background)
//Storyboard Layer 1 (Fail)
//Storyboard Layer 2 (Pass)
//Storyboard Layer 3 (Foreground)
//Storyboard Layer 4 (Overlay)
//Storyboard Sound Samples

[TimingPoints]
160,324.324324324324,4,2,1,50,1,0
4700,-100,4,2,1,60,0,0
17511,-100,4,2,1,50,0,0
18322,-125,4,2,1,50,0,0
24727,-125,4,2,1,5,0,0
24808,-125,4,2,1,50,0,0
28700,-111.111111111111,4,2,1,60,0,0
32511,-111.111111111111,4,2,1,5,0,0
32592,-111.111111111111,4,2,1,60,0,0
39078,-105.263157894737,4,2,1,60,0,0
39646,-105.263157894737,4,2,1,5,0,0
39727,-105.263157894737,4,2,1,60,0,0
42241,-105.263157894737,4,2,1,5,0,0
42322,-105.263157894737,4,2,1,60,0,0
50024,-105.263157894737,4,2,1,5,0,0
50105,-105.263157894737,4,2,1,60,0,0
52051,-111.111111111111,4,2,1,60,0,0
57241,-105.263157894737,4,2,1,60,0,0
59187,-105.263157894737,4,2,1,70,0,0
59835,-90.9090909090909,4,2,1,80,0,1
60078,-90.9090909090909,4,2,1,5,0,1
60159,-90.9090909090909,4,2,1,80,0,1
62673,-90.9090909090909,4,2,1,5,0,1
62754,-90.9090909090909,4,2,1,80,0,1
65105,-90.9090909090909,4,2,1,40,0,1
65349,-90.9090909090909,4,2,1,80,0,1
68835,-90.9090909090909,4,2,1,5,0,1
68916,-90.9090909090909,4,2,1,80,0,1
70457,-90.9090909090909,4,2,1,5,0,1
70538,-90.9090909090909,4,2,1,80,0,1
71754,-90.9090909090909,4,2,1,5,0,1
71835,-90.9090909090909,4,2,1,80,0,1
73700,-90.9090909090909,4,2,1,5,0,1
73781,-90.9090909090909,4,2,1,80,0,1
76943,-90.9090909090909,4,2,1,5,0,1
77024,-90.9090909090909,4,2,1,80,0,1
77916,-90.9090909090909,4,2,1,5,0,1
77997,-90.9090909090909,4,2,1,80,0,1
79295,-90.9090909090909,4,2,1,80,0,0
80592,-90.9090909090909,4,2,1,60,0,0
83187,-125,4,2,1,60,0,0
92268,-333.333333333333,4,2,1,60,0,0
94214,-333.333333333333,4,2,1,50,0,0
94376,-125,4,2,1,50,0,0
101268,-125,4,2,1,5,0,0
101349,-111.111111111111,4,2,1,50,0,0
103943,-111.111111111111,4,2,1,60,0,0
114322,-105.263157894737,4,2,1,60,0,0
117484,-105.263157894737,4,2,1,5,0,0
117565,-105.263157894737,4,2,1,60,0,0
125268,-105.263157894737,4,2,1,5,0,0
125349,-105.263157894737,4,2,1,60,0,0
127295,-111.111111111111,4,2,1,60,0,0
128916,-111.111111111111,4,2,1,60,0,0
132484,-105.263157894737,4,2,1,60,0,0
134430,-105.263157894737,4,2,1,70,0,0
135078,-90.9090909090909,4,2,1,80,0,1
135321,-90.9090909090909,4,2,1,5,0,1
135403,-90.9090909090909,4,2,1,80,0,1
140349,-90.9090909090909,4,2,1,40,0,1
140592,-90.9090909090909,4,2,1,80,0,1
142781,-90.9090909090909,4,2,1,5,0,1
142862,-90.9090909090909,4,2,1,80,0,1
143024,-90.9090909090909,4,2,1,5,0,1
143105,-90.9090909090909,4,2,1,80,0,1
145700,-90.9090909090909,4,2,1,5,0,1
145781,-90.9090909090909,4,2,1,80,0,1
146997,-90.9090909090909,4,2,1,5,0,1
147078,-90.9090909090909,4,2,1,80,0,1
149268,-90.9090909090909,4,2,1,5,0,1
149349,-90.9090909090909,4,2,1,80,0,1
153484,-90.9090909090909,4,2,1,5,0,1
153565,-90.9090909090909,4,2,1,80,0,1
155835,-90.9090909090909,4,2,1,60,0,0
157781,-100,4,2,1,60,0,0
163781,-111.111111111111,4,2,1,60,0,0
168808,-125,4,2,1,60,0,0
173997,-111.111111111111,4,2,1,60,0,0
176592,-100,4,2,1,60,0,0
180484,-100,4,2,1,45,0,0
189565,-100,4,2,1,60,0,0
197349,-111.111111111111,4,2,1,60,0,0
198646,-111.111111111111,4,2,1,70,0,0
199295,-100,4,2,1,60,0,0
199943,-90.9090909090909,4,2,1,80,0,1
200186,-90.9090909090909,4,2,1,5,0,1
200268,-90.9090909090909,4,2,1,80,0,1
201484,-90.9090909090909,4,2,1,5,0,1
201565,-90.9090909090909,4,2,1,80,0,1
202457,-90.9090909090909,4,2,1,5,0,1
202538,-90.9090909090909,4,2,1,80,0,1
203754,-90.9090909090909,4,2,1,5,0,1
203835,-90.9090909090909,4,2,1,80,0,1
205213,-90.9090909090909,4,2,1,40,0,1
205375,-90.9090909090909,4,2,1,80,0,1
206673,-90.9090909090909,4,2,1,5,0,1
206754,-90.9090909090909,4,2,1,80,0,1
207646,-90.9090909090909,4,2,1,5,0,1
207727,-90.9090909090909,4,2,1,80,0,1
208943,-90.9090909090909,4,2,1,5,0,1
209024,-90.9090909090909,4,2,1,80,0,1
210565,-90.9090909090909,4,2,1,5,0,1
210646,-90.9090909090909,4,2,1,80,0,1
211862,-90.9090909090909,4,2,1,5,0,1
211943,-90.9090909090909,4,2,1,80,0,1
213159,-90.9090909090909,4,2,1,5,0,1
213241,-90.9090909090909,4,2,1,80,0,1
217051,-90.9090909090909,4,2,1,5,0,1
217132,-90.9090909090909,4,2,1,80,0,1
218024,-90.9090909090909,4,2,1,5,0,1
218105,-90.9090909090909,4,2,1,80,0,1
219403,-90.9090909090909,4,2,1,60,0,0
219889,-100,4,2,1,60,0,0
223538,-100,4,2,1,5,0,0
223619,-100,4,2,1,60,0,0
227105,-100,4,2,1,5,0,0
227187,-100,4,2,1,60,0,0
229700,-100,4,2,1,5,0,0
229781,-100,4,2,1,60,0,0
230349,-100,4,2,1,5,0,0
230430,-100,4,2,1,60,0,0
231322,-100,4,2,1,5,0,0
231403,-100,4,2,1,60,0,0
233835,-90.9090909090909,4,2,1,60,0,0
244051,-125,4,2,1,60,0,0

[Colours]
Combo1 : 250,180,240
Combo2 : 120,200,230
Combo3 : 255,230,130
Combo4 : 160,230,150

[HitObjects]
125,80,4700,6,0,P|141:33|157:-9,2,70,8|8|8,2:0|2:3|2:3,2:0:0:0:
61,155,5187,6,0,P|118:117|206:146,1,140,4|8,2:0|2:1,2:0:0:0:
259,192,5673,2,0,P|246:248|239:274,1,70,8|0,2:0|2:0,2:0:0:0:
280,350,5997,2,0,P|336:339|368:334,1,70,8|8,2:1|2:1,2:0:0:0:
442,367,6322,1,8,2:0:0:0:
480,276,6484,6,0,P|504:220|472:133,1,140,4|8,2:0|2:1,2:0:0:0:
433,62,6970,2,0,P|383:74|351:81,1,70,8|0,2:0|2:0,2:0:0:0:
271,110,7295,2,0,P|221:98|189:91,1,70,8|8,2:1|2:0,2:0:0:0:
126,32,7619,1,8,2:0:0:0:
47,91,7781,6,4,P|60:148|81:242,1,140,4|8,2:0|2:1,2:0:0:0:
55,323,8268,2,0,P|10:314|-16:309,1,70,8|0,2:0|2:0,2:0:0:0:
129,375,8592,2,0,P|174:366|200:361,1,70,8|8,2:1|2:1,2:0:0:0:
260,286,8916,1,8,2:1:0:0:
186,221,9078,6,0,B|164:176|164:176|201:79,1,140,4|8,2:0|2:1,2:0:0:0:
256,13,9565,1,8,2:0:0:0:
323,83,9727,2,0,P|386:73|461:63,1,140,4|8,2:0|2:1,2:0:0:0:
491,77,10132,1,8,2:1:0:0:
491,77,10214,2,0,P|484:103|480:120,3,35,8|0|2|2,2:1|2:0|2:0|2:0,2:0:0:0:
464,138,10538,6,0,P|478:199|499:297,2,140,4|8|0,2:0|2:0|2:0,2:0:0:0:
390,203,11349,1,8,2:1:0:0:
296,173,11511,2,0,P|251:183|216:191,1,70,8|0,2:0|2:0,2:0:0:0:
139,145,11835,6,0,P|72:152|28:236,1,140,4|8,2:0|2:0,2:0:0:0:
0,300,12322,1,8,2:1:0:0:
76,361,12484,2,0,P|129:348|159:342,1,70,0|8,2:0|2:1,2:0:0:0:
207,270,12808,2,0,P|154:257|124:251,1,70,8|0,2:0|2:0,2:0:0:0:
245,373,13132,6,0,P|315:361|363:307,1,140,4|8,2:0|2:0,2:0:0:0:
432,245,13619,2,0,P|419:193|411:164,1,70,2|0,2:0|2:0,2:0:0:0:
361,94,13943,1,8,2:1:0:0:
296,173,14105,2,0,P|247:165|214:159,1,70,8|8,2:0|2:1,2:0:0:0:
142,212,14430,5,4,2:3:0:0:
52,171,14592,2,0,P|27:129|59:43,1,140,12|8,2:0|2:3,2:0:0:0:
81,29,14997,1,8,2:3:0:0:
81,29,15078,2,0,P|131:42|170:51,1,70,8|8,2:3|2:3,2:0:0:0:
243,87,15403,1,8,2:3:0:0:
243,87,15565,1,8,2:3:0:0:
331,44,15727,6,0,L|320:-3,2,46.6666666666667,4|0|8,2:0|2:0|2:0,2:0:0:0:
404,49,16051,2,0,L|415:2,2,46.6666666666667,10|8|8,2:0|2:0|2:0,2:0:0:0:
418,123,16376,2,0,L|464:136,2,46.6666666666667,10|8|8,2:1|2:1|2:1,2:1:0:0:
378,184,16700,2,0,L|413:217,2,46.6666666666667,8|8|8,2:3|2:3|2:3,2:0:0:0:
301,187,17024,5,10,2:0:0:0:
241,83,17187,1,10,2:0:0:0:
241,83,17511,2,0,L|252:37,2,35,2|2|2,2:0|2:0|2:0,2:0:0:0:
109,367,18322,6,0,P|58:357|-3:344,2,112,4|0|2,2:0|2:0|2:0,2:0:0:0:
173,322,19132,1,0,2:0:0:0:
239,364,19295,2,0,P|281:357|311:351,1,56,2|0,2:0|2:0,2:0:0:0:
347,296,19619,6,0,P|389:303|419:309,1,56,2|0,2:0|2:0,2:0:0:0:
474,335,19943,2,0,P|510:296|500:218,1,112,2|0,2:0|2:0,2:0:0:0:
472,174,20430,1,0,2:0:0:0:
472,174,20592,2,0,P|424:186|402:191,1,56,0|8,2:0|2:1,2:0:0:0:
346,219,20916,6,0,B|367:179|367:179|346:104,1,112,4|2,2:3|2:0,2:0:0:0:
313,50,21403,1,0,2:0:0:0:
313,50,21565,1,2,2:0:0:0:
252,98,21727,1,0,2:0:0:0:
252,98,21889,2,0,P|205:87|178:82,1,56,0|0,2:0|2:0,2:0:0:0:
142,29,22214,5,2,2:0:0:0:
33,142,22538,2,0,P|39:169|45:196,1,56,2|0,2:0|2:0,2:0:0:0:
112,265,22862,1,2,2:0:0:0:
112,265,23024,2,0,P|122:221|128:193,1,56,2|0,2:0|2:0,2:0:0:0:
144,134,23349,1,8,2:1:0:0:
207,179,23511,6,0,P|244:167|282:154,1,56,4|0,2:0|2:0,2:0:0:0:
319,109,23835,1,2,2:0:0:0:
319,109,23997,2,0,P|356:121|394:134,2,56,0|2|0,2:0|2:0|2:0,2:0:0:0:
368,47,24484,2,0,P|416:62|465:79,1,84,2|0,2:0|2:0,2:0:0:0:
476,92,24808,2,0,P|486:121|475:151,1,56,4|0,2:3|2:0,2:0:0:0:
432,214,25132,6,0,P|451:271|452:278,2,56,2|0|2,2:0|2:0|2:0,2:0:0:0:
359,239,25619,1,0,2:0:0:0:
359,239,25781,2,0,P|378:296|379:303,1,56,2|8,2:0|2:1,2:0:0:0:
340,360,26105,6,0,P|285:347|212:330,1,112,4|2,2:0|2:0,2:0:0:0:
158,365,26592,1,0,2:0:0:0:
89,327,26754,2,0,P|75:293|59:255,2,56,2|0|2,2:0|2:0|2:0,2:0:0:0:
153,281,27241,1,0,2:0:0:0:
205,223,27403,2,0,P|232:229|259:236,1,56,2|2,2:0|2:0,2:0:0:0:
161,138,27727,1,2,2:0:0:0:
67,199,27889,6,0,L|65:244,2,28,8|8|8,2:0|2:0|2:0,2:0:0:0:
0,118,28214,1,4,2:3:0:0:
0,118,28700,6,0,B|46:107|46:107|57:110|57:110|127:96,1,125.999996154785,4|8,2:0|2:0,2:0:0:0:
202,53,29187,1,0,2:0:0:0:
250,133,29349,2,0,P|246:155|235:202,1,62.9999980773926,2|10,2:0|2:1,2:0:0:0:
146,221,29673,2,0,P|153:255|160:290,1,62.9999980773926,10|2,2:0|2:0,2:0:0:0:
211,361,29997,1,10,2:1:0:0:
211,361,30159,1,2,2:0:0:0:
245,272,30322,6,0,P|300:268|357:316,1,125.999996154785,8|0,2:0|2:0,2:0:0:0:
291,374,30808,2,0,P|256:365|223:357,2,62.9999980773926,2|10|0,2:0|2:0|2:0,2:0:0:0:
406,360,31295,6,0,P|454:348|467:344,1,62.9999980773926,6|2,2:0|2:0,2:0:0:0:
445,258,31619,2,0,P|412:266|378:273,1,62.9999980773926,10|2,2:0|2:0,2:0:0:0:
305,232,31943,1,2,2:0:0:0:
373,176,32105,1,10,2:1:0:0:
300,124,32268,6,0,P|258:116|206:102,1,94.499997116089,8|0,2:0|2:0,2:0:0:0:
185,83,32592,2,0,P|153:89|114:99,1,62.9999980773926,4|0,2:0|2:0,2:0:0:0:
48,141,32916,1,8,2:0:0:0:
111,202,33078,6,0,P|104:239|98:283,2,62.9999980773926,0|8|8,2:0|2:0|2:1,2:0:0:0:
198,217,33565,2,0,P|189:255|183:294,1,62.9999980773926,8|8,2:0|2:1,2:0:0:0:
166,364,33889,6,0,P|209:323|277:331,1,125.999996154785,4|8,2:0|2:0,2:0:0:0:
345,377,34376,1,0,2:0:0:0:
416,325,34538,2,0,P|425:296|439:266,1,62.9999980773926,0|8,2:0|2:1,2:0:0:0:
374,213,34862,1,8,2:0:0:0:
374,213,35024,1,0,2:0:0:0:
455,178,35187,6,0,L|328:149,1,125.999996154785,4|8,2:0|2:0,2:0:0:0:
278,94,35673,1,8,2:0:0:0:
278,94,35754,1,8,2:0:0:0:
278,94,35835,2,0,P|242:99|210:107,1,62.9999980773926,8|8,2:0|2:1,2:0:0:0:
151,53,36159,1,8,2:0:0:0:
151,53,36322,1,8,2:1:0:0:
74,103,36484,6,0,P|87:137|96:179,1,62.9999980773926,4|0,2:0|2:0,2:0:0:0:
180,175,36808,2,0,P|165:208|141:244,1,62.9999980773926,8|0,2:0|2:0,2:0:0:0:
200,303,37132,2,0,P|166:316|124:325,1,62.9999980773926,8|8,2:1|2:1,2:0:0:0:
56,313,37457,5,8,2:0:0:0:
56,313,37619,2,0,P|16:267|41:201,1,125.999996154785,4|8,2:0|3:2,2:0:0:0:
40,181,38024,1,8,3:2:0:0:
40,181,38105,2,0,L|26:137,3,31.4999990386963,8|0|8|0,3:2|3:0|3:0|3:0,2:0:0:0:
56,119,38430,2,0,L|70:75,3,31.4999990386963,10|0|8|0,3:0|3:0|3:1|3:0,3:0:0:0:
96,65,38754,2,0,P|128:60|160:51,1,62.9999980773926,10|8,3:2|3:1,3:0:0:0:
245,20,39078,6,0,P|277:25|309:34,1,66.4999982242585,12|8,2:0|2:1,2:0:0:0:
365,109,39403,2,0,P|416:97|475:83,1,99.7499973363877,8|0,2:0|2:0,2:0:0:0:
493,93,39727,2,0,P|482:135|460:231,1,132.999996448517,8|8,2:1|2:1,2:0:0:0:
404,297,40214,5,8,2:1:0:0:
404,297,40295,1,8,2:1:0:0:
404,297,40376,2,0,P|364:286|320:273,1,66.4999982242585,4|0,2:3|2:0,2:0:0:0:
252,246,40700,1,8,2:1:0:0:
303,168,40862,2,0,P|292:118|287:93,1,66.4999982242585,8|8,2:0|2:1,2:0:0:0:
238,24,41187,2,0,P|192:37|159:46,1,66.4999982242585,8|8,2:3|2:1,2:0:0:0:
86,11,41511,1,8,2:3:0:0:
41,92,41673,6,0,P|50:130|61:176,1,66.4999982242585,12|8,2:0|2:1,2:0:0:0:
129,215,41997,2,0,P|114:283|102:337,1,99.7499973363877,8|0,2:0|2:0,2:0:0:0:
116,343,42322,2,0,P|183:328|250:314,1,132.999996448517,8|8,2:1|2:1,2:0:0:0:
340,355,42808,5,8,2:1:0:0:
340,355,42889,1,8,2:1:0:0:
340,355,42970,2,0,P|349:313|355:275,1,66.4999982242585,4|0,2:3|2:0,2:0:0:0:
424,229,43295,2,0,P|415:187|409:149,1,66.4999982242585,4|12,2:3|2:0,2:0:0:0:
354,89,43619,2,0,L|367:39,2,44.3333321495057,10|2|2,2:1|2:0|2:0,2:0:0:0:
302,145,43943,2,0,L|315:195,2,44.3333321495057,10|2|2,2:1|2:0|2:0,2:0:0:0:
256,79,44268,5,4,2:0:0:0:
256,79,44592,2,0,P|213:93|185:102,1,66.4999982242585,8|2,2:1|2:0,2:0:0:0:
124,162,44916,2,0,P|81:148|53:139,1,66.4999982242585,8|8,2:1|2:0,2:0:0:0:
2,214,45241,1,8,2:1:0:0:
91,264,45403,5,8,2:3:0:0:
91,264,45484,1,8,2:3:0:0:
91,264,45565,2,0,P|153:246|228:225,1,132.999996448517,4|8,2:3|2:1,2:0:0:0:
301,269,46051,1,4,2:0:0:0:
351,190,46214,2,0,P|340:143|334:116,1,66.4999982242585,0|8,2:0|2:3,2:0:0:0:
292,43,46538,1,0,2:0:0:0:
387,20,46700,5,8,2:3:0:0:
387,20,46781,1,8,2:3:0:0:
387,20,46862,2,0,P|458:26|500:101,1,132.999996448517,4|8,2:3|2:1,2:0:0:0:
497,164,47349,2,0,P|482:205|472:236,1,66.4999982242585,4|0,2:0|2:0,2:0:0:0:
439,312,47673,1,8,2:0:0:0:
355,271,47835,2,0,P|313:281|277:289,1,66.4999982242585,8|8,2:1|2:3,2:0:0:0:
211,237,48159,6,0,P|220:192|229:146,1,66.4999982242585,4|8,2:3|2:0,2:0:0:0:
124,290,48484,1,8,2:0:0:0:
124,290,48808,2,0,P|81:279|50:272,1,66.4999982242585,12|8,2:0|2:0,2:0:0:0:
4,183,49132,1,8,2:1:0:0:
4,183,49295,1,8,2:3:0:0:
60,109,49457,6,0,P|105:100|142:93,1,66.4999982242585,4|0,2:0|2:0,2:0:0:0:
197,37,49781,2,0,P|242:46|306:58,1,99.7499973363877,0|0,2:0|2:0,2:0:0:0:
319,78,50105,2,0,P|368:68|461:52,1,132.999996448517,2|8,2:0|2:1,2:0:0:0:
502,130,50592,1,8,2:1:0:0:
450,207,50754,5,4,2:0:0:0:
121,18,51403,1,4,2:0:0:0:
334,322,52051,6,0,P|354:240|365:204,2,94.499997116089,6|2|10,2:0|2:0|2:1,2:0:0:0:
250,292,52700,2,0,P|270:210|281:174,2,94.499997116089,10|2|2,2:0|2:0|2:0,2:0:0:0:
177,342,53349,6,0,P|144:331|68:309,1,83.9999974365235,6|8,2:0|2:0,2:0:0:0:
55,285,53673,2,0,P|47:263|38:235,2,41.9999987182618,8|8|8,2:0|2:0|2:0,2:0:0:0:
124,245,53997,2,0,P|116:223|107:195,2,41.9999987182618,8|8|8,2:3|2:3|2:3,2:0:0:0:
198,213,54322,2,0,L|184:173,2,41.9999987182618,8|8|8,2:3|2:3|2:3,2:0:0:0:
267,173,54646,5,6,2:0:0:0:
37,32,55943,5,2,2:0:0:0:
37,32,57241,6,0,P|52:84|58:113,1,66.4999982242585,6|8,2:0|2:1,2:0:0:0:
139,148,57565,2,0,L|128:188,3,33.2499991121292,8|8|8|8,2:0|2:0|2:0|2:0,2:0:0:0:
93,213,57889,2,0,L|101:245,3,33.2499991121292,10|8|10|8,2:0|2:0|2:0|2:0,2:0:0:0:
138,279,58214,2,0,L|129:311,3,33.2499991121292,10|8|10|8,2:0|2:0|2:0|2:0,2:0:0:0:
100,351,58538,5,2,2:0:0:0:
100,351,59187,6,0,L|179:324,2,44.3333321495057,2|0|0,2:0|2:0|2:0,2:0:0:0:
47,282,59511,2,0,L|-32:255,2,44.3333321495057,2|0|0,2:0|2:0|2:0,2:0:0:0:
127,243,59835,6,0,P|151:180|121:144,1,115.50000352478,4|0,2:0|2:0,2:0:0:0:
105,138,60159,2,0,P|68:130|22:123,1,77.0000023498536,10|2,2:0|2:0,2:0:0:0:
87,38,60484,1,10,2:1:0:0:
87,38,60646,2,0,P|141:29|171:23,1,77.0000023498536,0|8,2:0|2:0,2:0:0:0:
269,58,60970,5,2,2:0:0:0:
269,58,61132,2,0,P|257:107|243:218,1,154.000004699707,6|10,2:3|2:0,2:0:0:0:
158,277,61619,1,0,2:0:0:0:
252,334,61781,2,0,P|292:322|330:313,1,77.0000023498536,10|10,2:1|2:1,2:0:0:0:
333,211,62105,2,0,P|379:222|426:236,1,77.0000023498536,10|0,2:0|2:0,2:0:0:0:
500,192,62430,6,0,P|526:160|487:88,1,115.50000352478,6|0,2:0|2:0,2:0:0:0:
481,90,62754,2,0,P|442:80|400:74,1,77.0000023498536,10|0,2:0|2:0,2:0:0:0:
318,19,63078,1,8,2:1:0:0:
318,19,63241,2,0,P|279:29|237:35,1,77.0000023498536,8|8,2:1|2:0,2:0:0:0:
142,74,63565,1,0,2:0:0:0:
235,136,63727,6,0,P|243:167|258:228,1,77.0000023498536,4|0,2:0|2:0,2:0:0:0:
148,231,64051,2,0,P|134:281|121:331,1,77.0000023498536,8|0,2:0|2:0,2:0:0:0:
213,372,64376,2,0,P|249:361|287:351,1,77.0000023498536,6|0,2:3|2:0,2:0:0:0:
330,253,64700,2,0,P|376:267|422:283,1,77.0000023498536,10|0,2:0|2:0,2:0:0:0:
432,298,64943,1,8,2:1:0:0:
432,298,65024,2,0,L|483:317,3,38.5000011749268,2|0|2|0,2:0|2:0|2:0|2:0,2:0:0:0:
496,292,65349,5,4,2:0:0:0:
453,200,65511,1,0,2:0:0:0:
453,200,65673,2,0,P|475:128|503:50,1,154.000004699707,2|8,2:0|2:0,2:0:0:0:
405,6,66159,1,0,2:0:0:0:
341,92,66322,6,0,P|291:78|263:71,1,77.0000023498536,6|0,2:3|2:0,2:0:0:0:
166,20,66646,2,0,P|216:6|244:-1,1,77.0000023498536,10|0,2:0|2:0,2:0:0:0:
155,131,66970,1,10,2:1:0:0:
155,131,67132,1,10,2:1:0:0:
62,74,67295,2,0,P|50:111|56:157,1,77.0000023498536,8|0,2:0|2:0,2:0:0:0:
77,245,67619,6,0,P|143:230|240:209,1,154.000004699707,4|8,2:0|2:0,2:0:0:0:
324,164,68105,1,2,2:0:0:0:
384,254,68268,2,0,P|371:297|357:341,1,77.0000023498536,10|10,2:1|2:1,2:0:0:0:
485,218,68592,2,0,P|492:151|453:83,1,115.50000352478,10|0,2:0|2:0,2:0:0:0:
450,80,68916,6,0,P|397:98|363:109,1,77.0000023498536,10|8,2:0|2:1,2:0:0:0:
285,187,69241,2,0,P|232:169|198:158,1,77.0000023498536,10|8,2:0|2:1,2:0:0:0:
189,141,69484,1,0,2:0:0:0:
189,141,69565,2,0,P|136:159|102:170,1,77.0000023498536,10|10,2:3|2:3,2:0:0:0:
6,110,69889,1,10,2:3:0:0:
3,229,70051,5,10,2:3:0:0:
3,229,70132,1,8,2:3:0:0:
3,229,70214,2,0,P|15:269|37:351,1,115.50000352478,4|0,2:0|2:0,2:0:0:0:
58,356,70538,2,0,P|108:342|141:332,1,77.0000023498536,8|0,2:0|2:0,2:0:0:0:
225,282,70862,1,10,2:1:0:0:
225,282,71024,2,0,P|275:296|308:306,1,77.0000023498536,10|10,2:1|2:0,2:0:0:0:
392,358,71349,1,2,2:3:0:0:
470,284,71511,6,0,P|462:229|449:151,1,115.50000352478,4|0,2:3|2:0,2:0:0:0:
431,149,71835,2,0,P|445:95|454:62,1,77.0000023498536,8|0,2:0|2:0,2:0:0:0:
339,5,72159,1,10,2:1:0:0:
339,5,72322,2,0,P|353:59|362:92,1,77.0000023498536,10|10,2:1|2:0,2:0:0:0:
291,163,72646,1,2,2:0:0:0:
352,251,72808,6,0,P|405:239|439:232,1,77.0000023498536,4|0,2:0|2:0,2:0:0:0:
316,353,73132,2,0,P|263:341|229:334,1,77.0000023498536,8|0,2:0|2:0,2:0:0:0:
176,248,73457,2,0,P|122:259|56:276,1,115.50000352478,10|0,2:1|2:0,2:0:0:0:
33,269,73781,2,0,P|47:209|56:172,1,77.0000023498536,10|0,2:0|2:0,2:0:0:0:
106,102,74105,6,0,P|47:76|-9:56,2,115.50000352478,6|2|10,2:0|2:0|2:1,2:0:0:0:
192,167,74754,2,0,P|246:152|281:144,1,77.0000023498536,10|8,2:0|2:1,2:0:0:0:
296,140,74997,1,2,2:0:0:0:
296,140,75078,2,0,P|330:149|350:157,3,38.5000011749268,8|0|10|8,2:0|2:0|2:0|2:0,2:0:0:0:
365,143,75403,6,0,P|415:150|455:237,1,154.000004699707,4|10,2:0|2:0,2:0:0:0:
438,342,75889,2,0,P|367:324|277:307,1,154.000004699707,2|2,2:0|2:0,2:0:0:0:
187,267,76376,2,0,P|203:209|214:171,1,77.0000023498536,10|0,2:0|2:0,2:0:0:0:
206,85,76700,6,0,P|151:53|77:60,1,115.50000352478,4|0,2:3|2:0,2:0:0:0:
70,65,77024,2,0,P|82:113|90:152,1,77.0000023498536,8|0,2:0|2:0,2:0:0:0:
75,249,77349,2,0,P|26:241|-14:235,1,77.0000023498536,8|8,2:1|2:1,2:0:0:0:
129,321,77673,2,0,P|197:300|235:243,1,115.50000352478,8|0,2:0|2:0,2:0:0:0:
242,241,77997,5,4,2:0:0:0:
280,54,78322,2,0,P|241:43|191:27,2,77.0000023498536,8|8|8,2:1|2:1|2:0,2:0:0:0:
351,134,78808,1,8,2:0:0:0:
427,58,78970,1,8,2:0:0:0:
501,135,79132,1,8,2:0:0:0:
400,71,79295,5,4,2:0:0:0:
260,329,79781,1,8,2:3:0:0:
12,170,80268,1,8,2:3:0:0:
109,53,80592,5,2,2:0:0:0:
403,331,81889,1,2,2:0:0:0:
403,331,83187,6,0,P|347:317|333:315,1,56,10|0,2:1|2:0,2:0:0:0:
281,276,83511,2,0,P|225:290|211:292,1,56,8|0,2:1|2:0,2:0:0:0:
151,268,83835,2,0,P|121:227|148:168,1,112,10|10,2:1|2:1,2:0:0:0:
205,129,84322,1,0,2:0:0:0:
205,129,84484,1,8,2:1:0:0:
264,78,84646,6,0,P|312:90|382:104,1,112,2|2,2:0|2:0,2:0:0:0:
451,93,85132,2,0,P|457:58|429:25,2,56,8|0|8,2:1|2:0|2:1,2:0:0:0:
373,102,85619,1,0,2:0:0:0:
406,172,85781,6,0,P|419:211|423:227,1,56,10|2,2:1|2:0,2:0:0:0:
347,246,86105,2,0,P|339:218|330:192,1,56,10|2,2:1|2:0,2:0:0:0:
270,140,86430,2,0,B|192:162|230:172|159:190,1,112,10|10,2:1|2:1,2:0:0:0:
98,153,86916,1,2,2:0:0:0:
34,198,87078,1,10,2:1:0:0:
109,243,87241,1,2,2:0:0:0:
109,243,87565,5,10,2:1:0:0:
109,243,87727,2,0,P|105:211|95:173,1,56,8|8,2:0|2:3,2:0:0:0:
176,174,88051,2,0,P|179:201|185:229,1,56,8|8,2:3|2:3,2:0:0:0:
227,295,88376,6,0,P|220:339|212:393,2,74.6666666666667,4|8|8,0:0|0:3|0:3,0:0:0:0:
301,219,89024,2,0,P|318:170|333:139,1,74.6666666666667,4|8,2:3|2:3,2:0:0:0:
346,52,89457,1,8,2:3:0:0:
346,52,89565,1,8,2:3:0:0:
346,52,89673,2,0,P|309:65|266:74,1,74.6666666666667,4|8,2:3|2:0,2:0:0:0:
201,43,89997,6,0,L|150:26,2,37.3333333333333,8|8|8,2:0|2:0|2:0,2:0:0:0:
176,112,90322,2,0,L|140:100,2,37.3333333333333,8|8|8,2:1|2:1|2:1,2:0:0:0:
154,181,90646,2,0,L|118:169,2,37.3333333333333,8|8|8,2:1|2:1|2:1,2:0:0:0:
220,221,90970,6,0,L|337:188,1,112,4|0,2:0|2:0,2:0:0:0:
402,166,91457,1,2,2:0:0:0:
217,15,91943,1,2,2:0:0:0:
164,72,92105,1,0,2:0:0:0:
164,72,92187,1,0,2:0:0:0:
164,72,92268,2,0,P|126:60|82:51,1,83.9999974365235,2|0,2:0|2:0,2:0:0:0:
9,236,93565,5,4,2:0:0:0:
298,356,94214,1,8,2:0:0:0:
298,356,94376,2,0,P|343:346|368:340,1,56,0|0,2:0|2:0,2:0:0:0:
424,375,94700,1,8,2:0:0:0:
476,316,94862,6,0,P|469:282|463:253,1,56,2|0,2:0|2:0,2:0:0:0:
445,184,95187,2,0,P|391:158|322:175,1,112,2|8,2:0|2:0,2:0:0:0:
288,222,95673,1,2,2:0:0:0:
288,222,95835,2,0,P|243:233|208:240,1,56,2|0,2:0|2:0,2:0:0:0:
158,258,96159,5,4,2:0:0:0:
158,258,96322,2,0,P|107:246|44:230,1,112,2|0,2:0|2:0,2:0:0:0:
10,163,96808,2,0,P|22:117|28:89,1,56,8|0,2:0|2:0,2:0:0:0:
87,63,97132,2,0,P|99:109|105:137,1,56,0|8,2:0|2:0,2:0:0:0:
162,166,97457,6,0,P|215:148|255:89,1,112,2|8,2:0|2:1,2:0:0:0:
304,50,97943,2,0,P|357:68|397:127,1,112,2|0,2:0|2:0,2:0:0:0:
431,185,98430,1,2,2:0:0:0:
431,185,98754,6,0,P|419:228|410:254,2,56,6|0|2,2:3|2:0|2:0,2:0:0:0:
335,224,99241,1,0,2:0:0:0:
256,230,99403,2,0,P|213:242|187:251,1,56,8|0,2:0|2:0,2:0:0:0:
133,206,99727,2,0,P|140:165|146:132,1,56,2|0,2:0|2:0,2:0:0:0:
36,238,100051,6,0,P|43:279|49:312,1,56,4|0,2:3|2:0,2:0:0:0:
80,370,100376,1,8,2:1:0:0:
80,370,100538,2,0,P|117:360|154:349,1,56,0|8,2:0|2:0,2:0:0:0:
194,305,100862,1,0,2:0:0:0:
255,353,101024,2,0,P|294:364|343:358,1,84,2|0,2:0|2:0,2:0:0:0:
358,334,101349,6,0,P|412:345|445:353,2,62.9999980773926,4|2|2,2:3|2:0|2:0,2:0:0:0:
295,271,101835,2,0,P|241:260|208:252,2,62.9999980773926,8|2|2,2:0|2:0|2:0,2:0:0:0:
368,220,102322,2,0,P|393:161|375:95,1,125.999996154785,4|0,2:3|2:0,2:0:0:0:
328,30,102808,5,8,2:0:0:0:
260,86,102970,1,10,2:1:0:0:
185,38,103132,1,10,2:1:0:0:
185,38,103457,2,0,P|125:49|50:65,1,125.999996154785,2|0,2:0|2:0,2:0:0:0:
61,150,103943,6,0,P|121:161|196:177,1,125.999996154785,4|8,2:0|2:0,2:0:0:0:
268,203,104430,1,0,2:0:0:0:
316,129,104592,2,0,P|309:80|304:45,1,62.9999980773926,2|10,2:0|2:1,2:0:0:0:
375,11,104916,2,0,P|414:23|448:34,1,62.9999980773926,10|2,2:0|2:0,2:0:0:0:
512,81,105241,1,10,2:1:0:0:
512,81,105403,1,10,2:1:0:0:
450,143,105565,6,0,P|423:196|444:282,1,125.999996154785,8|0,2:0|2:0,2:0:0:0:
448,346,106051,2,0,P|497:335|526:328,2,62.9999980773926,10|8|0,2:1|2:0|2:0,2:0:0:0:
345,379,106538,6,0,P|287:365|263:360,1,62.9999980773926,6|2,2:0|2:0,2:0:0:0:
209,316,106862,2,0,P|151:330|127:335,1,62.9999980773926,10|2,2:0|2:0,2:0:0:0:
67,368,107187,1,2,2:0:0:0:
9,301,107349,1,10,2:1:0:0:
63,232,107511,2,0,P|105:238|140:244,1,62.9999980773926,8|0,2:0|2:0,2:0:0:0:
201,196,107835,5,4,2:3:0:0:
137,134,107997,1,2,2:0:0:0:
137,134,108078,1,0,2:0:0:0:
137,134,108159,2,0,L|146:86,3,31.4999990386963,8|0|0|0,2:0|2:0|2:0|2:0,2:0:0:0:
168,78,108484,2,0,L|159:30,3,31.4999990386963,2|0|8|0,2:0|2:0|2:1|2:0,2:0:0:0:
181,15,108808,2,0,P|230:24|261:27,1,62.9999980773926,10|0,2:0|2:0,2:0:0:0:
311,81,109132,6,0,B|354:73|354:73|444:59,1,125.999996154785,4|8,2:0|2:0,2:0:0:0:
511,105,109619,1,0,2:0:0:0:
437,153,109781,2,0,P|430:193|421:224,1,62.9999980773926,2|10,2:0|2:1,2:0:0:0:
486,276,110105,2,0,P|493:306|498:337,1,62.9999980773926,10|2,2:0|2:0,2:0:0:0:
423,383,110430,6,0,B|384:381|357:364|375:355|345:330|301:331,1,125.999996154785,4|8,2:0|2:0,2:0:0:0:
234,373,110916,1,0,2:0:0:0:
175,306,111078,2,0,P|133:291|97:286,1,62.9999980773926,2|8,2:0|2:1,2:0:0:0:
35,247,111403,2,0,P|21:210|37:162,1,62.9999980773926,10|0,2:0|2:0,2:0:0:0:
82,121,111727,6,0,P|116:134|158:143,1,62.9999980773926,4|0,2:0|2:0,2:0:0:0:
210,85,112051,2,0,P|239:73|269:65,1,62.9999980773926,8|0,2:0|2:0,2:0:0:0:
335,125,112376,2,0,P|364:136|394:144,1,62.9999980773926,8|8,2:1|2:1,2:0:0:0:
479,118,112700,1,8,2:0:0:0:
460,204,112862,6,0,B|472:261|472:261|476:268|476:268|491:349,1,125.999996154785,4|0,2:0|3:0,2:0:0:0:
414,377,113349,2,0,P|399:371|385:364,3,31.4999990386963,8|0|8|0,3:0|3:0|3:0|3:0,2:0:0:0:
350,336,113673,2,0,P|335:341|321:348,3,31.4999990386963,4|0|8|0,3:2|3:0|3:1|3:0,3:0:0:0:
278,359,113997,2,0,P|242:351|205:343,1,62.9999980773926,8|8,3:0|3:1,3:0:0:0:
133,303,114322,6,0,P|124:267|109:218,1,66.4999982242585,12|8,2:0|2:1,2:0:0:0:
189,181,114646,2,0,P|198:212|206:245,1,66.4999982242585,8|8,2:0|2:1,2:0:0:0:
282,192,114970,2,0,P|266:127|247:63,1,132.999996448517,8|8,2:1|2:1,2:0:0:0:
310,0,115458,5,8,2:0:0:0:
310,0,115539,1,8,2:0:0:0:
310,0,115620,2,0,P|350:11|394:24,1,66.4999982242585,4|0,2:3|2:0,2:0:0:0:
451,70,115944,1,8,2:1:0:0:
376,125,116106,2,0,P|387:165|392:200,1,66.4999982242585,12|0,2:0|2:0,2:0:0:0:
481,209,116430,1,8,2:3:0:0:
481,209,116592,2,0,P|470:249|465:284,1,66.4999982242585,8|0,2:1|2:0,2:0:0:0:
405,344,116917,6,0,P|372:327|321:324,1,66.4999982242585,12|8,2:0|2:1,2:0:0:0:
259,362,117241,2,0,P|191:377|137:389,1,99.7499973363877,8|0,2:0|2:0,2:0:0:0:
119,363,117565,2,0,P|91:321|130:234,1,132.999996448517,8|8,2:1|2:1,2:0:0:0:
196,200,118052,5,8,2:0:0:0:
196,200,118133,1,8,2:0:0:0:
196,200,118214,2,0,P|205:158|211:120,1,66.4999982242585,4|0,2:3|2:0,2:0:0:0:
118,109,118539,2,0,P|109:151|103:189,1,66.4999982242585,10|8,2:1|2:0,2:0:0:0:
23,129,118863,2,0,L|36:79,2,44.3333321495057,2|2|2,2:0|2:0|2:0,2:0:0:0:
22,204,119187,2,0,L|35:254,2,44.3333321495057,2|2|2,2:0|2:0|2:0,2:0:0:0:
60,275,119512,5,4,2:0:0:0:
60,275,119836,2,0,P|103:261|131:252,1,66.4999982242585,8|0,2:1|2:0,2:0:0:0:
192,316,120160,2,0,P|255:334|283:343,1,66.4999982242585,8|8,2:1|2:0,2:0:0:0:
341,295,120485,1,8,2:1:0:0:
272,248,120647,5,8,2:3:0:0:
272,248,120728,1,8,2:3:0:0:
272,248,120809,2,0,P|244:183|280:131,1,132.999996448517,4|8,2:3|2:1,2:0:0:0:
214,62,121295,2,0,P|167:73|140:79,1,66.4999982242585,12|0,2:0|2:0,2:0:0:0:
61,108,121619,2,0,P|49:138|57:170,1,66.4999982242585,8|8,2:3|2:3,2:0:0:0:
134,239,121944,5,8,2:3:0:0:
134,239,122025,1,8,2:3:0:0:
134,239,122106,2,0,P|125:291|115:372,1,132.999996448517,4|8,2:3|2:1,2:0:0:0:
207,381,122592,2,0,P|210:347|216:315,1,66.4999982242585,4|8,2:0|0:1,2:0:0:0:
308,290,122916,1,8,2:0:0:0:
308,290,123078,2,0,P|304:256|298:224,1,66.4999982242585,8|8,2:1|2:1,2:0:0:0:
236,153,123403,1,8,2:1:0:0:
236,153,123565,1,8,2:0:0:0:
289,76,123727,6,0,P|325:89|363:103,1,66.4999982242585,8|0,2:0|2:0,2:0:0:0:
386,184,124051,2,0,P|422:171|460:157,1,66.4999982242585,8|8,2:0|2:0,2:0:0:0:
511,237,124376,1,8,2:1:0:0:
511,237,124539,1,8,2:1:0:0:
445,301,124700,6,0,P|391:286|362:279,1,66.4999982242585,4|0,2:0|2:0,2:0:0:0:
288,270,125024,2,0,P|297:225|309:161,1,99.7499973363877,0|0,2:0|2:0,2:0:0:0:
329,148,125348,2,0,P|319:99|303:6,1,132.999996448517,2|0,2:0|2:0,2:0:0:0:
222,62,125835,1,0,2:0:0:0:
146,8,125997,5,4,2:0:0:0:
12,338,126646,1,4,2:0:0:0:
364,353,127295,6,0,P|403:322|466:316,2,94.499997116089,6|2|10,2:0|2:0|2:1,2:0:0:0:
301,290,127943,2,0,P|306:240|346:191,2,94.499997116089,10|2|2,2:0|2:0|2:0,2:0:0:0:
275,373,128592,6,0,P|234:362|193:351,1,83.9999974365235,6|8,2:0|0:0,2:0:0:0:
124,314,128916,2,0,P|82:327|58:333,2,41.9999987182618,8|8|8,2:0|2:0|2:0,2:0:0:0:
179,259,129241,2,0,P|221:272|245:278,2,41.9999987182618,8|8|8,2:3|2:3|2:3,2:0:0:0:
124,204,129565,2,0,P|82:217|58:223,2,41.9999987182618,8|8|8,2:3|2:3|2:3,2:0:0:0:
183,152,129889,5,6,2:0:0:0:
424,74,131187,5,2,2:0:0:0:
349,355,132484,6,0,P|310:345|268:335,1,66.4999982242585,6|8,2:0|2:1,2:0:0:0:
220,270,132808,2,0,L|171:288,3,33.2499991121292,8|8|8|8,2:0|2:0|2:0|2:0,2:0:0:0:
162,303,133132,2,0,L|113:285,3,33.2499991121292,10|8|10|8,2:0|2:0|2:0|2:0,2:0:0:0:
104,270,133457,2,0,L|55:288,3,33.2499991121292,10|8|10|8,2:0|2:0|2:0|2:0,2:0:0:0:
35,262,133781,5,2,2:0:0:0:
35,262,134430,2,0,L|47:222,3,33.2499991121292,2|0|0|0,2:0|2:0|2:0|2:0,2:0:0:0:
68,206,134754,2,0,L|56:166,3,33.2499991121292,2|0|0|0,2:0|2:0|2:0|2:0,2:0:0:0:
68,139,135078,6,0,P|129:154|189:169,1,115.50000352478,4|0,2:0|2:0,2:0:0:0:
206,188,135403,2,0,P|267:174|309:166,1,77.0000023498536,8|0,2:0|2:0,2:0:0:0:
362,101,135727,1,8,2:1:0:0:
362,101,135889,2,0,P|350:44|344:14,1,77.0000023498536,8|8,2:1|2:0,2:0:0:0:
463,133,136214,5,2,2:0:0:0:
463,133,136376,2,0,P|428:185|445:287,1,154.000004699707,4|8,2:3|2:0,2:0:0:0:
374,362,136862,1,0,2:0:0:0:
295,286,137024,2,0,P|308:229|318:190,1,77.0000023498536,8|8,2:1|2:1,2:0:0:0:
224,147,137349,2,0,P|211:90|201:51,1,77.0000023498536,8|0,2:0|2:0,2:0:0:0:
118,19,137673,5,4,2:0:0:0:
118,19,137835,1,0,2:0:0:0:
25,74,137997,2,0,P|38:126|49:172,1,77.0000023498536,8|0,2:0|2:0,2:0:0:0:
13,255,138322,1,8,2:1:0:0:
13,255,138484,2,0,P|59:244|101:236,1,77.0000023498536,8|8,2:1|2:0,2:0:0:0:
186,286,138808,1,0,2:0:0:0:
266,214,138970,6,0,P|254:167|242:120,1,77.0000023498536,4|0,2:3|2:0,2:0:0:0:
347,256,139295,2,0,P|391:244|440:232,1,77.0000023498536,8|0,2:0|2:0,2:0:0:0:
497,357,139619,2,0,P|453:345|404:333,1,77.0000023498536,10|0,2:1|2:0,2:0:0:0:
314,335,139943,2,0,P|270:347|221:359,1,77.0000023498536,10|0,2:0|2:0,2:0:0:0:
213,367,140187,1,8,2:1:0:0:
213,367,140268,2,0,L|172:355,3,38.5000011749268,2|0|2|0,2:0|2:0|2:0|2:0,2:0:0:0:
139,341,140592,5,4,2:0:0:0:
185,248,140754,1,0,2:0:0:0:
185,248,140916,2,0,P|278:225|343:207,1,154.000004699707,2|8,2:0|2:0,2:0:0:0:
435,175,141403,1,0,2:0:0:0:
486,269,141565,6,0,P|475:307|461:351,1,77.0000023498536,4|0,2:3|2:0,2:0:0:0:
362,380,141889,2,0,P|350:343|339:306,1,77.0000023498536,8|0,2:0|2:0,2:0:0:0:
265,234,142214,1,8,2:1:0:0:
265,234,142376,1,8,2:1:0:0:
180,308,142538,2,0,P|123:289|61:268,1,115.50000352478,8|0,2:0|2:0,2:0:0:0:
40,248,142862,6,0,P|32:203|49:170,1,77.0000023498536,4|0,2:0|2:0,2:0:0:0:
61,141,143105,1,2,2:0:0:0:
61,141,143187,2,0,P|99:153|149:167,1,77.0000023498536,0|0,2:0|2:0,2:0:0:0:
224,103,143511,1,10,2:1:0:0:
165,39,143673,1,10,2:1:0:0:
256,123,143835,2,0,P|246:152|232:206,1,77.0000023498536,10|2,2:0|2:0,2:0:0:0:
292,269,144159,6,0,P|328:255|371:258,1,77.0000023498536,14|8,2:0|2:1,2:0:0:0:
385,363,144484,2,0,P|349:376|311:375,1,77.0000023498536,10|8,2:0|2:1,2:0:0:0:
211,333,144808,2,0,P|175:327|119:315,1,77.0000023498536,8|8,2:3|2:3,2:0:0:0:
39,269,145132,1,8,2:3:0:0:
136,216,145295,5,8,2:3:0:0:
136,216,145376,1,8,2:3:0:0:
136,216,145457,2,0,P|121:152|108:97,1,115.50000352478,4|0,2:0|2:0,2:0:0:0:
124,70,145781,2,0,P|162:80|204:94,1,77.0000023498536,8|0,2:0|2:0,2:0:0:0:
270,170,146105,1,10,2:1:0:0:
270,170,146267,2,0,P|320:156|353:146,1,77.0000023498536,10|10,2:1|2:0,2:0:0:0:
416,72,146592,1,2,2:0:0:0:
499,139,146754,6,0,P|468:185|496:267,1,115.50000352478,4|0,2:3|2:0,2:0:0:0:
497,268,147078,2,0,P|488:315|483:363,1,77.0000023498536,8|0,2:0|2:0,2:0:0:0:
379,372,147403,1,10,2:1:0:0:
379,372,147565,2,0,P|383:333|391:296,1,77.0000023498536,10|10,2:1|2:0,2:0:0:0:
321,213,147889,1,2,2:0:0:0:
250,293,148051,6,0,B|202:301|169:273|186:262|155:238|96:244,1,154.000004699707,4|8,2:0|2:0,2:0:0:0:
16,189,148538,1,8,2:1:0:0:
88,109,148700,2,0,P|147:124|193:132,1,77.0000023498536,8|0,2:1|2:0,2:0:0:0:
255,72,149024,2,0,P|303:36|368:60,1,115.50000352478,8|0,2:0|2:0,2:0:0:0:
378,73,149349,6,0,P|385:125|401:202,2,115.50000352478,6|2|10,2:0|2:0|2:1,2:0:0:0:
312,170,149997,2,0,P|277:187|229:198,1,77.0000023498536,6|8,2:0|2:1,2:0:0:0:
216,197,150241,1,2,2:0:0:0:
216,197,150322,2,0,L|145:176,3,38.5000011749268,8|0|10|8,2:0|2:0|2:0|2:0,2:0:0:0:
152,192,150646,6,0,P|121:257|152:334,1,154.000004699707,4|8,2:0|2:0,2:0:0:0:
243,379,151132,2,0,P|320:356|412:334,1,154.000004699707,2|8,2:0|2:1,2:0:0:0:
484,282,151619,2,0,P|495:239|509:195,1,77.0000023498536,8|8,2:0|2:1,2:0:0:0:
425,134,151943,6,0,P|397:183|295:186,1,154.000004699707,4|8,2:0|2:0,2:0:0:0:
198,189,152430,1,0,2:0:0:0:
260,101,152592,2,0,P|302:114|341:124,1,77.0000023498536,8|2,2:1|2:0,2:0:0:0:
421,59,152916,2,0,P|383:49|347:37,1,77.0000023498536,8|0,2:0|2:0,2:0:0:0:
242,10,153241,6,0,P|190:29|112:54,1,115.50000352478,4|0,2:0|2:0,2:0:0:0:
101,60,153565,2,0,P|85:101|95:135,1,77.0000023498536,8|0,2:0|2:0,2:0:0:0:
174,205,153889,1,8,2:1:0:0:
174,205,154051,2,0,P|166:247|159:305,1,77.0000023498536,8|8,2:1|2:0,2:0:0:0:
125,384,154376,5,8,2:1:0:0:
125,384,154538,2,0,P|174:371|223:361,1,77.0000023498536,4|8,2:0|2:0,2:0:0:0:
289,305,154862,1,8,2:0:0:0:
368,377,155024,1,8,2:1:0:0:
442,298,155187,2,0,P|459:240|470:204,2,77.0000023498536,8|8|8,2:0|2:3|2:3,2:0:0:0:
359,204,155673,5,8,2:3:0:0:
359,204,155754,1,8,2:3:0:0:
359,204,155835,1,2,2:0:0:0:
2,7,157132,1,2,2:0:0:0:
19,336,157781,2,0,P|63:324|146:308,1,105,8|0,3:0|3:0,2:0:0:0:
152,294,158105,2,0,L|186:303,3,35,8|8|8|8,2:0|2:3|2:3|2:3,2:0:0:0:
220,314,158430,5,4,2:0:0:0:
452,51,163619,5,4,2:0:0:0:
452,51,163781,2,0,P|497:37|526:28,1,62.9999980773926,2|0,2:0|2:0,2:0:0:0:
386,121,164105,1,2,2:0:0:0:
386,121,164267,2,0,P|341:107|312:98,1,62.9999980773926,10|2,2:1|2:0,2:0:0:0:
252,47,164592,1,0,2:0:0:0:
252,47,164754,1,8,2:0:0:0:
185,104,164916,6,0,P|196:147|202:174,1,62.9999980773926,6|2,2:3|2:0,2:0:0:0:
276,209,165241,2,0,P|265:252|259:279,1,62.9999980773926,10|10,2:1|2:0,2:0:0:0:
208,340,165565,2,0,P|164:326|135:319,1,62.9999980773926,10|10,2:1|2:0,2:0:0:0:
279,374,165889,2,0,P|323:360|352:353,1,62.9999980773926,10|8,2:1|2:1,2:0:0:0:
368,334,166132,5,8,2:1:0:0:
368,334,166214,2,0,P|414:344|449:352,1,62.9999980773926,6|2,2:3|2:0,2:0:0:0:
503,259,166538,2,0,P|457:269|422:277,1,62.9999980773926,10|2,2:1|2:0,2:0:0:0:
363,231,166862,2,0,P|310:193|251:196,1,125.999996154785,10|10,2:1|2:1,2:0:0:0:
183,252,167349,1,10,2:0:0:0:
183,252,167511,1,6,2:3:0:0:
105,209,167673,6,0,P|111:156|124:74,1,125.999996154785,2|2,2:0|2:0,2:0:0:0:
167,8,168159,2,0,P|221:24|251:33,1,62.9999980773926,10|10,2:0|2:1,2:0:0:0:
314,7,168484,1,10,2:1:0:0:
457,109,168808,6,0,P|412:126|376:247,1,168,12|0,2:0|2:0,2:0:0:0:
429,283,169457,1,8,2:0:0:0:
213,375,169943,1,8,2:1:0:0:
149,329,170105,6,0,P|160:288|180:207,2,112,2|8|8,2:0|2:1|2:0,2:0:0:0:
16,133,171241,1,2,2:0:0:0:
16,133,171322,1,2,2:0:0:0:
16,133,171403,2,0,P|69:88|178:98,1,168,4|0,2:3|2:0,2:0:0:0:
226,136,172051,1,8,2:0:0:0:
432,22,172538,5,2,2:0:0:0:
432,22,172619,1,2,2:0:0:0:
432,22,172700,2,0,B|398:73|398:73|450:173,1,168,2|0,2:0|2:0,2:0:0:0:
393,225,173349,2,0,P|356:214|317:204,1,56,8|0,2:0|2:0,2:0:0:0:
294,144,173673,2,0,P|257:155|218:165,1,56,12|0,2:0|2:0,2:0:0:0:
217,177,173916,5,0,2:0:0:0:
217,177,173997,2,0,P|180:166|127:152,1,62.9999980773926,8|2,2:1|2:0,2:0:0:0:
68,150,174322,2,0,P|44:184|41:216,1,62.9999980773926,8|2,2:1|2:0,2:0:0:0:
0,283,174646,2,0,P|7:324|27:348,1,62.9999980773926,8|8,2:1|2:1,2:0:0:0:
99,376,174970,1,8,2:1:0:0:
99,376,175132,1,2,2:0:0:0:
157,309,175295,6,0,P|145:263|137:235,2,62.9999980773926,4|2|8,2:3|2:0|2:1,2:0:0:0:
223,366,175781,1,2,2:0:0:0:
294,314,175943,2,0,P|334:321|366:328,1,62.9999980773926,8|2,2:1|2:0,2:0:0:0:
441,347,176268,2,0,L|454:310,3,31.4999990386963,8|8|8|8,2:0|2:0|2:0|2:0,2:0:0:0:
478,288,176592,6,0,P|464:232|456:203,1,70,12|8,2:0|2:0,2:0:0:0:
402,141,176916,2,0,P|416:85|424:56,1,70,8|8,2:0|2:0,2:0:0:0:
313,193,177241,1,8,2:0:0:0:
313,193,177403,1,8,2:0:0:0:
236,132,177565,2,0,P|185:146|149:157,1,70,8|8,2:0|2:0,2:0:0:0:
89,93,177889,5,2,2:0:0:0:
47,185,178051,1,8,2:3:0:0:
47,185,178132,1,0,2:0:0:0:
47,185,178214,2,0,P|59:230|67:267,1,70,8|10,2:1|2:3,2:0:0:0:
151,297,178538,2,0,P|139:342|131:379,2,70,10|10|10,2:1|2:1|2:0,2:0:0:0:
232,242,179024,1,10,2:1:0:0:
156,178,179187,5,2,2:0:0:0:
280,27,179511,1,0,2:0:0:0:
280,27,179673,1,0,2:0:0:0:
484,212,180484,5,2,2:0:0:0:
380,378,180808,1,0,2:0:0:0:
380,378,180970,1,0,2:0:0:0:
33,30,181781,5,2,2:0:0:0:
93,87,181943,1,0,2:0:0:0:
93,87,182105,2,0,P|138:75|181:65,1,70,0|0,2:0|2:0,2:0:0:0:
349,299,183078,5,2,2:0:0:0:
179,200,183403,1,0,2:0:0:0:
179,200,183565,2,0,P|141:246|151:337,1,140,2|0,2:0|2:0,2:0:0:0:
202,373,184051,2,0,P|247:363|281:358,1,70,2|0,2:0|2:0,2:0:0:0:
359,316,184376,5,2,2:0:0:0:
428,355,184538,2,0,P|473:343|500:334,2,70,0|0|0,2:0|2:0|2:0,2:0:0:0:
208,10,185673,5,2,2:0:0:0:
137,46,185835,2,0,P|92:34|65:25,2,70,0|0|0,2:0|2:0|2:0,2:0:0:0:
365,164,186970,5,2,2:0:0:0:
436,200,187132,2,0,P|481:188|508:179,2,70,0|0|0,2:0|2:0|2:0,2:0:0:0:
154,358,188268,1,2,2:0:0:0:
20,161,189565,1,0,2:0:0:0:
410,44,197187,5,2,2:0:0:0:
410,44,197268,1,2,2:0:0:0:
410,44,197349,2,0,P|397:82|381:153,2,94.499997116089,2|2|2,2:0|2:0|2:0,2:0:0:0:
306,78,197997,2,0,P|267:67|233:58,1,62.9999980773926,2|0,2:0|2:0,2:0:0:0:
171,12,198322,2,0,P|132:23|98:32,1,62.9999980773926,2|0,2:0|2:0,2:0:0:0:
23,74,198646,5,8,2:0:0:0:
87,147,198808,1,8,2:0:0:0:
87,147,199295,2,0,L|76:180,3,35,2|0|0|0,2:0|2:0|2:0|2:0,2:0:0:0:
49,221,199619,2,0,L|59:254,3,35,2|0|0|0,2:0|2:0|2:0|2:0,2:0:0:0:
81,290,199943,6,0,P|142:305|202:320,1,115.50000352478,4|0,2:0|2:0,2:0:0:0:
228,316,200268,2,0,P|250:276|231:230,1,77.0000023498536,8|0,2:0|2:0,2:0:0:0:
305,169,200592,1,8,2:1:0:0:
305,169,200754,2,0,P|337:179|393:194,1,77.0000023498536,0|8,2:0|2:0,2:0:0:0:
366,69,201078,5,2,2:0:0:0:
366,69,201241,2,0,P|310:53|255:36,1,115.50000352478,4|0,2:3|2:0,2:0:0:0:
222,21,201565,2,0,P|184:31|147:42,1,77.0000023498536,8|0,2:0|2:0,2:0:0:0:
45,80,201889,1,8,2:1:0:0:
45,80,202051,1,8,2:1:0:0:
129,155,202214,2,0,P|151:192|104:268,1,115.50000352478,8|0,2:0|2:0,2:0:0:0:
96,274,202538,6,0,P|83:308|105:351,1,77.0000023498536,4|0,2:0|2:0,2:0:0:0:
190,381,202862,2,0,P|260:363|360:343,1,154.000004699707,8|8,2:0|2:1,2:0:0:0:
428,284,203349,1,8,2:1:0:0:
327,244,203511,2,0,P|307:201|344:137,1,115.50000352478,8|0,2:0|2:0,2:0:0:0:
363,129,203835,6,0,P|400:143|442:157,1,77.0000023498536,4|0,2:3|2:0,2:0:0:0:
403,39,204159,2,0,P|366:26|330:12,1,77.0000023498536,8|0,2:0|2:0,2:0:0:0:
240,73,204484,2,0,P|204:86|167:99,1,77.0000023498536,6|0,2:3|2:0,2:0:0:0:
69,54,204808,1,10,2:0:0:0:
18,148,204970,1,0,2:0:0:0:
18,148,205051,1,8,2:1:0:0:
18,148,205132,2,0,P|22:166|26:185,3,38.5000011749268,2|0|2|0,2:0|2:0|2:0|2:0,2:0:0:0:
34,222,205457,5,4,2:0:0:0:
96,308,205619,1,0,2:0:0:0:
96,308,205781,2,0,P|160:299|269:287,1,154.000004699707,2|8,2:0|2:0,2:0:0:0:
340,350,206268,1,2,2:0:0:0:
432,294,206430,6,0,P|455:245|433:184,1,115.50000352478,10|0,2:1|2:0,2:0:0:0:
418,161,206754,2,0,P|371:181|323:197,1,77.0000023498536,10|0,2:0|2:0,2:0:0:0:
251,154,207078,1,10,2:1:0:0:
251,154,207241,1,10,2:1:0:0:
334,85,207403,2,0,P|328:35|254:10,1,115.50000352478,8|0,2:0|2:0,2:0:0:0:
241,10,207727,6,0,P|165:26|90:43,1,154.000004699707,4|10,2:0|2:0,2:0:0:0:
19,108,208213,1,2,2:0:0:0:
101,180,208376,2,0,P|88:223|79:263,1,77.0000023498536,10|10,2:1|2:1,2:0:0:0:
4,329,208700,2,0,P|68:365|132:345,1,115.50000352478,10|0,2:0|2:0,2:0:0:0:
137,344,209024,6,0,P|195:332|222:327,1,77.0000023498536,14|8,2:0|2:1,2:0:0:0:
315,367,209349,2,0,P|373:379|400:384,1,77.0000023498536,10|8,2:0|2:1,2:0:0:0:
486,340,209673,1,8,2:0:0:0:
412,275,209835,1,8,2:0:0:0:
412,275,209916,1,8,2:0:0:0:
412,275,209997,2,0,L|398:221,3,38.5000011749268,8|8|8|8,2:3|2:3|2:0|2:3,2:0:0:0:
376,213,210322,6,0,P|392:158|410:95,1,115.50000352478,4|0,2:0|2:0,2:0:0:0:
391,67,210646,2,0,P|344:78|305:87,1,77.0000023498536,8|0,2:0|2:0,2:0:0:0:
230,27,210970,1,10,2:0:0:0:
230,27,211132,1,10,2:1:0:0:
154,104,211295,2,0,P|167:158|174:198,1,77.0000023498536,10|10,2:0|2:1,2:0:0:0:
244,260,211619,6,0,P|202:292|123:291,1,115.50000352478,8|0,2:0|2:0,2:0:0:0:
112,280,211943,2,0,P|70:269|13:256,1,77.0000023498536,10|8,2:0|2:1,2:0:0:0:
5,162,212268,1,10,2:0:0:0:
5,162,212430,1,10,2:1:0:0:
79,85,212592,2,0,P|125:96|166:106,1,77.0000023498536,10|10,2:0|2:1,2:0:0:0:
251,149,212916,6,0,P|304:134|341:66,1,115.50000352478,12|0,2:0|2:0,2:0:0:0:
348,57,213241,2,0,P|407:70|442:76,1,77.0000023498536,8|8,2:0|2:1,2:0:0:0:
501,146,213565,2,0,P|484:195|474:226,1,77.0000023498536,8|8,2:0|2:1,2:0:0:0:
405,327,213889,2,0,P|392:290|380:254,1,77.0000023498536,8|8,2:0|2:1,2:0:0:0:
288,196,214214,6,0,L|300:137,2,51.3333348999024,4|8|8,2:0|2:1|2:0,2:0:0:0:
258,284,214538,2,0,L|303:323,2,51.3333348999024,8|8|8,2:0|2:0|2:0,2:0:0:0:
196,214,214862,2,0,L|138:233,2,51.3333348999024,8|8|8,2:3|2:3|2:3,2:0:0:0:
137,324,215187,2,0,L|79:305,2,51.3333348999024,8|8|8,2:3|2:3|2:3,2:0:0:0:
166,344,215511,6,0,P|237:333|290:261,1,154.000004699707,4|8,2:0|2:0,2:0:0:0:
340,178,215997,2,0,P|321:97|307:24,1,154.000004699707,2|0,2:0|2:0,2:0:0:0:
212,79,216484,2,0,P|158:64|116:52,1,77.0000023498536,8|0,2:0|2:0,2:0:0:0:
38,17,216808,6,0,P|1:57|9:137,1,115.50000352478,4|0,2:0|2:0,2:0:0:0:
26,140,217132,2,0,P|41:189|51:227,1,77.0000023498536,8|0,2:0|2:0,2:0:0:0:
119,294,217457,2,0,P|134:245|144:207,1,77.0000023498536,8|8,2:1|2:1,2:0:0:0:
183,121,217781,2,0,P|234:93|308:103,1,115.50000352478,8|0,2:0|2:0,2:0:0:0:
321,111,218105,5,4,2:0:0:0:
456,279,218430,2,0,P|504:260|533:249,2,77.0000023498536,8|8|8,2:1|2:1|2:0,2:0:0:0:
378,353,218916,1,8,2:0:0:0:
295,284,219078,1,8,2:0:0:0:
213,355,219241,1,8,2:0:0:0:
311,310,219403,5,4,2:0:0:0:
31,219,219889,2,0,L|0:232,2,35,8|8|8,2:3|2:3|2:3,2:0:0:0:
102,150,220214,1,8,2:3:0:0:
181,206,220376,1,8,2:3:0:0:
286,41,220700,5,4,2:0:0:0:
32,361,221997,1,2,2:0:0:0:
32,361,222646,6,0,L|81:348,3,35,2|0|0|0,2:0|2:0|2:0|2:0,2:0:0:0:
98,334,222970,2,0,L|147:347,3,35,2|0|2|0,2:0|2:0|2:0|2:0,2:0:0:0:
178,360,223295,6,0,P|234:349|310:333,1,105,4|0,2:0|2:0,2:0:0:0:
312,340,223619,2,0,P|341:351|389:364,1,70,8|0,2:0|2:0,2:0:0:0:
469,316,223943,1,8,2:1:0:0:
431,225,224105,2,0,P|395:235|343:249,2,70,8|8|2,2:1|2:0|2:0,2:0:0:0:
496,151,224592,6,0,P|502:82|425:51,1,140,4|8,2:0|2:0,2:0:0:0:
362,10,225078,1,0,2:0:0:0:
362,10,225241,2,0,P|310:23|291:28,1,70,8|8,2:1|2:1,2:0:0:0:
232,102,225565,2,0,P|180:89|161:84,1,70,8|0,2:0|2:0,2:0:0:0:
86,25,225889,6,0,B|68:85|68:85|72:97|72:97|48:183,1,140,4|8,2:0|2:0,2:0:0:0:
3,243,226376,2,0,P|11:282|18:320,1,70,0|8,2:0|2:1,2:0:0:0:
84,378,226700,1,8,2:1:0:0:
162,325,226862,2,0,P|208:290|276:313,1,105,10|0,2:0|2:0,2:0:0:0:
279,315,227187,6,0,P|334:322|377:330,1,70,4|0,2:3|2:0,2:0:0:0:
432,274,227511,2,0,P|466:268|501:264,1,70,8|2,2:0|2:0,2:0:0:0:
443,185,227835,2,0,P|477:179|512:175,2,70,8|10|8,2:1|2:1|2:0,2:0:0:0:
359,132,228322,5,0,2:0:0:0:
359,132,228403,1,8,2:1:0:0:
359,132,228484,2,0,P|310:124|207:101,1,140,4|8,2:0|2:0,2:0:0:0:
162,28,228970,2,0,P|238:10|251:6,2,70,0|8|8,2:0|2:1|2:1,2:0:0:0:
87,87,229457,2,0,P|54:118|71:187,1,105,8|0,2:0|2:0,2:0:0:0:
81,200,229781,6,0,P|101:226|88:277,1,70,4|0,2:3|2:0,2:0:0:0:
104,358,230105,2,0,P|217:339|237:338,1,105,8|0,2:0|2:0,2:0:0:0:
233,359,230430,2,0,P|265:368|312:379,1,70,8|8,2:1|2:1,2:0:0:0:
381,320,230754,2,0,P|413:311|460:300,1,70,8|0,2:0|2:0,2:0:0:0:
510,226,231078,6,0,P|503:178|488:109,1,105,4|0,2:0|2:0,2:0:0:0:
459,85,231403,1,10,2:0:0:0:
459,85,231565,1,2,2:0:0:0:
369,45,231727,2,0,P|333:39|279:33,1,70,10|8,2:1|2:1,2:0:0:0:
225,99,232051,2,0,P|189:104|135:111,1,70,8|8,2:0|2:1,2:0:0:0:
65,68,232376,5,8,2:0:0:0:
65,68,232538,1,8,2:1:0:0:
3,144,232700,2,0,P|12:178|19:224,1,70,8|8,2:0|2:1,2:0:0:0:
113,234,233024,2,0,P|104:268|97:314,1,70,8|8,2:0|2:0,2:0:0:0:
164,375,233349,2,8,L|207:364,3,35,8|8|8|8,2:0|2:0|2:0|2:0,2:0:0:0:
233,360,233673,5,4,2:0:0:0:
305,280,233835,2,0,P|291:230|284:200,1,77.0000023498536,2|8,2:0|2:0,2:0:0:0:
202,137,234159,2,0,P|216:87|223:57,1,77.0000023498536,2|8,2:0|2:0,2:0:0:0:
317,12,234484,1,10,2:1:0:0:
372,104,234646,2,0,P|421:93|460:84,1,77.0000023498536,10|8,2:0|2:1,2:0:0:0:
498,216,234970,6,0,P|449:205|410:196,1,77.0000023498536,10|10,2:0|2:1,2:0:0:0:
317,173,235295,2,0,P|328:229|347:336,1,154.000004699707,10|8,2:0|2:0,2:0:0:0:
244,363,235781,1,8,2:1:0:0:
161,293,235943,2,0,P|116:310|72:326,1,77.0000023498536,8|8,2:0|2:1,2:0:0:0:
11,243,236268,5,10,2:0:0:0:
88,168,236430,2,0,P|75:109|68:76,1,77.0000023498536,2|8,2:0|2:0,2:0:0:0:
168,0,236754,2,0,P|155:59|148:92,1,77.0000023498536,0|8,2:0|2:0,2:0:0:0:
208,166,237078,1,8,2:1:0:0:
161,263,237241,2,0,P|109:252|61:244,1,77.0000023498536,8|8,2:0|2:1,2:0:0:0:
206,354,237565,6,0,P|258:343|306:335,1,77.0000023498536,10|10,2:0|2:1,2:0:0:0:
386,362,237889,2,0,P|449:340|478:250,1,154.000004699707,10|8,2:0|2:0,2:0:0:0:
492,155,238376,1,8,2:1:0:0:
398,209,238538,2,0,P|346:199|312:191,1,77.0000023498536,8|0,2:0|2:0,2:0:0:0:
223,235,238862,6,0,B|208:184|208:184|245:85,1,154.000004699707,4|8,2:0|2:1,2:0:0:0:
170,23,239349,1,10,2:0:0:0:
170,23,239430,1,8,2:0:0:0:
170,23,239511,2,0,L|122:33,3,38.5000011749268,8|8|10|8,2:1|2:0|2:0|2:0,2:0:0:0:
105,54,239835,2,0,L|57:44,3,38.5000011749268,10|8|8|8,2:1|2:0|2:0|2:0,2:0:0:0:
33,58,240159,6,0,L|48:114,3,38.5000011749268,8|8|8|8,2:1|2:0|2:0|2:0,2:0:0:0:
65,120,240484,2,0,P|53:177|46:210,1,77.0000023498536,10|8,2:1|2:0,2:0:0:0:
2,292,240808,2,0,P|14:349|21:382,1,77.0000023498536,10|8,2:1|2:0,2:0:0:0:
125,375,241132,2,0,P|171:360|209:350,1,77.0000023498536,10|8,2:1|2:0,2:0:0:0:
233,347,241376,5,8,2:0:0:0:
233,347,241457,1,8,2:1:0:0:
158,145,241781,2,0,P|120:131|79:119,2,77.0000023498536,8|8|8,2:1|2:1|2:0,2:0:0:0:
244,210,242268,1,8,2:0:0:0:
331,147,242430,1,10,2:0:0:0:
417,236,242592,5,10,2:0:0:0:
417,236,244051,6,0,P|432:284|440:312,2,56,10|0|8,2:1|2:0|2:1,2:0:0:0:
362,186,244538,1,0,2:0:0:0:
362,186,244700,2,0,P|374:143|380:119,1,56,10|0,2:1|2:0,2:0:0:0:
298,133,245024,6,0,P|286:90|280:66,2,56,10|0|8,2:1|2:0|2:1,2:0:0:0:
235,181,245511,2,0,P|191:171|116:157,1,112,2|2,2:0|2:0,2:0:0:0:
57,198,245997,2,0,P|68:239|74:260,1,56,8|0,2:1|2:0,2:0:0:0:
47,329,246322,1,8,2:1:0:0:
47,329,246484,1,2,2:0:0:0:
119,359,246646,6,0,P|158:349|187:343,2,56,10|0|8,2:1|2:0|2:1,2:0:0:0:
194,268,247132,1,0,2:0:0:0:
194,268,247295,2,0,P|233:278|262:284,1,56,10|0,2:1|2:0,2:0:0:0:
325,270,247619,6,0,L|309:337,2,56,10|0|8,2:1|2:0|2:1,2:0:0:0:
366,203,248105,2,0,P|357:157|345:92,1,112,2|2,2:0|2:0,2:0:0:0:
371,18,248592,2,0,P|409:30|433:35,1,56,10|2,2:1|2:0,2:0:0:0:
493,71,248916,1,10,2:1:0:0:
428,147,249078,5,6,2:0:0:0:
