osu file format v14

[General]
AudioFilename: audio.mp3
AudioLeadIn: 0
PreviewTime:188187
Countdown: 0
SampleSet: Soft
StackLeniency: 0.5
Mode: 0
LetterboxInBreaks: 0
WidescreenStoryboard: 1

[Editor]
Bookmarks: 59835,135078,199943,233673,244051
DistanceSpacing: 0.8
BeatDivisor: 4
GridSize: 32
TimelineZoom: 2.5

[Metadata]
Title:Careless
TitleUnicode:ケアレス
Artist:ClariS
ArtistUnicode:ClariS
Creator:Azu
Version:ClariS' Insane
Source:マギアレコード 魔法少女まどか☆マギカ外伝 2nd SEASON -覚醒前夜-
Tags:Magia Record: Mahou Shoujo Madoka Magica Gaiden Kakusei Zenya Puella Magi full size length version opening japanese jpop j-pop pop anime Clara Karen - Ex -_Ex_- Sharpay Mayu Sakuma Xexyz Azunyan- Ayana Yorita Yoshino -ClariS- ImpurePug
BeatmapID:3385635
BeatmapSetID:1596835

[Difficulty]
HPDrainRate:5
CircleSize:4
OverallDifficulty:8
ApproachRate:9
SliderMultiplier:1.6
SliderTickRate:1

[Events]
//Background and Video events
0,0,"kearesu.jpg",0,0
//Break Periods
2,83387,85181
2,158629,168208
2,189565,196587
//Storyboard Layer 0 (Background)
//Storyboard Layer 1 (Fail)
//Storyboard Layer 2 (Pass)
//Storyboard Layer 3 (Foreground)
//Storyboard Layer 4 (Overlay)
//Storyboard Sound Samples

[TimingPoints]
160,324.324324324324,4,2,1,50,1,0
484,-133.333333333333,4,2,1,50,0,0
4214,-200,4,2,1,50,0,0
4538,-200,4,2,1,60,0,0
5187,-100,4,2,1,60,0,0
16051,-83.3333333333333,4,2,1,60,0,0
16376,-71.4285714285714,4,2,1,60,0,0
16700,-62.5,4,2,1,60,0,0
17511,-62.5,4,2,1,50,0,0
17673,-200,4,2,1,50,0,0
18322,-125,4,2,1,50,0,0
28700,-100,4,2,1,60,0,0
32268,-166.666666666667,4,2,1,60,0,0
32592,-100,4,2,1,60,0,0
37619,-125,4,2,1,60,0,0
40862,-100,4,2,1,60,0,0
42322,-125,4,2,1,60,0,0
42970,-99.9999999999987,4,2,1,60,0,0
43619,-83.3333333333333,4,2,1,60,0,0
44592,-100,4,2,1,60,0,0
49457,-125,4,2,1,60,0,0
50916,-125,4,2,1,5,0,0
51403,-125,4,2,1,60,0,0
58538,-200,4,2,1,60,0,0
59187,-100,4,2,1,70,0,0
59754,-100,4,2,1,5,0,0
59835,-66.6666666666667,4,2,1,80,0,0
60159,-83.3333333333333,4,2,1,80,0,1
65078,-83.3333333333333,4,2,1,40,0,1
65349,-83.3333333333333,4,2,1,80,0,1
65673,-100,4,2,1,80,0,1
67295,-83.3333333333333,4,2,1,80,0,1
79295,-133.333333333333,4,2,1,80,0,0
80592,-133.333333333333,4,2,1,60,0,0
82214,-100,4,2,1,60,0,0
86430,-133.333333333333,4,2,1,60,0,0
87727,-100,4,2,1,60,0,0
88376,-87.9999999999998,4,2,1,60,0,0
89673,-100,4,2,1,60,0,0
93565,-125,4,2,1,60,0,0
94214,-125,4,2,1,50,0,0
98105,-200,4,2,1,50,0,0
98754,-125,4,2,1,50,0,0
100051,-100,4,2,1,50,0,0
103457,-200,4,2,1,50,0,0
103943,-200,4,2,1,60,0,0
104592,-100,4,2,1,60,0,0
107511,-166.666666666667,4,2,1,60,0,0
107835,-100,4,2,1,60,0,0
110673,-100,4,2,1,5,0,0
110754,-100,4,2,1,60,0,0
118862,-83.3333333333333,4,2,1,60,0,0
119835,-100,4,2,1,60,0,0
126159,-100,4,2,1,5,0,0
126646,-100,4,2,1,60,0,0
133781,-200,4,2,1,60,0,0
134430,-100,4,2,1,70,0,0
134997,-100,4,2,1,5,0,0
135078,-66.6666666666667,4,2,1,80,0,0
135403,-83.3333333333333,4,2,1,80,0,1
140321,-83.3333333333333,4,2,1,40,0,1
140593,-83.3333333333333,4,2,1,80,0,1
140916,-100,4,2,1,80,0,1
142538,-83.3333333333333,4,2,1,80,0,1
155835,-83.3333333333333,4,2,1,60,0,0
168808,-166.666666666667,4,2,1,60,0,0
175295,-100,4,2,1,60,0,0
175619,-90.9090909090909,4,2,1,60,0,0
179187,-200,4,2,1,60,0,0
180484,-200,4,2,1,45,0,0
197187,-200,4,2,1,60,0,0
197349,-100,4,2,1,60,0,0
198646,-100,4,2,1,70,0,0
199295,-100,4,2,1,60,0,0
199862,-100,4,2,1,5,0,0
199943,-66.6666666666667,4,2,1,80,0,1
200268,-83.3333333333333,4,2,1,80,0,1
205187,-83.3333333333333,4,2,1,40,0,1
205241,-83.3333333333333,4,2,1,80,0,1
205295,-83.3333333333333,4,2,1,40,0,1
205349,-83.3333333333333,4,2,1,80,0,1
205403,-83.3333333333333,4,2,1,40,0,1
205458,-83.3333333333333,4,2,1,80,0,1
205781,-100,4,2,1,80,0,1
206431,-83.3333333333333,4,2,1,80,0,1
219403,-133.333333333333,4,2,1,60,0,1
220700,-133.333333333333,4,2,1,60,0,0
222646,-100,4,2,1,60,0,0
223295,-83.3333333333333,4,2,1,60,0,0

[Colours]
Combo1 : 250,180,240
Combo2 : 120,200,230
Combo3 : 255,230,130
Combo4 : 160,230,150

[HitObjects]
342,261,160,5,2,2:0:0:0:
410,223,322,1,0,2:0:0:0:
462,280,484,2,0,P|465:310|453:342,2,60.0000022888184,0|0|2,2:0|2:0|2:0,2:0:0:0:
306,124,1132,5,2,2:0:0:0:
238,83,1295,2,0,P|234:52|246:20,2,60.0000022888184,0|0|2,2:0|2:0|2:0,2:0:0:0:
193,345,1943,6,0,P|148:338|115:356,1,60.0000022888184,2|0,2:0|2:0,2:0:0:0:
91,276,2268,2,0,P|119:240|120:202,2,60.0000022888184,0|0|0,2:0|2:0|2:0,2:0:0:0:
109,122,2754,5,2,2:0:0:0:
131,116,2916,1,2,2:0:0:0:
163,120,3078,1,2,2:0:0:0:
200,143,3241,1,2,2:0:0:0:
216,194,3403,1,2,2:0:0:0:
216,194,3727,5,2,2:0:0:0:
208,158,3889,1,2,2:0:0:0:
223,112,4051,1,2,2:0:0:0:
272,77,4214,6,0,L|355:90,1,80,2|2,2:0|2:0,2:0:0:0:
447,53,4700,5,8,2:0:0:0:
369,180,4862,1,8,2:3:0:0:
345,78,5024,1,8,2:3:0:0:
474,164,5187,6,0,B|432:158|432:158|378:204|378:204|326:199,1,160,4|8,2:0|2:1,2:0:0:0:
187,288,5673,2,0,L|194:380,1,80,8|0,2:0|2:0,2:0:0:0:
266,322,5997,1,8,2:1:0:0:
118,249,6159,1,8,2:1:0:0:
195,380,6322,1,8,2:0:0:0:
258,232,6484,6,0,P|331:221|387:282,1,160,4|8,2:0|2:1,2:0:0:0:
496,344,6970,2,0,P|450:345|421:371,1,80,8|0,2:0|2:0,2:0:0:0:
386,279,7295,2,0,P|340:278|311:252,1,80,8|8,2:1|2:0,2:0:0:0:
431,194,7619,1,8,2:0:0:0:
250,39,7781,6,4,L|263:234,1,160,4|8,2:0|2:1,2:0:0:0:
340,25,8268,1,8,2:0:0:0:
163,48,8430,1,0,2:0:0:0:
162,65,8511,1,0,2:0:0:0:
160,84,8592,6,0,L|111:70,1,40,8|0,2:1|2:0,2:0:0:0:
124,185,8754,2,0,L|99:140,1,40,8|0,2:1|2:0,2:0:0:0:
27,230,8916,2,0,L|41:181,1,40,8|0,2:1|2:0,2:0:0:0:
116,307,9078,6,0,B|154:325|192:290|192:290|232:251|286:293,1,160,4|8,2:0|2:1,2:0:0:0:
235,359,9565,1,8,2:0:0:0:
285,204,9727,1,4,2:0:0:0:
434,298,9889,1,0,2:0:0:0:
351,384,10051,5,8,2:1:0:0:
343,365,10132,1,8,2:1:0:0:
337,345,10214,2,0,L|351:286,1,40,8|0,2:1|2:0,2:0:0:0:
381,210,10376,2,0,L|367:151,1,40,2|2,2:0|2:0,2:0:0:0:
338,90,10538,6,0,P|379:29|446:60,1,160,4|8,2:0|2:0,2:0:0:0:
155,52,11187,2,0,P|126:25|87:26,2,80,0|8|8,2:0|2:1|2:0,2:0:0:0:
25,263,11835,6,0,L|188:243,1,160,4|8,2:0|2:0,2:0:0:0:
220,333,12322,1,8,2:1:0:0:
151,157,12484,2,0,L|73:144,2,80,0|8|8,2:0|2:1|2:0,2:0:0:0:
287,18,13132,6,0,B|256:65|256:65|281:192,1,160,4|8,2:0|2:0,2:0:0:0:
356,230,13619,2,0,P|430:211|526:195,1,160,2|8,2:0|2:1,2:0:0:0:
472,287,14105,1,8,2:0:0:0:
367,140,14268,1,8,2:1:0:0:
338,314,14430,5,4,2:3:0:0:
373,123,14592,6,0,P|318:58|244:62,1,160,12|8,2:0|2:3,2:0:0:0:
206,127,15078,1,8,2:3:0:0:
126,141,15241,1,8,2:3:0:0:
56,101,15403,1,8,2:3:0:0:
36,23,15565,1,8,2:3:0:0:
49,117,15727,6,0,B|27:137|27:137|-3:137,2,53.3333333333333,4|0|8,2:0|2:0|2:0,2:0:0:0:
123,159,16051,6,0,B|112:191|112:191|79:210,2,63.9999980468751,10|8|8,2:0|2:0|2:0,2:0:0:0:
210,142,16376,6,0,B|228:173|228:173|214:219,2,74.6666643880209,10|8|8,2:1|2:1|2:1,2:1:0:0:
262,62,16700,6,0,B|302:79|302:79|322:118,2,85.3333333333333,8|8|8,2:3|2:3|2:3,2:0:0:0:
173,55,17024,5,10,2:0:0:0:
173,55,17187,1,10,2:0:0:0:
0,229,17511,5,2,2:0:0:0:
8,227,17592,1,2,2:0:0:0:
17,224,17673,2,0,P|29:269|24:311,1,80,2|0,2:0|2:0,2:0:0:0:
105,357,18322,6,0,P|174:311|247:301,1,128,4|0,2:0|2:0,2:0:0:0:
407,371,18970,6,0,P|388:340|397:308,1,64,2|0,2:0|2:0,2:0:0:0:
465,299,19295,2,0,P|484:330|475:362,1,64,2|0,2:0|2:0,2:0:0:0:
390,299,19619,5,2,2:0:0:0:
386,273,19781,1,0,2:0:0:0:
313,227,19943,1,2,2:0:0:0:
215,287,20105,1,2,2:0:0:0:
18,384,20430,5,0,2:0:0:0:
18,384,20592,2,0,P|-2:338|7:305,1,64,0|8,2:0|2:1,2:0:0:0:
8,245,20916,6,0,P|46:243|84:153,1,128,4|2,2:3|2:0,2:0:0:0:
12,128,21403,1,0,2:0:0:0:
91,16,21565,2,0,P|38:10|20:-14,1,64,2|0,2:0|2:0,2:0:0:0:
131,87,21889,2,0,P|184:81|202:57,1,64,0|0,2:0|2:0,2:0:0:0:
307,0,22214,6,0,B|335:58|335:58|315:134,1,128,2|2,2:0|2:0,2:0:0:0:
379,177,22700,1,0,2:0:0:0:
379,177,22862,2,0,L|461:166,1,64,2|2,2:0|2:0,2:0:0:0:
496,232,23187,1,2,2:0:0:0:
364,334,23511,5,4,2:0:0:0:
354,352,23673,1,0,2:0:0:0:
285,384,23835,1,2,2:0:0:0:
214,325,23997,1,0,2:0:0:0:
41,345,24159,6,0,L|124:351,1,64,2|0,2:0|2:0,2:0:0:0:
138,240,24484,2,0,L|55:246,1,64,2|0,2:0|2:0,2:0:0:0:
214,325,24808,1,4,2:3:0:0:
265,97,25132,6,0,P|249:79|252:20,1,64,2|0,2:0|2:0,2:0:0:0:
406,41,25457,2,0,P|403:72|384:97,2,64,2|0|2,2:0|2:0|2:0,2:0:0:0:
325,34,25943,1,8,2:1:0:0:
490,118,26105,6,0,P|478:175|472:263,1,128,4|2,2:0|2:0,2:0:0:0:
475,327,26592,1,0,2:0:0:0:
338,298,26754,2,0,P|368:289|400:294,1,64,2|0,2:0|2:0,2:0:0:0:
294,232,27078,2,0,P|256:269|250:295,1,64,2|0,2:0|2:0,2:0:0:0:
211,351,27403,5,2,2:0:0:0:
128,358,27565,1,2,2:0:0:0:
58,312,27727,1,2,2:0:0:0:
51,229,27889,2,0,L|91:239,1,32,8|8,2:0|2:0,2:0:0:0:
98,240,28051,1,8,2:0:0:0:
137,119,28214,6,0,P|58:129|29:82,1,128,4|2,2:3|2:0,2:0:0:0:
251,34,28700,6,0,P|239:92|246:212,1,160,4|8,2:0|2:0,2:0:0:0:
322,357,29349,6,0,P|373:336|405:332,1,80,2|10,2:0|2:1,2:0:0:0:
510,279,29673,2,0,P|459:258|427:254,1,80,10|2,2:0|2:0,2:0:0:0:
381,176,29997,2,0,P|380:136|405:99,2,80,10|2|8,2:1|2:0|2:0,2:0:0:0:
465,159,30484,1,2,2:0:0:0:
286,4,30808,1,2,2:0:0:0:
212,71,30970,2,0,L|113:52,1,80,10|0,2:0|2:0,2:0:0:0:
41,184,31295,5,6,2:0:0:0:
117,241,31457,1,2,2:0:0:0:
34,277,31619,1,10,2:0:0:0:
120,152,31781,1,2,2:0:0:0:
28,289,31943,1,2,2:0:0:0:
125,143,32105,1,10,2:1:0:0:
202,302,32268,6,0,P|243:318|282:302,1,71.9999978027344,8|0,2:0|2:0,2:0:0:0:
282,293,32592,6,0,P|214:300|207:209,1,160,4|8,2:0|2:0,2:0:0:0:
281,208,33078,1,0,2:0:0:0:
281,208,33159,1,0,2:0:0:0:
281,208,33240,1,8,2:0:0:0:
295,376,33403,1,8,2:1:0:0:
204,332,33565,1,8,2:0:0:0:
371,306,33727,2,0,L|412:315,1,40,8|0,2:1|2:0,2:0:0:0:
440,296,33889,6,0,B|437:258|460:222|460:222|424:201|417:153,1,160,4|8,2:0|2:0,2:0:0:0:
457,71,34376,1,0,2:0:0:0:
402,163,34538,1,0,2:0:0:0:
512,156,34700,1,8,2:1:0:0:
386,170,34862,1,8,2:0:0:0:
378,8,35024,1,0,2:0:0:0:
374,177,35187,6,0,B|315:184|315:184|296:172|296:172|222:179,1,120,4|0,2:0|2:0,2:0:0:0:
240,190,35511,2,0,P|226:247|244:303,1,120,8|8,2:0|2:0,2:0:0:0:
257,324,35835,1,8,2:0:0:0:
354,359,35997,1,8,2:1:0:0:
262,309,36159,1,8,2:0:0:0:
186,381,36322,1,8,2:1:0:0:
20,321,36484,6,0,L|101:332,1,80,4|0,2:0|2:0,2:0:0:0:
145,220,36808,2,0,L|65:230,1,80,8|0,2:0|2:0,2:0:0:0:
21,131,37132,5,8,2:1:0:0:
21,131,37295,1,8,2:1:0:0:
78,30,37457,5,8,2:0:0:0:
78,30,37619,2,0,B|100:52|140:38|140:38|175:23|218:46,1,128,4|8,2:0|3:2,2:0:0:0:
208,47,38024,1,8,3:2:0:0:
215,55,38105,6,0,L|198:97,3,32,8|0|8|0,3:2|3:0|3:0|3:0,2:0:0:0:
258,141,38430,2,0,L|245:170,3,32,10|0|8|0,3:0|3:0|3:1|3:0,3:0:0:0:
314,204,38754,1,10,3:2:0:0:
307,218,38835,1,0,3:0:0:0:
301,233,38916,1,8,3:1:0:0:
295,248,38997,1,0,3:0:0:0:
290,264,39078,5,12,2:0:0:0:
437,322,39241,1,8,2:1:0:0:
309,359,39403,5,8,2:0:0:0:
422,216,39565,1,8,2:1:0:0:
296,371,39727,6,0,L|155:352,1,128,8|8,2:1|2:1,2:0:0:0:
79,154,40214,2,0,L|27:162,1,32,8|8,2:1|2:1,2:0:0:0:
19,167,40376,6,0,P|28:115|22:86,1,64,4|0,2:3|2:0,2:0:0:0:
0,253,40700,1,8,2:1:0:0:
74,293,40862,2,0,P|136:245|214:262,1,160,8|8,2:0|2:3,2:0:0:0:
296,370,41349,2,0,P|276:329|285:288,1,80,8|8,2:1|2:3,2:0:0:0:
314,229,41673,5,12,2:0:0:0:
391,384,41835,1,8,2:1:0:0:
403,221,41997,5,8,2:0:0:0:
296,370,42159,1,8,2:1:0:0:
415,212,42322,6,0,L|394:85,1,128,8|8,2:1|2:1,2:0:0:0:
496,25,42808,1,8,2:1:0:0:
496,25,42889,1,8,2:1:0:0:
496,25,42970,6,0,P|442:18|428:-18,1,80,4|0,2:3|2:0,2:0:0:0:
394,85,43295,2,0,P|340:92|326:128,1,80,4|12,2:3|2:0,2:0:0:0:
423,177,43619,6,0,L|506:194,2,63.9999980468751,10|2|2,2:1|2:0|2:0,2:0:0:0:
450,263,43943,2,0,L|533:280,2,63.9999980468751,10|2|2,2:1|2:0|2:0,2:0:0:0:
485,354,44268,1,4,2:0:0:0:
282,302,44592,6,0,L|175:318,1,80,8|2,2:1|2:0,2:0:0:0:
145,384,44916,2,0,B|103:352|103:352|129:234,1,160,8|8,2:1|2:1,2:0:0:0:
19,103,45403,1,8,2:3:0:0:
0,191,45565,2,0,P|48:192|87:146,1,80,4|0,2:3|2:0,2:0:0:0:
121,0,45889,1,8,2:1:0:0:
172,77,46051,2,0,B|196:100|196:100|324:77,1,160,4|8,2:0|2:3,2:0:0:0:
427,15,46538,1,0,2:0:0:0:
512,156,46700,1,8,2:3:0:0:
512,156,46781,1,8,2:3:0:0:
512,156,46862,6,0,L|497:257,1,80,4|0,2:3|2:0,2:0:0:0:
472,344,47187,1,8,2:1:0:0:
398,274,47349,2,0,B|390:252|358:282|358:282|335:205|380:175,1,160,4|8,2:0|2:0,2:0:0:0:
284,338,47835,2,0,P|244:337|211:316,1,80,8|8,2:1|2:3,2:0:0:0:
123,278,48159,5,4,2:3:0:0:
134,379,48322,1,8,2:0:0:0:
134,379,48484,1,8,2:0:0:0:
134,379,48646,1,0,2:0:0:0:
46,340,48808,5,12,2:0:0:0:
211,316,48970,1,8,2:0:0:0:
238,227,49132,5,8,2:1:0:0:
36,169,49294,1,8,2:3:0:0:
140,246,49457,6,0,B|112:224|112:224|131:131,1,128,4|0,2:0|2:0,2:0:0:0:
292,7,50105,2,0,B|320:29|320:29|301:122,1,128,2|8,2:0|2:1,2:0:0:0:
404,205,50592,1,8,2:1:0:0:
467,148,50754,2,0,L|459:75,1,64,4|0,2:0|2:0,2:0:0:0:
404,205,51403,5,4,2:0:0:0:
89,317,52051,6,0,P|9:297|-16:316,2,96,6|2|10,2:0|2:0|2:1,2:0:0:0:
148,384,52700,2,0,P|228:364|253:383,2,96,10|2|2,2:0|2:0|2:0,2:0:0:0:
343,297,53349,6,0,L|332:348,2,42.6666666666667,6|0|8,2:0|2:0|2:0,2:0:0:0:
421,343,53673,2,0,L|410:394,2,42.6666666666667,8|8|8,2:0|2:0|2:0,2:0:0:0:
493,275,53997,6,0,L|482:224,2,42.6666666666667,8|8|8,2:3|2:3|2:3,2:0:0:0:
405,235,54322,2,0,L|394:184,2,42.6666666666667,8|8|8,2:3|2:3|2:3,2:0:0:0:
315,196,54646,5,6,2:0:0:0:
314,202,55943,5,2,2:0:0:0:
313,209,57241,6,0,L|273:200,3,32,6|0|8|0,2:0|2:0|2:1|2:0,2:0:0:0:
361,277,57565,2,0,L|401:268,3,32,8|8|8|8,2:0|2:0|2:0|2:0,2:0:0:0:
308,347,57889,5,10,2:0:0:0:
289,354,57970,1,8,2:0:0:0:
269,358,58051,1,10,2:0:0:0:
249,357,58132,1,8,2:0:0:0:
231,350,58213,1,10,2:0:0:0:
213,341,58294,1,8,2:0:0:0:
193,337,58375,1,10,2:0:0:0:
173,339,58456,1,8,2:0:0:0:
155,345,58538,6,0,P|127:267|146:229,1,120,2|0,2:0|2:0,2:0:0:0:
196,160,59187,6,0,L|225:165,6,20,2|0|0|0|0|0|0,2:0|2:0|2:0|2:0|2:0|2:0|2:0,2:0:0:0:
102,102,59511,6,0,P|63:127|29:67,1,120,2|0,2:0|2:0,2:0:0:0:
28,64,59835,6,0,P|36:147|20:236,1,120.000004577637,4|0,2:0|2:0,2:0:0:0:
10,340,60159,6,0,P|40:314|107:313,1,95.9999970703126,10|2,2:0|2:0,2:0:0:0:
241,374,60484,1,10,2:1:0:0:
174,233,60646,1,0,2:0:0:0:
150,379,60808,1,8,2:0:0:0:
261,281,60970,1,2,2:0:0:0:
383,367,61132,6,0,P|363:317|368:270,1,95.9999970703126,6|0,2:3|2:0,2:0:0:0:
488,104,61457,2,0,P|485:157|462:198,1,95.9999970703126,10|0,2:0|2:0,2:0:0:0:
334,65,61781,5,10,2:1:0:0:
234,152,61943,1,10,2:1:0:0:
99,117,62105,2,0,P|87:53|95:10,1,95.9999970703126,10|0,2:0|2:0,2:0:0:0:
238,169,62430,5,6,2:0:0:0:
337,84,62592,1,2,2:0:0:0:
459,128,62754,1,10,2:0:0:0:
459,128,62916,2,0,P|471:192|443:323,1,191.999994140625,0|8,2:0|2:1,2:0:0:0:
298,365,63403,5,8,2:0:0:0:
304,340,63484,1,8,2:1:0:0:
310,315,63565,1,0,2:0:0:0:
169,332,63727,6,0,B|143:287|143:287|180:200,1,143.999995605469,4|0,2:0|2:0,2:0:0:0:
105,16,64051,6,0,B|79:61|79:61|116:148,1,143.999995605469,8|0,2:0|2:0,2:0:0:0:
76,188,64376,6,0,L|247:165,1,143.999995605469,6|0,2:3|2:0,2:0:0:0:
105,16,64700,5,10,2:0:0:0:
177,212,64862,1,0,2:0:0:0:
173,224,64943,1,8,2:1:0:0:
168,236,65024,6,0,L|216:231,5,31.9999990234375,2|2|2|2|2|2,2:0|2:0|2:0|2:0|2:0|2:0,2:0:0:0:
97,333,65349,6,0,L|217:347,1,95.9999970703126,4|0,2:0|2:0,2:0:0:0:
295,260,65673,6,0,P|301:329|388:360,1,160,2|8,2:0|2:0,2:0:0:0:
417,241,66159,1,0,2:0:0:0:
336,108,66322,6,0,B|368:150|368:150|478:125,1,160,6|10,2:3|2:0,2:0:0:0:
233,15,66970,1,10,2:1:0:0:
166,120,67132,1,10,2:1:0:0:
44,15,67295,2,0,P|83:48|140:31,1,95.9999970703126,8|0,2:0|2:0,2:0:0:0:
78,125,67619,6,0,L|95:317,1,191.999994140625,4|8,2:0|2:0,2:0:0:0:
24,370,68105,1,2,2:0:0:0:
180,270,68268,1,10,2:1:0:0:
180,270,68430,1,10,2:1:0:0:
20,260,68592,2,0,P|69:239|79:194,1,95.9999970703126,10|8,2:0|2:1,2:0:0:0:
253,344,68916,6,0,B|336:354|336:354|362:335|362:335|470:344,2,191.999994140625,10|10|10,2:0|2:0|2:3,2:0:0:0:
79,317,69727,1,10,2:3:0:0:
241,215,69889,1,10,2:3:0:0:
180,384,70051,1,10,2:3:0:0:
180,384,70132,1,8,2:3:0:0:
180,384,70214,2,0,B|168:324|168:324|242:214,1,191.999994140625,4|8,2:0|2:0,2:0:0:0:
443,176,70700,5,0,2:0:0:0:
442,277,70862,2,0,P|401:282|363:232,1,95.9999970703126,10|10,2:1|2:1,2:0:0:0:
312,127,71187,1,10,2:0:0:0:
450,23,71349,2,0,B|403:52|360:11|360:11|321:-28|265:14,1,191.999994140625,2|0,2:3|2:0,2:0:0:0:
194,221,71835,6,0,B|232:174|232:174|205:44,1,191.999994140625,8|10,2:0|2:1,2:0:0:0:
116,0,72322,1,10,2:1:0:0:
302,87,72484,1,10,2:0:0:0:
102,147,72646,2,0,P|78:193|122:319,1,191.999994140625,2|0,2:0|2:0,2:0:0:0:
264,256,73132,5,8,2:0:0:0:
348,364,73295,1,0,2:0:0:0:
475,226,73457,1,10,2:1:0:0:
475,226,73619,1,10,2:1:0:0:
311,116,73781,2,0,P|348:107|372:53,1,95.9999970703126,10|0,2:0|2:0,2:0:0:0:
235,168,74105,6,0,L|213:59,1,95.9999970703126,6|8,2:0|2:1,2:0:0:0:
125,41,74348,6,0,L|41:113,1,95.9999970703126,2|0,2:0|2:0,2:0:0:0:
70,197,74592,5,10,2:1:0:0:
216,73,74754,6,0,L|111:37,1,95.9999970703126,10|8,2:0|2:1,2:0:0:0:
52,103,74997,6,0,L|70:197,1,95.9999970703126,2|0,2:0|2:0,2:0:0:0:
161,239,75241,5,10,2:0:0:0:
158,250,75322,1,8,2:0:0:0:
155,261,75403,6,0,P|195:252|272:240,1,95.9999970703126,4|0,2:0|2:0,2:0:0:0:
191,156,75727,1,10,2:0:0:0:
297,86,75889,6,0,P|337:95|414:107,1,95.9999970703126,2|8,2:0|2:1,2:0:0:0:
218,151,76213,1,2,2:0:0:0:
325,276,76376,6,0,P|386:259|527:235,1,191.999994140625,10|4,2:0|2:3,2:0:0:0:
445,89,77024,6,0,P|404:112|338:90,1,95.9999970703126,8|0,2:0|2:0,2:0:0:0:
390,19,77349,1,8,2:1:0:0:
390,19,77511,1,8,2:1:0:0:
507,156,77673,6,0,P|472:212|468:299,1,143.999995605469,8|0,2:0|2:0,2:0:0:0:
474,320,77997,5,4,2:0:0:0:
376,365,78159,1,8,2:1:0:0:
331,267,78322,1,8,2:1:0:0:
429,222,78484,1,8,2:1:0:0:
454,211,78646,5,8,2:0:0:0:
319,246,78808,1,8,2:0:0:0:
354,383,78971,1,8,2:0:0:0:
489,348,79133,1,8,2:0:0:0:
319,246,79295,6,0,L|129:274,1,180.000006866455,4|8,2:0|2:3,2:0:0:0:
37,374,79943,2,0,L|55:247,1,120.000004577637,0|8,2:0|2:3,2:0:0:0:
116,185,80592,5,2,2:0:0:0:
256,192,80673,12,2,81889,2:0:0:0:
93,321,82214,6,0,B|169:344|169:344|211:261,2,160,0|0|0,2:0|2:0|2:0,2:0:0:0:
118,228,83187,5,10,2:1:0:0:
329,219,85781,5,10,2:1:0:0:
408,197,85943,1,2,2:0:0:0:
411,115,86105,1,10,2:1:0:0:
335,87,86268,1,2,2:0:0:0:
284,151,86430,2,0,L|305:255,1,90.0000034332277,10|0,2:1|2:0,2:0:0:0:
310,267,86754,5,10,2:1:0:0:
207,212,86916,1,2,2:0:0:0:
204,307,87078,5,10,2:1:0:0:
339,165,87241,1,2,2:0:0:0:
204,307,87565,5,10,2:1:0:0:
206,322,87646,1,8,2:1:0:0:
208,337,87727,2,0,L|116:319,2,80,8|8|8,2:0|2:3|2:3,2:0:0:0:
295,335,88214,1,8,2:3:0:0:
310,333,88295,1,0,2:0:0:0:
325,331,88376,6,0,P|335:283|298:194,2,121.212121212121,4|8|8,2:0|0:3|0:3,2:0:0:0:
410,369,89024,2,0,P|449:324|506:303,2,121.212121212121,4|8|8,0:3|0:3|0:0,2:0:0:0:
495,219,89673,2,0,P|437:207|396:169,1,106.666666666667,4|8,2:3|2:0,2:0:0:0:
427,91,89997,5,8,2:0:0:0:
258,0,90214,5,8,2:0:0:0:
228,84,90322,2,0,L|237:142,2,53.3333333333333,8|8|8,2:1|2:1|2:1,2:0:0:0:
7,196,90808,5,2,2:0:0:0:
4,186,90889,1,2,2:0:0:0:
0,176,90970,2,0,P|49:162|169:299,2,240,4|2|2,2:0|2:0|2:0,2:0:0:0:
72,319,92268,6,0,B|161:331|161:331|203:303|203:303|301:318,1,240,2|0,2:0|2:0,2:0:0:0:
346,244,92916,6,0,B|317:180|344:123|344:123|375:180|345:245,1,240,0|0,2:0|2:0,2:0:0:0:
428,296,93565,6,0,P|477:297|492:370,1,128,4|0,2:0|2:0,2:0:0:0:
301,318,94214,2,0,B|321:284|321:284|282:178,1,128,8|0,2:0|2:0,2:0:0:0:
204,155,94700,1,8,2:0:0:0:
122,208,94862,2,0,L|111:279,1,64,2|0,2:0|2:0,2:0:0:0:
53,130,95187,2,0,L|32:18,1,96,2|0,2:0|2:0,2:0:0:0:
30,10,95511,5,8,2:0:0:0:
144,81,95673,1,2,2:0:0:0:
31,288,95997,6,0,L|21:345,1,32,0|0,2:0|2:0,2:0:0:0:
19,350,96159,2,0,L|172:313,1,128,4|0,2:0|2:0,2:0:0:0:
260,363,96646,1,0,2:0:0:0:
249,345,96808,2,0,L|263:255,1,64,8|0,2:0|2:0,2:0:0:0:
359,325,97132,2,0,L|373:235,1,64,0|8,2:0|2:0,2:0:0:0:
436,179,97457,6,0,L|420:57,1,96,2|0,2:0|2:0,2:0:0:0:
417,59,97781,5,8,2:1:0:0:
512,143,97943,1,2,2:0:0:0:
440,197,98105,2,0,L|367:183,1,60,8|0,2:0|2:0,2:0:0:0:
361,182,98430,1,2,2:0:0:0:
491,324,98754,6,0,B|391:276|307:330|307:330|218:391|107:337|107:337|133:322|150:281,1,448,6|0,2:3|2:0,2:0:0:0:
60,206,100051,6,0,B|54:234|62:261|62:261|-26:172|32:22|32:22|165:53|213:177,1,560,4|0,2:3|2:0,2:0:0:0:
368,225,101349,5,4,2:3:0:0:
368,138,101511,1,2,2:0:0:0:
293,181,101673,1,2,2:0:0:0:
293,267,101835,5,8,2:0:0:0:
442,181,101997,1,2,2:0:0:0:
293,96,102159,1,2,2:0:0:0:
346,185,102322,5,4,2:3:0:0:
346,185,102808,5,8,2:0:0:0:
346,185,102970,1,10,2:1:0:0:
346,185,103132,1,10,2:1:0:0:
26,311,103457,6,0,L|119:326,1,80,2|0,2:0|2:0,2:0:0:0:
150,243,103943,5,4,2:0:0:0:
150,243,104105,1,0,2:0:0:0:
191,368,104268,1,8,2:0:0:0:
191,368,104430,1,0,2:0:0:0:
248,285,104592,6,0,P|292:278|326:308,1,80,2|10,2:0|2:1,2:0:0:0:
407,358,104916,2,0,P|406:307|432:265,1,80,10|2,2:0|2:0,2:0:0:0:
494,229,105241,1,10,2:1:0:0:
414,266,105403,1,10,2:1:0:0:
343,202,105565,1,8,2:0:0:0:
386,114,105727,1,0,2:0:0:0:
160,32,106051,5,10,2:1:0:0:
223,104,106214,2,0,P|249:75|249:35,1,80,8|0,2:0|2:0,2:0:0:0:
58,100,106538,5,6,2:0:0:0:
19,172,106700,1,2,2:0:0:0:
94,209,106862,1,10,2:0:0:0:
129,136,107024,1,2,2:0:0:0:
52,83,107187,1,2,2:0:0:0:
100,226,107349,1,10,2:1:0:0:
6,336,107511,6,0,L|80:321,1,71.9999978027344,8|0,2:0|2:0,2:0:0:0:
96,303,107835,2,0,L|235:327,1,120,4|0,2:3|2:0,2:0:0:0:
242,298,108159,5,8,2:0:0:0:
264,287,108240,1,0,2:0:0:0:
288,292,108321,1,0,2:0:0:0:
309,306,108402,1,0,2:0:0:0:
328,322,108483,1,2,2:0:0:0:
347,338,108564,1,0,2:0:0:0:
368,351,108645,1,8,2:1:0:0:
393,356,108726,1,0,2:0:0:0:
416,346,108808,2,0,L|404:291,3,40,10|0|0|0,2:0|2:0|2:0|2:0,2:0:0:0:
500,289,109132,6,0,B|486:239|486:239|515:125,1,160,4|8,2:0|2:0,2:0:0:0:
402,84,109619,1,0,2:0:0:0:
302,151,109781,1,2,2:0:0:0:
397,77,109943,1,10,2:1:0:0:
409,199,110105,1,10,2:0:0:0:
394,71,110268,1,2,2:0:0:0:
278,34,110430,6,0,L|123:53,1,120,4|0,2:0|2:0,2:0:0:0:
125,72,110754,2,0,B|141:100|144:128|144:128|160:98|185:76,1,120,8|0,2:0|2:0,2:0:0:0:
158,48,111078,5,2,2:0:0:0:
65,128,111241,1,8,2:1:0:0:
232,141,111403,1,10,2:0:0:0:
49,15,111565,1,0,2:0:0:0:
78,229,111727,6,0,L|-4:214,1,80,4|0,2:0|2:0,2:0:0:0:
128,333,112051,2,0,L|46:348,1,80,8|0,2:0|2:0,2:0:0:0:
180,243,112376,5,8,2:1:0:0:
266,200,112538,1,8,2:1:0:0:
380,221,112700,5,8,2:0:0:0:
458,354,112862,2,0,L|277:339,1,160,4|0,2:0|3:0,2:0:0:0:
285,335,113268,1,0,3:0:0:0:
275,323,113349,6,0,P|275:280|279:266,3,40,8|0|8|0,3:0|3:0|3:0|3:0,2:0:0:0:
154,278,113673,2,0,P|191:299|201:309,3,40,4|0|8|0,3:2|3:0|3:1|3:0,3:0:0:0:
256,192,113997,5,8,3:0:0:0:
248,198,114078,1,0,3:0:0:0:
239,203,114159,1,8,3:1:0:0:
231,208,114240,1,0,3:0:0:0:
221,212,114321,5,12,2:0:0:0:
265,68,114484,1,8,2:1:0:0:
368,167,114646,5,8,2:0:0:0:
254,46,114808,1,8,2:1:0:0:
216,234,114970,6,0,B|182:272|182:272|51:235,1,160,8|8,2:1|2:1,2:0:0:0:
36,81,115457,6,0,L|84:72,1,40,8|8,2:0|2:0,2:0:0:0:
102,71,115619,2,0,P|102:128|76:167,1,80,4|0,2:3|2:0,2:0:0:0:
3,182,115943,1,8,2:1:0:0:
180,0,116105,6,0,P|209:71|282:97,1,160,12|8,2:0|2:3,2:0:0:0:
440,42,116592,2,0,P|401:46|368:67,1,80,8|8,2:1|2:3,2:0:0:0:
344,156,116916,5,12,2:0:0:0:
467,211,117078,1,8,2:1:0:0:
345,273,117241,5,8,2:0:0:0:
495,213,117403,1,8,2:1:0:0:
314,148,117565,6,0,B|290:102|290:102|328:-17,1,160,8|8,2:1|2:1,2:0:0:0:
158,103,118051,1,8,2:0:0:0:
158,103,118132,1,8,2:0:0:0:
158,103,118214,2,0,L|145:24,1,80,4|0,2:3|2:0,2:0:0:0:
44,97,118538,2,0,L|57:176,1,80,10|8,2:1|2:0,2:0:0:0:
31,346,118862,6,0,P|58:329|89:331,2,63.9999980468751,2|2|2,2:0|2:0|2:0,2:0:0:0:
134,260,119187,2,0,P|161:275|175:303,2,63.9999980468751,2|2|2,2:0|2:0|2:0,2:0:0:0:
244,356,119511,1,4,2:0:0:0:
504,240,119835,6,0,B|480:220|480:220|421:236,1,80,8|0,2:1|2:0,2:0:0:0:
305,311,120159,2,0,B|329:331|329:331|388:315,1,80,8|8,2:1|2:0,2:0:0:0:
442,206,120484,1,8,2:1:0:0:
323,93,120646,1,8,2:3:0:0:
322,93,120808,2,0,P|252:113|178:46,1,160,4|8,2:3|2:1,2:0:0:0:
56,144,121295,6,0,P|108:150|139:121,1,80,12|0,2:0|2:0,2:0:0:0:
263,216,121619,2,0,P|211:222|180:193,1,80,8|8,2:3|2:3,2:0:0:0:
285,302,121943,1,8,2:3:0:0:
277,326,122024,1,8,2:3:0:0:
270,352,122105,6,0,P|306:335|358:328,1,80,4|0,2:3|2:0,2:0:0:0:
431,384,122430,1,8,2:1:0:0:
445,131,122592,6,0,P|425:218|432:296,1,160,4|8,2:0|2:0,2:0:0:0:
504,9,123078,2,0,P|470:30|431:30,1,80,8|8,2:1|2:1,2:0:0:0:
356,93,123402,5,8,2:1:0:0:
445,131,123565,1,8,2:0:0:0:
445,131,123727,1,8,2:0:0:0:
445,131,123889,1,0,2:0:0:0:
431,30,124051,5,8,2:0:0:0:
368,192,124213,1,8,2:0:0:0:
264,52,124376,5,8,2:1:0:0:
445,131,124539,1,8,2:1:0:0:
300,253,124700,6,0,B|270:275|270:275|145:214,1,160,4|0,2:0|2:0,2:0:0:0:
35,16,125349,2,0,B|69:30|69:30|78:169,1,160,2|0,2:0|2:0,2:0:0:0:
15,363,125997,6,0,P|63:335|118:337,1,80,4|0,2:0|2:0,2:0:0:0:
162,375,126646,1,4,2:0:0:0:
342,266,127295,6,0,P|332:322|374:361,2,120,6|2|10,2:0|2:0|2:1,2:0:0:0:
464,334,127943,2,0,P|473:277|431:238,2,120,10|2|2,2:0|2:0|2:0,2:0:0:0:
403,144,128592,6,0,P|430:144|454:133,2,53.3333333333333,6|0|8,2:0|2:0|2:0,2:0:0:0:
302,98,128916,2,0,P|275:98|251:109,2,53.3333333333333,8|8|8,2:0|2:0|2:0,2:0:0:0:
329,172,129241,6,0,P|330:198|341:222,2,53.3333333333333,8|8|8,2:3|2:3|2:3,2:0:0:0:
376,70,129565,2,0,P|375:44|364:20,2,53.3333333333333,8|8|8,2:3|2:3|2:3,2:0:0:0:
329,172,129889,5,6,2:0:0:0:
328,178,131187,1,2,2:0:0:0:
331,185,132484,6,0,L|316:122,3,40,6|0|8|0,2:0|2:0|2:1|2:0,2:0:0:0:
224,145,132808,2,0,L|233:106,3,40,8|8|8|8,2:0|2:0|2:0|2:0,2:0:0:0:
132,218,133132,5,10,2:0:0:0:
131,199,133213,1,8,2:0:0:0:
129,179,133294,1,10,2:0:0:0:
127,159,133375,1,8,2:0:0:0:
125,139,133456,1,10,2:0:0:0:
123,119,133537,1,8,2:0:0:0:
122,99,133618,1,10,2:0:0:0:
120,79,133699,1,8,2:0:0:0:
118,59,133781,6,0,P|47:66|11:121,1,120,2|0,2:0|2:0,2:0:0:0:
267,67,134430,6,0,L|271:33,6,20,2|0|0|0|0|0|0,2:0|2:0|2:0|2:0|2:0|2:0|2:0,2:0:0:0:
325,149,134754,6,0,L|452:132,1,120,2|0,2:0|2:0,2:0:0:0:
457,123,135078,6,0,B|438:120|426:107|426:107|411:153|463:177,1,120.000004577637,4|0,2:0|2:0,2:0:0:0:
475,345,135403,6,0,P|453:299|408:279,1,95.9999970703126,8|0,2:0|2:0,2:0:0:0:
326,297,135727,1,8,2:1:0:0:
385,365,135889,1,8,2:1:0:0:
356,212,136051,1,8,2:0:0:0:
237,313,136214,1,2,2:0:0:0:
356,212,136376,6,0,L|251:222,1,95.9999970703126,4|0,2:3|2:0,2:0:0:0:
141,308,136700,2,0,L|237:313,1,95.9999970703126,8|0,2:0|2:0,2:0:0:0:
182,49,137024,5,8,2:1:0:0:
175,155,137187,1,8,2:1:0:0:
260,221,137349,2,0,L|357:213,1,95.9999970703126,8|0,2:0|2:0,2:0:0:0:
197,43,137673,5,4,2:0:0:0:
190,162,137835,1,0,2:0:0:0:
80,205,137997,1,8,2:0:0:0:
79,205,138159,2,0,B|6:170|6:170|4:106|78:101,1,191.999994140625,0|8,2:0|2:1,2:0:0:0:
165,272,138647,5,8,2:0:0:0:
159,297,138728,1,0,2:0:0:0:
153,322,138809,1,0,2:0:0:0:
248,347,138970,6,0,B|274:341|293:321|293:321|333:311|380:358,1,143.999995605469,4|0,2:3|2:0,2:0:0:0:
497,205,139295,6,0,B|471:199|452:179|452:179|412:169|365:216,1,143.999995605469,8|0,2:0|2:0,2:0:0:0:
386,368,139620,6,0,L|363:220,1,143.999995605469,10|0,2:1|2:0,2:0:0:0:
248,347,139944,5,10,2:0:0:0:
362,212,140105,1,0,2:0:0:0:
358,197,140186,1,8,2:1:0:0:
356,185,140267,6,0,L|401:199,5,31.9999990234375,2|2|2|2|2|2,2:0|2:0|2:0|2:0|2:0|2:0,2:0:0:0:
262,156,140593,6,0,P|288:117|284:62,1,95.9999970703126,4|0,2:0|2:0,2:0:0:0:
208,22,140916,6,0,L|19:50,1,160,2|8,2:0|2:0,2:0:0:0:
78,173,141403,1,0,2:0:0:0:
41,280,141566,6,0,B|73:322|73:322|183:297,1,160,4|8,2:3|2:0,2:0:0:0:
390,101,142214,1,8,2:1:0:0:
322,47,142376,1,8,2:1:0:0:
461,142,142538,2,0,P|443:204|460:244,1,95.9999970703126,8|0,2:0|2:0,2:0:0:0:
367,332,142863,6,0,L|523:307,2,143.999995605469,4|2|0,2:0|2:0|2:0,2:0:0:0:
225,268,143512,1,10,2:1:0:0:
225,268,143674,1,10,2:1:0:0:
113,378,143835,2,0,P|126:321|91:267,1,95.9999970703126,10|2,2:0|2:0,2:0:0:0:
14,142,144160,6,0,B|4:225|4:225|23:251|23:251|14:359,2,191.999994140625,14|10|8,2:0|2:0|2:3,2:0:0:0:
140,22,144970,1,8,2:3:0:0:
182,203,145132,1,8,2:3:0:0:
14,142,145294,1,8,2:3:0:0:
14,142,145375,1,8,2:3:0:0:
14,142,145457,2,0,B|109:138|109:138|184:204,1,191.999994140625,4|8,2:0|2:0,2:0:0:0:
372,235,145944,5,0,2:0:0:0:
276,269,146105,2,0,P|305:317|359:328,1,95.9999970703126,10|10,2:1|2:1,2:0:0:0:
292,159,146431,1,10,2:0:0:0:
473,251,146593,2,0,B|499:203|499:203|459:50,1,191.999994140625,2|0,2:0|2:0,2:0:0:0:
284,173,147078,6,0,P|205:161|166:57,1,191.999994140625,8|10,2:0|2:1,2:0:0:0:
242,0,147566,1,10,2:1:0:0:
72,22,147728,1,10,2:0:0:0:
179,166,147889,2,0,B|186:224|163:255|163:255|133:311|146:359,1,191.999994140625,2|0,2:0|2:0,2:0:0:0:
250,319,148376,5,8,2:0:0:0:
133,354,148539,1,8,2:1:0:0:
41,213,148701,1,8,2:1:0:0:
41,213,148863,1,0,2:0:0:0:
205,110,149025,2,0,P|242:101|266:47,1,95.9999970703126,8|0,2:0|2:0,2:0:0:0:
113,89,149349,6,0,L|130:226,1,95.9999970703126,6|8,2:0|2:1,2:0:0:0:
186,245,149592,6,0,L|313:298,1,95.9999970703126,2|0,2:0|2:0,2:0:0:0:
362,244,149835,5,10,2:1:0:0:
174,340,149997,6,0,L|191:203,1,95.9999970703126,6|8,2:0|2:1,2:0:0:0:
247,184,150240,6,0,L|374:130,1,95.9999970703126,2|0,2:0|2:0,2:0:0:0:
420,190,150483,5,10,2:0:0:0:
414,206,150565,1,8,2:0:0:0:
409,221,150646,6,0,L|521:185,1,95.9999970703126,4|0,2:0|2:0,2:0:0:0:
335,146,150971,1,8,2:0:0:0:
308,248,151132,6,0,L|395:326,1,95.9999970703126,2|8,2:0|2:1,2:0:0:0:
335,146,151457,1,8,2:1:0:0:
213,199,151620,6,0,L|170:394,1,191.999994140625,8|4,2:0|2:0,2:0:0:0:
396,87,152268,6,0,P|352:105|306:96,1,95.9999970703126,8|0,2:0|2:0,2:0:0:0:
345,0,152593,1,8,2:1:0:0:
345,0,152755,1,2,2:0:0:0:
497,218,152916,2,0,L|328:190,1,143.999995605469,8|0,2:0|2:0,2:0:0:0:
328,191,153241,5,4,2:0:0:0:
240,224,153403,1,0,2:0:0:0:
224,316,153565,1,8,2:0:0:0:
295,375,153727,1,0,2:0:0:0:
313,268,153889,5,8,2:1:0:0:
229,198,154051,1,8,2:1:0:0:
126,235,154214,1,8,2:0:0:0:
108,342,154376,1,8,2:1:0:0:
295,375,154538,5,4,2:0:0:0:
313,268,154700,1,8,2:0:0:0:
396,337,154862,1,8,2:0:0:0:
396,337,155024,1,8,2:1:0:0:
153,285,155187,5,8,2:0:0:0:
135,178,155349,1,8,2:3:0:0:
52,247,155511,1,8,2:3:0:0:
54,259,155592,1,0,2:0:0:0:
56,271,155673,1,8,2:3:0:0:
59,282,155754,1,8,2:3:0:0:
61,294,155835,1,2,2:0:0:0:
256,192,155916,12,2,157132,2:0:0:0:
52,139,157781,5,8,3:0:0:0:
55,150,157862,1,0,3:0:0:0:
58,162,157943,1,0,3:0:0:0:
61,173,158024,1,0,3:0:0:0:
88,194,158105,5,8,2:0:0:0:
80,216,158186,1,8,2:3:0:0:
73,239,158267,1,8,2:3:0:0:
67,263,158348,1,8,2:3:0:0:
64,287,158429,5,4,2:0:0:0:
10,268,168808,6,0,B|20:242|50:231|75:246|80:266|80:266|76:299|103:330|141:324|157:299,1,191.999994140625,12|8,2:0|2:0,2:0:0:0:
427,42,170105,6,0,P|397:118|431:315,1,287.999991210938,2|0,2:0|2:0,2:0:0:0:
496,261,171241,5,2,2:0:0:0:
496,261,171322,1,2,2:0:0:0:
496,261,171403,2,0,P|465:231|398:234,2,95.9999970703126,4|0|8,2:3|2:0|2:0,2:0:0:0:
0,259,172538,5,2,2:0:0:0:
0,259,172619,1,2,2:0:0:0:
0,259,172700,1,2,2:0:0:0:
99,243,172862,1,8,2:0:0:0:
194,339,173024,1,8,2:1:0:0:
0,259,173349,6,0,P|-3:211|9:165,1,95.9999970703126,8|12,2:0|2:0,2:0:0:0:
14,91,173835,1,0,2:0:0:0:
14,91,173916,1,0,2:0:0:0:
14,91,173997,5,8,2:1:0:0:
76,130,174159,1,2,2:0:0:0:
135,64,174322,1,8,2:1:0:0:
200,127,174484,1,2,2:0:0:0:
267,32,174646,1,8,2:1:0:0:
334,135,174808,1,8,2:1:0:0:
395,5,174970,1,8,2:1:0:0:
475,144,175132,1,2,2:0:0:0:
469,153,175214,1,0,2:0:0:0:
461,163,175295,6,0,P|463:196|473:219,3,40,4|0|2|0,2:3|2:0|2:0|2:0,2:0:0:0:
402,247,175619,2,0,P|426:268|455:281,3,44.0000013427735,8|0|2|0,2:1|2:0|2:0|2:0,2:0:0:0:
491,362,175943,5,8,2:1:0:0:
469,359,176024,1,0,2:0:0:0:
447,357,176105,1,2,2:0:0:0:
425,355,176186,1,0,2:0:0:0:
403,353,176267,1,8,2:0:0:0:
381,351,176348,1,8,2:0:0:0:
359,349,176429,1,8,2:0:0:0:
337,347,176510,1,8,2:0:0:0:
315,345,176591,5,12,2:0:0:0:
194,281,176754,1,8,2:0:0:0:
194,281,176916,1,8,2:0:0:0:
194,281,177078,1,8,2:0:0:0:
343,266,177241,5,8,2:0:0:0:
167,357,177404,1,8,2:0:0:0:
167,357,177565,1,8,2:0:0:0:
167,357,177727,1,8,2:0:0:0:
156,182,177889,5,2,2:0:0:0:
255,124,178051,1,8,2:3:0:0:
255,124,178132,1,0,2:0:0:0:
255,124,178214,1,8,2:1:0:0:
350,182,178376,1,10,2:3:0:0:
132,98,178538,5,10,2:1:0:0:
183,267,178700,1,10,2:1:0:0:
256,139,178862,1,10,2:0:0:0:
325,267,179024,1,10,2:1:0:0:
376,98,179187,6,0,L|385:139,3,40,2|0|0|0,2:0|2:0|2:0|2:0,2:0:0:0:
460,227,180484,6,0,L|469:186,3,40,2|0|0|0,2:0|2:0|2:0|2:0,2:0:0:0:
387,296,181781,6,0,L|396:336,3,40,2|0|0|0,2:0|2:0|2:0|2:0,2:0:0:0:
325,187,183078,6,0,L|316:228,2,40,2|0|0,2:0|2:0|2:0,2:0:0:0:
272,130,183565,2,0,L|182:144,1,80,2|0,2:0|2:0,2:0:0:0:
129,93,184051,1,2,2:0:0:0:
15,248,184376,5,2,2:0:0:0:
76,307,184538,2,0,L|62:363,2,40,0|0|0,2:0|2:0|2:0,2:0:0:0:
143,364,185673,5,2,2:0:0:0:
202,303,185835,2,0,L|258:317,2,40,0|0|0,2:0|2:0|2:0,2:0:0:0:
259,236,186970,5,2,2:0:0:0:
198,177,187132,2,0,L|212:121,2,40,0|0|0,2:0|2:0|2:0,2:0:0:0:
131,120,188268,5,2,2:0:0:0:
50,152,197187,5,2,0:0:0:0:
50,152,197268,1,2,0:0:0:0:
50,152,197349,2,0,B|-14:113|-1:0|85:53|85:53|166:-14|225:99|101:117|145:252,1,480,0|0,2:0|2:0,2:0:0:0:
276,333,198646,5,8,2:0:0:0:
365,193,198808,1,8,2:0:0:0:
391,298,199295,6,0,L|395:333,6,20,2|0|0|0|0|0|0,2:0|2:0|2:0|2:0|2:0|2:0|2:0,2:0:0:0:
251,209,199619,6,0,L|273:89,1,120,2|0,2:0|2:0,2:0:0:0:
276,72,199943,6,0,P|221:94|166:64,1,120.000004577637,4|0,2:0|2:0,2:0:0:0:
407,22,200268,6,0,L|387:120,1,95.9999970703126,8|0,2:0|2:0,2:0:0:0:
462,251,200593,1,8,2:1:0:0:
320,188,200754,1,0,2:0:0:0:
473,156,200916,1,8,2:0:0:0:
369,271,201077,1,2,2:0:0:0:
226,185,201241,6,0,P|190:224|197:282,1,95.9999970703126,4|0,2:3|2:0,2:0:0:0:
37,338,201565,2,0,P|89:349|136:314,1,95.9999970703126,8|0,2:0|2:0,2:0:0:0:
27,217,201890,5,8,2:1:0:0:
200,272,202051,1,8,2:1:0:0:
79,131,202214,2,0,P|67:67|75:24,1,95.9999970703126,8|0,2:0|2:0,2:0:0:0:
197,151,202539,5,4,2:0:0:0:
16,215,202701,1,0,2:0:0:0:
216,279,202862,1,8,2:0:0:0:
216,279,203024,2,0,L|417:254,1,191.999994140625,2|8,2:0|2:1,2:0:0:0:
500,384,203512,5,8,2:0:0:0:
506,359,203593,1,0,2:0:0:0:
512,334,203674,1,0,2:0:0:0:
329,330,203835,6,0,B|291:282|296:230|296:230|318:210|322:185,1,143.999995605469,4|0,2:3|2:0,2:0:0:0:
468,80,204159,6,0,B|502:134|501:180|501:180|479:200|475:225,1,143.999995605469,8|0,2:0|2:0,2:0:0:0:
326,194,204484,6,0,L|478:214,1,143.999995605469,6|0,2:3|2:0,2:0:0:0:
329,330,204809,5,10,2:0:0:0:
483,215,204971,1,0,2:0:0:0:
495,217,205052,1,8,2:1:0:0:
508,219,205133,6,0,L|494:172,5,31.9999990234375,2|2|2|2|2|2,2:0|2:0|2:0|2:0|2:0|2:0,2:0:0:0:
364,102,205458,6,0,P|413:129|459:113,1,95.9999970703126,4|0,2:0|2:0,2:0:0:0:
281,12,205781,6,0,P|247:82|169:78,1,160,2|8,2:0|2:0,2:0:0:0:
86,16,206268,1,2,2:0:0:0:
57,175,206431,6,0,B|25:221|25:221|64:355,1,191.999994140625,10|10,2:1|2:0,2:0:0:0:
331,164,207079,1,10,2:1:0:0:
422,206,207241,1,10,2:1:0:0:
450,105,207403,2,0,L|428:-2,1,95.9999970703126,8|0,2:0|2:0,2:0:0:0:
331,164,207727,6,0,P|324:226|324:360,1,191.999994140625,4|10,2:0|2:0,2:0:0:0:
402,384,208214,1,2,2:0:0:0:
229,325,208377,1,10,2:1:0:0:
229,325,208539,1,10,2:1:0:0:
362,250,208701,2,0,P|411:229|421:184,1,95.9999970703126,10|10,2:0|2:1,2:0:0:0:
293,0,209024,6,0,P|284:66|276:217,2,191.999994140625,14|10|8,2:0|2:0|2:0,2:0:0:0:
119,101,209835,1,8,2:0:0:0:
104,120,209916,1,8,2:0:0:0:
85,133,209997,1,8,2:3:0:0:
62,140,210078,1,8,2:3:0:0:
38,138,210159,1,8,2:0:0:0:
17,128,210240,1,8,2:3:0:0:
0,110,210322,6,0,L|210:147,1,191.999994140625,4|8,2:0|2:0,2:0:0:0:
501,146,210970,5,10,2:0:0:0:
361,183,211132,1,10,2:1:0:0:
370,89,211294,5,10,2:0:0:0:
492,242,211457,1,10,2:1:0:0:
364,76,211619,6,0,P|285:80|236:94,1,95.9999970703126,8|8,2:0|2:1,2:0:0:0:
77,157,211943,2,0,P|156:161|205:175,1,95.9999970703126,10|8,2:0|2:1,2:0:0:0:
247,281,212268,5,10,2:0:0:0:
247,281,212349,1,0,2:0:0:0:
247,281,212430,1,10,2:1:0:0:
169,153,212592,1,10,2:0:0:0:
177,356,212754,1,10,2:1:0:0:
332,267,212916,6,0,P|402:288|433:320,1,95.9999970703126,12|0,2:0|2:0,2:0:0:0:
194,364,213241,2,0,P|124:343|93:311,1,95.9999970703126,8|8,2:0|2:1,2:0:0:0:
36,177,213565,5,8,2:0:0:0:
174,228,213727,1,8,2:1:0:0:
40,272,213889,5,8,2:0:0:0:
167,124,214051,1,8,2:1:0:0:
304,256,214214,6,0,L|317:131,1,95.9999970703126,4|8,2:0|2:1,2:0:0:0:
286,130,214458,1,8,2:1:0:0:
286,130,214538,1,8,2:0:0:0:
469,218,214700,6,0,L|482:343,1,95.9999970703126,2|8,2:0|2:3,2:0:0:0:
451,344,214943,1,8,2:1:0:0:
423,348,215024,1,8,2:1:0:0:
396,346,215105,1,8,2:1:0:0:
370,338,215186,1,8,2:3:0:0:
347,323,215267,1,8,2:1:0:0:
322,312,215348,1,8,2:1:0:0:
295,309,215429,1,8,2:1:0:0:
267,314,215511,6,0,L|282:185,1,95.9999970703126,4|0,2:0|2:0,2:0:0:0:
347,148,215836,1,8,2:0:0:0:
172,269,215997,6,0,L|187:140,1,95.9999970703126,2|8,2:0|2:1,2:0:0:0:
356,141,216322,1,0,2:0:0:0:
74,244,216484,6,0,L|98:17,1,191.999994140625,8|4,2:0|2:0,2:0:0:0:
387,244,217132,6,0,L|398:339,1,95.9999970703126,8|0,2:0|2:0,2:0:0:0:
483,356,217457,1,8,2:1:0:0:
483,356,217619,1,8,2:1:0:0:
310,322,217781,2,0,B|282:347|282:347|176:331,1,143.999995605469,8|0,2:0|2:0,2:0:0:0:
145,327,218106,5,4,2:0:0:0:
85,247,218268,1,8,2:1:0:0:
157,169,218430,1,8,2:1:0:0:
101,92,218592,1,8,2:1:0:0:
155,26,218755,5,8,2:0:0:0:
42,153,218916,1,8,2:0:0:0:
176,250,219078,1,8,2:0:0:0:
63,377,219241,1,8,2:0:0:0:
176,250,219403,6,0,L|252:261,1,60.0000022888184,4|0,2:0|2:0,2:0:0:0:
285,182,219727,2,0,L|361:193,1,60.0000022888184,0|8,2:0|2:3,2:0:0:0:
427,255,220051,5,8,2:3:0:0:
449,285,220214,1,8,2:3:0:0:
449,321,220376,1,8,2:3:0:0:
428,351,220538,1,8,2:1:0:0:
357,299,220701,5,4,2:0:0:0:
368,188,221997,1,2,2:0:0:0:
116,361,222646,6,0,P|117:332|147:300,2,53.3333333333333,2|0|0,2:0|2:0|2:0,2:0:0:0:
38,303,222970,6,0,P|14:287|2:245,2,53.3333333333333,2|0|0,2:0|2:0|2:0,2:0:0:0:
193,244,223295,6,0,L|386:278,1,191.999994140625,4|8,2:0|2:0,2:0:0:0:
427,357,223781,1,0,2:0:0:0:
389,102,224105,6,0,P|455:91|469:55,2,95.9999970703126,8|8|2,2:1|2:0|2:0,2:0:0:0:
283,23,224592,2,0,L|302:226,1,191.999994140625,4|8,2:0|2:0,2:0:0:0:
362,282,225078,1,0,2:0:0:0:
389,102,225241,1,8,2:1:0:0:
215,176,225403,1,8,2:1:0:0:
362,281,225565,2,0,P|404:274|439:322,1,95.9999970703126,8|0,2:0|2:0,2:0:0:0:
237,355,225889,6,0,L|255:252,2,95.9999970703126,4|0|8,2:0|2:0|2:0,2:0:0:0:
94,368,226376,2,0,L|88:177,1,191.999994140625,0|8,2:0|2:1,2:0:0:0:
136,91,226862,1,10,2:0:0:0:
69,7,227024,1,2,2:0:0:0:
136,91,227187,6,0,P|196:92|225:73,2,95.9999970703126,4|0|8,2:3|2:0|2:0,2:0:0:0:
88,177,227673,1,2,2:0:0:0:
88,177,227835,2,0,P|28:178|-1:159,1,95.9999970703126,8|10,2:1|2:1,2:0:0:0:
137,266,228159,2,0,L|231:280,1,95.9999970703126,8|0,2:0|2:0,2:0:0:0:
240,293,228403,1,8,2:1:0:0:
248,305,228484,6,0,L|455:281,1,191.999994140625,4|8,2:0|2:0,2:0:0:0:
396,204,228970,1,0,2:0:0:0:
354,374,229132,1,8,2:1:0:0:
354,374,229295,1,8,2:1:0:0:
255,227,229457,2,0,P|197:200|154:209,1,95.9999970703126,8|0,2:0|2:0,2:0:0:0:
0,37,229781,6,0,P|88:101|185:98,1,191.999994140625,4|8,2:3|2:0,2:0:0:0:
447,23,230430,1,8,2:1:0:0:
447,23,230592,1,8,2:1:0:0:
512,133,230754,2,0,L|403:113,1,95.9999970703126,8|0,2:0|2:0,2:0:0:0:
263,257,231078,6,0,P|319:213|390:204,1,143.999995605469,4|0,2:0|2:0,2:0:0:0:
417,217,231403,6,0,P|420:255|418:316,1,95.9999970703126,10|2,2:0|2:0,2:0:0:0:
333,360,231727,1,10,2:1:0:0:
333,360,231889,1,8,2:1:0:0:
263,257,232051,1,8,2:0:0:0:
435,145,232214,1,8,2:1:0:0:
441,154,232295,1,0,2:0:0:0:
448,162,232376,6,0,P|405:180|360:167,1,95.9999970703126,8|8,2:0|2:1,2:0:0:0:
284,84,232700,5,8,2:0:0:0:
448,162,232862,2,0,P|405:180|360:167,1,95.9999970703126,8|8,2:1|2:0,2:0:0:0:
284,84,233187,5,8,2:0:0:0:
157,209,233349,1,8,2:0:0:0:
160,232,233430,1,8,2:0:0:0:
163,256,233511,1,8,2:0:0:0:
166,280,233592,1,8,2:0:0:0:
170,304,233673,5,4,2:0:0:0:
57,280,233835,1,2,2:0:0:0:
161,260,233997,5,8,2:0:0:0:
65,323,234159,1,2,2:0:0:0:
125,235,234322,5,8,2:0:0:0:
101,348,234484,1,10,2:1:0:0:
82,243,234646,5,10,2:0:0:0:
144,340,234808,1,8,2:1:0:0:
237,276,234970,6,0,P|291:257|341:265,1,95.9999970703126,10|10,2:0|2:1,2:0:0:0:
411,333,235295,2,0,P|465:352|515:344,1,95.9999970703126,10|0,2:0|2:0,2:0:0:0:
420,233,235619,5,8,2:0:0:0:
420,233,235781,1,8,2:1:0:0:
320,353,235943,1,8,2:0:0:0:
320,353,236105,1,8,2:1:0:0:
262,203,236268,5,10,2:0:0:0:
346,80,236430,1,2,2:0:0:0:
230,154,236592,5,8,2:0:0:0:
377,128,236754,1,0,2:0:0:0:
243,99,236916,5,8,2:0:0:0:
365,184,237078,1,8,2:1:0:0:
290,68,237240,5,8,2:0:0:0:
316,214,237402,1,8,2:1:0:0:
178,269,237565,6,0,P|129:269|77:261,1,95.9999970703126,10|10,2:0|2:1,2:0:0:0:
222,356,237889,1,10,2:0:0:0:
137,173,238051,2,0,P|88:173|36:181,1,95.9999970703126,0|8,2:0|2:0,2:0:0:0:
264,165,238376,1,8,2:1:0:0:
259,149,238457,1,8,2:1:0:0:
254,132,238538,1,8,2:0:0:0:
277,104,238619,1,8,2:1:0:0:
310,91,238700,1,0,2:0:0:0:
345,93,238781,1,8,2:1:0:0:
376,112,238862,6,0,L|354:326,1,191.999994140625,4|8,2:0|2:1,2:0:0:0:
455,363,239349,1,10,2:0:0:0:
455,363,239430,1,8,2:0:0:0:
455,363,239511,2,0,L|447:306,3,47.9999985351563,8|8|10|8,2:1|2:0|2:0|2:0,2:0:0:0:
265,319,239835,2,0,L|257:376,3,47.9999985351563,10|8|8|8,2:1|2:0|2:0|2:0,2:0:0:0:
357,303,240159,6,0,L|349:246,1,47.9999985351563,8|8,2:1|2:0,2:0:0:0:
167,259,240322,2,0,L|159:316,1,47.9999985351563,8|8,2:0|2:0,2:0:0:0:
69,360,240484,6,0,L|62:268,3,47.9999985351563,10|8|8|8,2:1|2:0|2:0|2:0,2:0:0:0:
18,160,240808,5,10,2:1:0:0:
38,172,240889,1,8,2:0:0:0:
61,177,240970,1,8,2:0:0:0:
85,175,241051,1,8,2:0:0:0:
109,165,241132,5,10,2:1:0:0:
142,131,241213,1,8,2:0:0:0:
187,115,241294,1,8,2:0:0:0:
234,121,241375,1,8,2:0:0:0:
273,148,241457,5,8,2:1:0:0:
273,148,241619,1,8,2:1:0:0:
312,275,241781,5,8,2:1:0:0:
312,275,241943,1,8,2:1:0:0:
170,362,242105,5,8,2:0:0:0:
170,362,242268,1,8,2:0:0:0:
61,182,242430,5,10,2:0:0:0:
61,182,242592,1,10,2:0:0:0:
304,269,244051,5,10,2:1:0:0:
396,297,244214,1,0,2:0:0:0:
488,325,244376,1,8,2:1:0:0:
325,362,244538,1,0,2:0:0:0:
466,231,244700,1,10,2:1:0:0:
202,269,245024,5,10,2:1:0:0:
181,362,245187,1,0,2:0:0:0:
18,325,245349,1,8,2:1:0:0:
40,231,245511,1,2,2:0:0:0:
210,32,245835,5,2,2:0:0:0:
183,123,245997,1,8,2:1:0:0:
261,177,246159,1,0,2:0:0:0:
337,120,246322,1,8,2:1:0:0:
305,30,246484,1,2,2:0:0:0:
337,120,246646,5,10,2:1:0:0:
429,94,246808,1,0,2:0:0:0:
481,174,246970,1,8,2:1:0:0:
437,259,247132,1,0,2:0:0:0:
360,317,247295,1,10,2:1:0:0:
261,177,247619,5,10,2:1:0:0:
263,372,247781,1,0,2:0:0:0:
261,177,247943,5,8,2:1:0:0:
263,372,248105,1,2,2:0:0:0:
175,120,248430,5,2,2:0:0:0:
75,259,248592,1,10,2:1:0:0:
83,94,248754,1,2,2:0:0:0:
152,317,248916,1,10,2:1:0:0:
31,174,249079,1,6,2:0:0:0:
