osu file format v14

[General]
AudioFilename: audio.mp3
AudioLeadIn: 0
PreviewTime: 59276
Countdown: 0
SampleSet: Normal
StackLeniency: 0.7
Mode: 1
LetterboxInBreaks: 0
WidescreenStoryboard: 0

[Editor]
DistanceSpacing: 2.1
BeatDivisor: 4
GridSize: 4
TimelineZoom: 1.2

[Metadata]
Title:CLICK(Soleily Remix)
TitleUnicode:CLICK(Soleily Remix)
Artist:ClariS
ArtistUnicode:ClariS
Creator:iloveyou4ever
Version:ONI
Source:ニセコイ
Tags:nisekoi false love opening clara alice dnb drum and bass
BeatmapID:1286944
BeatmapSetID:609391

[Difficulty]
HPDrainRate:5
CircleSize:2
OverallDifficulty:6
ApproachRate:2
SliderMultiplier:1.4
SliderTickRate:1

[Events]
//Background and Video events
0,0,"BG.jpg",0,52
//Break Periods
//Storyboard Layer 0 (Background)
//Storyboard Layer 1 (Fail)
//Storyboard Layer 2 (Pass)
//Storyboard Layer 3 (Foreground)
//Storyboard Sound Samples

[TimingPoints]
3,361.44578313253,4,1,0,80,1,0
4340,-111.111111111111,4,1,0,80,0,0
10123,-111.111111111111,4,1,0,90,0,0
10484,-109.89010989011,4,1,0,90,0,0
10665,-108.695652173913,4,1,0,90,0,0
10756,-107.52688172043,4,1,0,90,0,0
10846,-106.382978723404,4,1,0,90,0,0
11027,-105.263157894737,4,1,0,90,0,0
11207,-104.166666666667,4,1,0,90,0,0
11298,-103.092783505155,4,1,0,90,0,0
11388,-102.040816326531,4,1,0,90,0,0
11569,-100,4,1,0,100,0,0
34701,-100,4,1,0,70,0,0
34792,-111.111111111111,4,1,0,70,0,0
40394,-109.89010989011,4,1,0,70,0,0
40484,-108.695652173913,4,1,0,80,0,0
41930,-106.382978723404,4,1,0,85,0,0
43376,-104.166666666667,4,1,0,90,0,0
44822,-102.040816326531,4,1,0,95,0,0
46268,-100,4,1,0,100,0,0
60002,-99.502487562189,4,1,0,100,0,0
60093,-99.009900990099,4,1,0,100,0,0
60183,-98.5221674876847,4,1,0,100,0,0
60274,-98.0392156862745,4,1,0,100,0,0
60364,-97.5609756097561,4,1,0,100,0,0
60454,-97.0873786407767,4,1,0,100,0,0
60545,-96.6183574879227,4,1,0,100,0,0
60725,-95.2380952380952,4,1,0,100,0,1
83858,-95.2380952380952,4,1,0,100,0,0
83948,-100,4,1,0,100,0,0
106990,-100,4,1,0,90,0,0
107352,-105.263157894737,4,1,0,90,0,0
117743,-104.166666666667,4,1,0,90,0,0
117834,-103.092783505155,4,1,0,90,0,0
117924,-102.040816326531,4,1,0,90,0,0
118015,-101.010101010101,4,1,0,90,0,0
118105,-100,4,1,0,90,0,0
118557,-100,4,1,0,100,0,0
133105,-111.111111111111,4,1,0,80,0,0
144039,-108.695652173913,4,1,0,80,0,0
144219,-107.52688172043,4,1,0,80,0,0
144400,-106.382978723404,4,1,0,80,0,0
144581,-105.263157894737,4,1,0,90,0,0
150364,-100,4,1,0,90,0,0
153256,-100,4,1,0,100,0,0
155424,-99.502487562189,4,1,0,100,0,0
155515,-99.009900990099,4,1,0,100,0,0
155605,-98.5221674876847,4,1,0,100,0,0
155695,-98.0392156862745,4,1,0,100,0,0
155786,-97.5609756097561,4,1,0,100,0,0
155876,-97.0873786407767,4,1,0,100,0,0
155966,-96.6183574879227,4,1,0,100,0,0
156147,-95.2380952380952,4,1,0,100,0,1
179280,-95.2380952380952,4,1,0,100,0,0
179370,-95.2380952380952,4,1,0,80,0,0
180725,-100,4,1,0,70,0,0
182171,-100,4,1,0,60,0,0
183617,-100,4,1,0,50,0,0
185063,-100,4,1,0,40,0,0
186509,-100,4,1,0,30,0,0
190846,-111.111111111111,4,1,0,40,0,0
202412,-100,4,1,0,80,0,0
209641,-100,4,1,0,90,0,0
211087,-100,4,1,0,95,0,0
212533,-100,4,1,0,100,0,0
225545,-100,4,1,0,100,0,0
237111,-95.2380952380952,4,1,0,100,0,1
260243,-95.2380952380952,4,1,0,100,0,0
260334,-100,4,1,0,100,0,0
307774,-100,4,1,0,80,0,0
308677,-100,4,1,0,60,0,0
309400,-100,4,1,0,40,0,0
310123,-100,4,1,0,20,0,0

[HitObjects]
352,148,4340,5,4,0:0:0:0:
416,136,4701,1,0,0:0:0:0:
440,152,5063,1,8,0:0:0:0:
418,156,5424,1,8,0:0:0:0:
456,298,5605,1,0,0:0:0:0:
480,156,5786,1,8,0:0:0:0:
480,156,6057,1,0,0:0:0:0:
480,156,6328,1,8,0:0:0:0:
480,156,6509,1,8,0:0:0:0:
480,156,6870,1,0,0:0:0:0:
418,156,7051,1,8,0:0:0:0:
480,156,7231,1,8,0:0:0:0:
296,224,7502,1,0,0:0:0:0:
476,140,7774,1,8,0:0:0:0:
402,134,7954,1,8,0:0:0:0:
76,364,8496,1,8,0:0:0:0:
418,156,8677,1,0,0:0:0:0:
418,156,8948,1,8,0:0:0:0:
424,206,9219,1,0,0:0:0:0:
510,166,9400,1,0,0:0:0:0:
510,166,9671,1,8,0:0:0:0:
292,196,9942,1,8,0:0:0:0:
424,206,10123,1,4,0:0:0:0:
436,160,10484,1,8,0:0:0:0:
483,189,10665,1,0,0:0:0:0:
483,189,10756,1,0,0:0:0:0:
483,189,10846,1,8,0:0:0:0:
483,41,11027,1,0,0:0:0:0:
388,144,11207,1,8,0:0:0:0:
460,252,11298,1,8,0:0:0:0:
456,324,11388,1,8,0:0:0:0:
385,78,11569,1,4,0:0:0:0:
470,160,11840,1,0,0:0:0:0:
470,160,11930,1,8,0:0:0:0:
470,160,12111,1,8,0:0:0:0:
470,160,12201,1,8,0:0:0:0:
470,160,12292,1,0,0:0:0:0:
470,160,12472,1,0,0:0:0:0:
470,160,12653,1,8,0:0:0:0:
470,160,12834,1,0,0:0:0:0:
470,160,12924,1,8,0:0:0:0:
470,160,13015,1,0,0:0:0:0:
470,160,13286,1,0,0:0:0:0:
507,170,13376,1,8,0:0:0:0:
359,167,13557,1,0,0:0:0:0:
432,168,13647,1,0,0:0:0:0:
470,160,13737,1,0,0:0:0:0:
507,170,13918,1,0,0:0:0:0:
507,170,14099,1,8,0:0:0:0:
470,160,14189,1,0,0:0:0:0:
470,160,14280,1,0,0:0:0:0:
359,167,14370,1,8,0:0:0:0:
470,160,14460,1,0,0:0:0:0:
470,160,14731,1,0,0:0:0:0:
470,160,14822,1,8,0:0:0:0:
507,170,15002,1,8,0:0:0:0:
507,170,15093,1,8,0:0:0:0:
470,160,15183,1,0,0:0:0:0:
322,160,15364,1,0,0:0:0:0:
470,160,15545,1,8,0:0:0:0:
424,300,15725,1,0,0:0:0:0:
470,160,15816,1,0,0:0:0:0:
470,160,15906,1,8,0:0:0:0:
424,300,16087,1,8,0:0:0:0:
470,160,16177,1,0,0:0:0:0:
470,160,16268,1,8,0:0:0:0:
470,160,16448,1,8,0:0:0:0:
470,160,16629,1,0,0:0:0:0:
441,204,16810,1,8,0:0:0:0:
470,160,16990,1,0,0:0:0:0:
452,232,17081,1,8,0:0:0:0:
480,144,17171,1,8,0:0:0:0:
441,204,17262,1,0,0:0:0:0:
470,160,17352,1,8,0:0:0:0:
494,269,17623,1,0,0:0:0:0:
470,160,17713,1,8,0:0:0:0:
470,160,17894,1,8,0:0:0:0:
470,160,17984,1,8,0:0:0:0:
470,160,18075,1,0,0:0:0:0:
470,160,18255,1,0,0:0:0:0:
470,160,18436,1,8,0:0:0:0:
470,160,18617,1,0,0:0:0:0:
470,160,18707,1,8,0:0:0:0:
470,160,18798,1,0,0:0:0:0:
470,160,19069,1,0,0:0:0:0:
507,170,19159,1,8,0:0:0:0:
359,167,19340,1,0,0:0:0:0:
432,168,19430,1,0,0:0:0:0:
470,160,19520,1,0,0:0:0:0:
507,170,19701,1,0,0:0:0:0:
507,170,19882,1,8,0:0:0:0:
470,160,19972,1,0,0:0:0:0:
500,228,20063,1,0,0:0:0:0:
442,227,20153,1,8,0:0:0:0:
470,160,20243,1,0,0:0:0:0:
470,160,20514,1,0,0:0:0:0:
470,160,20605,1,8,0:0:0:0:
507,170,20785,1,8,0:0:0:0:
507,170,20876,1,8,0:0:0:0:
470,160,20966,1,0,0:0:0:0:
322,160,21147,1,0,0:0:0:0:
470,160,21237,1,0,0:0:0:0:
396,164,21328,1,8,0:0:0:0:
396,180,21509,1,8,0:0:0:0:
480,168,21689,1,4,0:0:0:0:
396,172,21870,1,8,0:0:0:0:
470,160,22051,1,8,0:0:0:0:
470,160,22141,1,0,0:0:0:0:
470,160,22322,1,12,0:0:0:0:
457,140,22593,1,8,0:0:0:0:
312,168,22774,1,8,0:0:0:0:
470,160,22864,1,8,0:0:0:0:
470,160,22954,1,0,0:0:0:0:
457,140,23135,1,4,0:0:0:0:
494,269,23406,1,0,0:0:0:0:
470,160,23496,1,8,0:0:0:0:
470,160,23677,1,8,0:0:0:0:
432,168,23768,1,8,0:0:0:0:
470,160,23858,1,0,0:0:0:0:
470,160,24038,1,0,0:0:0:0:
470,160,24219,1,8,0:0:0:0:
470,160,24400,1,0,0:0:0:0:
470,160,24490,1,8,0:0:0:0:
470,160,24581,1,0,0:0:0:0:
470,160,24852,1,0,0:0:0:0:
507,170,24942,1,8,0:0:0:0:
359,167,25123,1,0,0:0:0:0:
428,192,25213,1,0,0:0:0:0:
380,136,25304,1,0,0:0:0:0:
496,224,25484,1,0,0:0:0:0:
507,170,25665,1,8,0:0:0:0:
470,160,25755,1,0,0:0:0:0:
428,192,25846,1,0,0:0:0:0:
470,160,25936,1,8,0:0:0:0:
470,160,26026,1,0,0:0:0:0:
470,160,26297,1,0,0:0:0:0:
470,160,26388,1,8,0:0:0:0:
507,170,26568,1,8,0:0:0:0:
507,170,26659,1,8,0:0:0:0:
470,160,26749,1,0,0:0:0:0:
322,160,26930,1,0,0:0:0:0:
470,160,27111,1,8,0:0:0:0:
376,48,27292,1,0,0:0:0:0:
470,160,27382,1,0,0:0:0:0:
470,160,27472,1,8,0:0:0:0:
507,170,27653,1,8,0:0:0:0:
470,160,27743,1,0,0:0:0:0:
470,160,27834,1,8,0:0:0:0:
470,160,28014,1,8,0:0:0:0:
470,160,28195,1,0,0:0:0:0:
356,252,28376,1,8,0:0:0:0:
504,166,28556,1,0,0:0:0:0:
432,156,28647,1,0,0:0:0:0:
504,166,28737,1,8,0:0:0:0:
470,160,28918,1,4,0:0:0:0:
248,148,29189,1,0,0:0:0:0:
457,140,29280,1,8,0:0:0:0:
432,156,29460,1,8,0:0:0:0:
432,156,29551,1,8,0:0:0:0:
432,156,29641,1,0,0:0:0:0:
471,297,29822,1,0,0:0:0:0:
498,201,30002,1,8,0:0:0:0:
470,160,30183,1,8,0:0:0:0:
496,148,30364,1,4,0:0:0:0:
457,140,30635,1,0,0:0:0:0:
457,140,30725,1,8,0:0:0:0:
426,165,30906,1,0,0:0:0:0:
426,165,30996,1,0,0:0:0:0:
457,140,31087,1,0,0:0:0:0:
426,165,31268,1,0,0:0:0:0:
426,165,31448,1,8,0:0:0:0:
468,172,31539,1,0,0:0:0:0:
457,140,31629,1,8,0:0:0:0:
437,160,31810,1,0,0:0:0:0:
492,208,31900,1,0,0:0:0:0:
468,172,31990,1,0,0:0:0:0:
468,172,32081,1,0,0:0:0:0:
504,168,32171,1,8,0:0:0:0:
468,172,32262,1,0,0:0:0:0:
426,165,32352,1,8,0:0:0:0:
426,165,32442,1,8,0:0:0:0:
468,172,32533,1,0,0:0:0:0:
476,160,32623,1,0,0:0:0:0:
468,172,32713,1,0,0:0:0:0:
468,172,32804,1,0,0:0:0:0:
468,172,32894,1,8,0:0:0:0:
468,172,32984,1,0,0:0:0:0:
468,172,33075,1,8,0:0:0:0:
480,176,33165,1,8,0:0:0:0:
468,172,33256,1,0,0:0:0:0:
472,204,33436,1,8,0:0:0:0:
480,176,33617,1,8,0:0:0:0:
456,164,33707,1,0,0:0:0:0:
384,172,33798,1,0,0:0:0:0:
456,164,33888,1,8,0:0:0:0:
308,168,34069,1,0,0:0:0:0:
456,164,34159,1,8,0:0:0:0:
456,164,34340,1,8,0:0:0:0:
456,164,34430,1,0,0:0:0:0:
456,164,34521,1,0,0:0:0:0:
504,168,34701,1,12,0:0:0:0:
504,168,35063,1,0,0:0:0:0:
456,164,35243,1,8,0:0:0:0:
424,152,35424,1,0,0:0:0:0:
504,168,35605,1,0,0:0:0:0:
456,164,35786,1,8,0:0:0:0:
440,160,35966,1,8,0:0:0:0:
456,164,36147,1,0,0:0:0:0:
192,184,36509,1,8,0:0:0:0:
400,64,36689,1,0,0:0:0:0:
404,196,36870,1,8,0:0:0:0:
456,164,37051,1,8,0:0:0:0:
504,168,37231,1,0,0:0:0:0:
372,160,37412,1,8,0:0:0:0:
500,196,37593,1,8,0:0:0:0:
371,232,37774,1,0,0:0:0:0:
428,99,37954,1,8,0:0:0:0:
416,164,38316,1,8,0:0:0:0:
373,234,38496,1,0,0:0:0:0:
474,127,38677,1,8,0:0:0:0:
361,222,38858,1,8,0:0:0:0:
473,126,39039,1,0,0:0:0:0:
324,344,39400,1,0,0:0:0:0:
341,192,39581,1,8,0:0:0:0:
216,160,39762,1,8,0:0:0:0:
482,152,39942,1,0,0:0:0:0:
482,152,40123,1,8,0:0:0:0:
355,227,40304,1,0,0:0:0:0:
482,152,40394,1,8,0:0:0:0:
418,188,40484,1,0,0:0:0:0:
418,188,40665,1,0,0:0:0:0:
359,53,40846,1,8,0:0:0:0:
446,173,41027,1,0,0:0:0:0:
446,173,41207,1,8,0:0:0:0:
492,186,41388,1,0,0:0:0:0:
446,173,41569,1,8,0:0:0:0:
328,106,41749,1,8,0:0:0:0:
446,173,41930,1,0,0:0:0:0:
479,190,42292,1,8,0:0:0:0:
448,46,42472,1,0,0:0:0:0:
492,186,42653,1,8,0:0:0:0:
506,173,42834,1,0,0:0:0:0:
492,145,43015,1,8,0:0:0:0:
492,145,43195,1,8,0:0:0:0:
492,186,43376,1,0,0:0:0:0:
492,186,43557,1,0,0:0:0:0:
386,84,43737,1,8,0:0:0:0:
463,209,43918,1,0,0:0:0:0:
340,127,44099,1,8,0:0:0:0:
460,200,44280,1,0,0:0:0:0:
332,140,44460,1,8,0:0:0:0:
412,208,44641,1,0,0:0:0:0:
419,78,44822,1,0,0:0:0:0:
445,91,45183,1,8,0:0:0:0:
380,223,45364,1,0,0:0:0:0:
416,207,45545,1,8,0:0:0:0:
438,62,45725,1,0,0:0:0:0:
431,164,45906,1,8,0:0:0:0:
431,164,46268,1,4,0:0:0:0:
464,384,46539,1,12,0:0:0:0:
261,211,46810,1,12,0:0:0:0:
395,156,47171,1,0,0:0:0:0:
431,164,47352,1,8,0:0:0:0:
431,164,47442,1,8,0:0:0:0:
504,158,47533,1,0,0:0:0:0:
504,158,47713,1,12,0:0:0:0:
452,216,48256,1,12,0:0:0:0:
469,197,48617,1,0,0:0:0:0:
468,164,48798,1,8,0:0:0:0:
200,44,49159,1,4,0:0:0:0:
420,156,49430,1,12,0:0:0:0:
468,164,49701,1,12,0:0:0:0:
500,160,50063,1,0,0:0:0:0:
500,160,50243,1,8,0:0:0:0:
420,156,50424,1,4,0:0:0:0:
311,143,50966,1,8,0:0:0:0:
500,160,51147,1,4,0:0:0:0:
464,152,51509,1,0,0:0:0:0:
480,184,51689,1,8,0:0:0:0:
488,132,52051,1,4,0:0:0:0:
360,312,52322,1,12,0:0:0:0:
244,172,52593,1,12,0:0:0:0:
416,164,52954,1,0,0:0:0:0:
504,164,53135,1,8,0:0:0:0:
504,164,53225,1,8,0:0:0:0:
504,164,53316,1,0,0:0:0:0:
468,172,53496,1,12,0:0:0:0:
468,172,53768,1,12,0:0:0:0:
504,164,54039,1,4,0:0:0:0:
468,172,54400,1,0,0:0:0:0:
504,164,54581,1,8,0:0:0:0:
468,172,54762,1,4,0:0:0:0:
212,132,55123,1,0,0:0:0:0:
468,172,55304,1,8,0:0:0:0:
468,172,55484,1,0,0:0:0:0:
468,172,55665,1,8,0:0:0:0:
468,172,56027,1,0,0:0:0:0:
320,164,56207,1,8,0:0:0:0:
464,184,56388,1,4,0:0:0:0:
468,172,56569,1,0,0:0:0:0:
468,172,56749,1,8,0:0:0:0:
468,172,56930,1,8,0:0:0:0:
321,157,57111,1,0,0:0:0:0:
466,179,57292,1,8,0:0:0:0:
468,172,57472,1,8,0:0:0:0:
324,204,57653,1,8,0:0:0:0:
466,167,57834,1,4,0:0:0:0:
504,148,58015,1,0,0:0:0:0:
468,172,58195,1,8,0:0:0:0:
468,172,58376,1,8,0:0:0:0:
466,167,58557,1,4,0:0:0:0:
354,79,58737,1,0,0:0:0:0:
476,160,58918,1,8,0:0:0:0:
476,160,59099,1,8,0:0:0:0:
412,292,59280,1,0,0:0:0:0:
466,167,59370,1,0,0:0:0:0:
399,143,59460,1,0,0:0:0:0:
399,143,59551,1,0,0:0:0:0:
399,143,59641,1,8,0:0:0:0:
504,148,59731,1,0,0:0:0:0:
504,148,59822,1,8,0:0:0:0:
504,148,59912,1,8,0:0:0:0:
466,167,60002,1,0,0:0:0:0:
466,167,60093,1,0,0:0:0:0:
490,192,60183,1,8,0:0:0:0:
416,184,60274,1,8,0:0:0:0:
416,184,60364,1,8,0:0:0:0:
416,184,60454,1,0,0:0:0:0:
466,167,60545,1,8,0:0:0:0:
320,188,60725,1,4,0:0:0:0:
466,167,61087,1,8,0:0:0:0:
466,167,61268,1,8,0:0:0:0:
466,167,61358,1,8,0:0:0:0:
466,167,61448,1,0,0:0:0:0:
466,167,61629,1,0,0:0:0:0:
320,188,61719,1,0,0:0:0:0:
466,167,61810,1,8,0:0:0:0:
320,160,61990,1,0,0:0:0:0:
466,167,62171,1,8,0:0:0:0:
432,308,62352,1,0,0:0:0:0:
460,240,62442,1,8,0:0:0:0:
350,151,62533,1,0,0:0:0:0:
466,167,62623,1,0,0:0:0:0:
466,167,62713,1,8,0:0:0:0:
479,170,62894,1,8,0:0:0:0:
404,184,63075,1,0,0:0:0:0:
424,152,63256,1,8,0:0:0:0:
350,151,63346,1,0,0:0:0:0:
466,167,63436,1,8,0:0:0:0:
466,167,63527,1,8,0:0:0:0:
466,167,63617,1,0,0:0:0:0:
466,167,63798,1,0,0:0:0:0:
466,167,63888,1,0,0:0:0:0:
466,167,63978,1,8,0:0:0:0:
466,167,64159,1,8,0:0:0:0:
466,167,64249,1,0,0:0:0:0:
466,167,64340,1,8,0:0:0:0:
512,168,64521,1,0,0:0:0:0:
466,167,64701,1,8,0:0:0:0:
466,167,64792,1,8,0:0:0:0:
426,105,64882,1,0,0:0:0:0:
464,167,64972,1,0,0:0:0:0:
397,134,65063,1,8,0:0:0:0:
498,239,65243,1,8,0:0:0:0:
440,97,65334,1,8,0:0:0:0:
466,167,65424,1,0,0:0:0:0:
509,164,65605,1,8,0:0:0:0:
412,176,65695,1,0,0:0:0:0:
481,144,65786,1,8,0:0:0:0:
412,176,65876,1,8,0:0:0:0:
466,167,65966,1,0,0:0:0:0:
466,167,66057,1,0,0:0:0:0:
466,167,66147,1,8,0:0:0:0:
481,144,66328,1,8,0:0:0:0:
466,167,66509,1,0,0:0:0:0:
509,164,66870,1,8,0:0:0:0:
509,164,67051,1,8,0:0:0:0:
509,164,67141,1,8,0:0:0:0:
509,164,67231,1,0,0:0:0:0:
509,164,67412,1,0,0:0:0:0:
466,167,67502,1,0,0:0:0:0:
509,164,67593,1,8,0:0:0:0:
400,263,67774,1,0,0:0:0:0:
495,152,67954,1,8,0:0:0:0:
388,264,68135,1,0,0:0:0:0:
495,152,68225,1,8,0:0:0:0:
400,188,68316,1,0,0:0:0:0:
440,208,68406,1,0,0:0:0:0:
466,167,68496,1,8,0:0:0:0:
312,140,68677,1,8,0:0:0:0:
466,167,68858,1,0,0:0:0:0:
495,152,68948,1,0,0:0:0:0:
495,152,69039,1,8,0:0:0:0:
424,140,69219,1,0,0:0:0:0:
281,178,69400,1,8,0:0:0:0:
509,164,69581,1,0,0:0:0:0:
477,230,69671,1,0,0:0:0:0:
496,164,69762,1,8,0:0:0:0:
356,116,69942,1,8,0:0:0:0:
495,152,70033,1,0,0:0:0:0:
424,140,70123,1,8,0:0:0:0:
395,211,70213,1,8,0:0:0:0:
509,164,70304,1,0,0:0:0:0:
509,164,70394,1,0,0:0:0:0:
436,172,70484,1,8,0:0:0:0:
436,172,70665,1,8,0:0:0:0:
424,140,70846,1,4,0:0:0:0:
468,168,71027,1,0,0:0:0:0:
396,168,71117,1,8,0:0:0:0:
320,180,71207,1,8,0:0:0:0:
509,164,71388,1,4,0:0:0:0:
424,140,71569,1,8,0:0:0:0:
396,168,71749,1,0,0:0:0:0:
468,168,71930,1,8,0:0:0:0:
468,168,72021,1,8,0:0:0:0:
509,164,72111,1,8,0:0:0:0:
468,168,72292,1,4,0:0:0:0:
468,168,72653,1,8,0:0:0:0:
323,139,72834,1,8,0:0:0:0:
394,153,72924,1,8,0:0:0:0:
509,164,73015,1,0,0:0:0:0:
468,168,73195,1,0,0:0:0:0:
476,244,73286,1,0,0:0:0:0:
468,168,73376,1,8,0:0:0:0:
468,168,73557,1,0,0:0:0:0:
445,128,73737,1,8,0:0:0:0:
480,270,73918,1,0,0:0:0:0:
468,168,74009,1,8,0:0:0:0:
504,161,74099,1,0,0:0:0:0:
468,168,74189,1,0,0:0:0:0:
504,161,74280,1,8,0:0:0:0:
504,161,74460,1,8,0:0:0:0:
358,180,74641,1,0,0:0:0:0:
468,168,74822,1,8,0:0:0:0:
398,189,74912,1,0,0:0:0:0:
468,168,75002,1,8,0:0:0:0:
468,168,75093,1,8,0:0:0:0:
468,168,75183,1,0,0:0:0:0:
327,211,75364,1,0,0:0:0:0:
397,189,75454,1,0,0:0:0:0:
465,160,75545,1,8,0:0:0:0:
468,168,75725,1,0,0:0:0:0:
468,168,75906,1,8,0:0:0:0:
468,168,75996,1,8,0:0:0:0:
468,168,76087,1,0,0:0:0:0:
396,192,76177,1,0,0:0:0:0:
465,160,76268,1,8,0:0:0:0:
467,164,76448,1,8,0:0:0:0:
467,164,76629,1,0,0:0:0:0:
467,164,76810,1,0,0:0:0:0:
467,164,76900,1,0,0:0:0:0:
468,168,76990,1,8,0:0:0:0:
467,164,77171,1,8,0:0:0:0:
393,153,77262,1,0,0:0:0:0:
467,164,77352,1,8,0:0:0:0:
467,164,77442,1,8,0:0:0:0:
507,156,77533,1,0,0:0:0:0:
507,156,77623,1,0,0:0:0:0:
467,164,77713,1,8,0:0:0:0:
467,164,77894,1,8,0:0:0:0:
507,156,78075,1,0,0:0:0:0:
280,342,78436,1,8,0:0:0:0:
395,250,78617,1,8,0:0:0:0:
453,205,78707,1,8,0:0:0:0:
424,208,78798,1,0,0:0:0:0:
474,273,78978,1,0,0:0:0:0:
510,259,79069,1,0,0:0:0:0:
507,162,79159,1,8,0:0:0:0:
356,195,79340,1,0,0:0:0:0:
506,163,79521,1,8,0:0:0:0:
507,162,79701,1,0,0:0:0:0:
440,200,79792,1,8,0:0:0:0:
358,163,79882,1,0,0:0:0:0:
431,167,79972,1,0,0:0:0:0:
431,167,80063,1,8,0:0:0:0:
431,167,80243,1,8,0:0:0:0:
304,91,80424,1,0,0:0:0:0:
367,129,80515,1,0,0:0:0:0:
438,143,80605,1,8,0:0:0:0:
473,164,80786,1,0,0:0:0:0:
473,164,80966,1,12,0:0:0:0:
473,164,81328,1,0,0:0:0:0:
332,224,81509,1,12,0:0:0:0:
490,188,81870,1,8,0:0:0:0:
340,228,82051,1,0,0:0:0:0:
400,188,82141,1,0,0:0:0:0:
471,161,82231,1,8,0:0:0:0:
473,164,82412,1,4,0:0:0:0:
473,164,82593,1,0,0:0:0:0:
473,164,82683,1,0,0:0:0:0:
392,148,82774,1,8,0:0:0:0:
464,283,82954,1,8,0:0:0:0:
490,188,83045,1,0,0:0:0:0:
473,164,83135,1,8,0:0:0:0:
473,164,83225,1,8,0:0:0:0:
473,164,83316,1,0,0:0:0:0:
473,164,83406,1,0,0:0:0:0:
473,164,83496,1,8,0:0:0:0:
490,188,83587,1,0,0:0:0:0:
473,164,83677,1,8,0:0:0:0:
385,78,83858,1,4,0:0:0:0:
149,253,84219,1,0,0:0:0:0:
308,180,84400,1,0,0:0:0:0:
453,153,84581,1,8,0:0:0:0:
453,153,84762,1,0,0:0:0:0:
453,153,84852,1,0,0:0:0:0:
447,226,84942,1,8,0:0:0:0:
447,226,85123,1,0,0:0:0:0:
480,84,85304,1,8,0:0:0:0:
389,114,85484,1,8,0:0:0:0:
444,212,85575,1,0,0:0:0:0:
240,208,85665,1,8,0:0:0:0:
437,169,85846,1,0,0:0:0:0:
437,169,86027,1,8,0:0:0:0:
437,169,86388,1,0,0:0:0:0:
476,152,86569,1,8,0:0:0:0:
453,153,86749,1,0,0:0:0:0:
501,161,86930,1,0,0:0:0:0:
501,161,87021,1,0,0:0:0:0:
437,169,87111,1,8,0:0:0:0:
476,152,87292,1,0,0:0:0:0:
476,152,87472,1,8,0:0:0:0:
453,153,87653,1,0,0:0:0:0:
501,161,87834,1,8,0:0:0:0:
501,161,87924,1,0,0:0:0:0:
476,152,88015,1,8,0:0:0:0:
405,172,88105,1,8,0:0:0:0:
501,161,88195,1,0,0:0:0:0:
476,152,88376,1,0,0:0:0:0:
443,217,88466,1,0,0:0:0:0:
476,152,88557,1,8,0:0:0:0:
501,161,88737,1,8,0:0:0:0:
476,152,88918,1,0,0:0:0:0:
476,152,89099,1,0,0:0:0:0:
501,161,89280,1,8,0:0:0:0:
247,309,89641,1,0,0:0:0:0:
494,151,90002,1,8,0:0:0:0:
494,151,90183,1,8,0:0:0:0:
494,151,90274,1,8,0:0:0:0:
421,142,90364,1,0,0:0:0:0:
421,142,90545,1,0,0:0:0:0:
494,151,90725,1,8,0:0:0:0:
357,207,90906,1,0,0:0:0:0:
494,151,91087,1,8,0:0:0:0:
440,172,91268,1,0,0:0:0:0:
400,168,91358,1,0,0:0:0:0:
416,184,91448,1,8,0:0:0:0:
460,184,91629,1,8,0:0:0:0:
380,192,91719,1,0,0:0:0:0:
421,161,91810,1,8,0:0:0:0:
404,140,91990,1,0,0:0:0:0:
421,161,92171,1,8,0:0:0:0:
432,160,92262,1,8,0:0:0:0:
487,160,92352,1,0,0:0:0:0:
472,180,92442,1,0,0:0:0:0:
421,161,92533,1,8,0:0:0:0:
350,181,92713,1,8,0:0:0:0:
422,167,92804,1,8,0:0:0:0:
487,160,92894,1,0,0:0:0:0:
487,160,93075,1,0,0:0:0:0:
494,151,93256,1,8,0:0:0:0:
457,156,93617,1,8,0:0:0:0:
457,156,93798,1,8,0:0:0:0:
368,74,93978,1,4,0:0:0:0:
372,176,94159,1,0,0:0:0:0:
404,172,94249,1,8,0:0:0:0:
456,276,94340,1,8,0:0:0:0:
487,160,94521,1,4,0:0:0:0:
341,144,94701,1,8,0:0:0:0:
472,208,94882,1,0,0:0:0:0:
457,156,95063,1,8,0:0:0:0:
457,156,95153,1,8,0:0:0:0:
457,156,95243,1,8,0:0:0:0:
384,188,95334,1,8,0:0:0:0:
457,156,95424,1,0,0:0:0:0:
162,171,95786,1,12,0:0:0:0:
452,140,96147,1,0,0:0:0:0:
452,140,96328,1,0,0:0:0:0:
452,140,96418,1,0,0:0:0:0:
380,152,96509,1,8,0:0:0:0:
460,164,96689,1,0,0:0:0:0:
380,152,96870,1,8,0:0:0:0:
452,140,97051,1,8,0:0:0:0:
440,168,97141,1,0,0:0:0:0:
464,216,97231,1,8,0:0:0:0:
488,160,97412,1,0,0:0:0:0:
340,176,97593,1,8,0:0:0:0:
488,160,97954,1,0,0:0:0:0:
344,136,98135,1,8,0:0:0:0:
492,144,98316,1,0,0:0:0:0:
344,136,98496,1,0,0:0:0:0:
416,140,98587,1,0,0:0:0:0:
476,100,98677,1,8,0:0:0:0:
408,232,98858,1,0,0:0:0:0:
492,144,99039,1,8,0:0:0:0:
512,204,99219,1,0,0:0:0:0:
376,147,99400,1,8,0:0:0:0:
460,152,99490,1,0,0:0:0:0:
492,144,99581,1,8,0:0:0:0:
420,156,99671,1,8,0:0:0:0:
492,176,99762,1,0,0:0:0:0:
492,144,99942,1,0,0:0:0:0:
420,156,100033,1,0,0:0:0:0:
356,96,100123,1,8,0:0:0:0:
460,152,100304,1,8,0:0:0:0:
460,152,100484,1,0,0:0:0:0:
408,100,100665,1,0,0:0:0:0:
460,152,100846,1,8,0:0:0:0:
247,309,101207,1,0,0:0:0:0:
494,151,101568,1,8,0:0:0:0:
494,151,101749,1,8,0:0:0:0:
494,151,101840,1,8,0:0:0:0:
421,142,101930,1,0,0:0:0:0:
421,142,102111,1,0,0:0:0:0:
494,151,102291,1,8,0:0:0:0:
357,207,102472,1,0,0:0:0:0:
494,151,102653,1,8,0:0:0:0:
421,161,102834,1,0,0:0:0:0:
452,177,102924,1,8,0:0:0:0:
442,169,103015,1,0,0:0:0:0:
442,169,103105,1,0,0:0:0:0:
412,176,103195,1,8,0:0:0:0:
494,151,103376,1,8,0:0:0:0:
494,151,103556,1,0,0:0:0:0:
403,131,103647,1,0,0:0:0:0:
494,151,103737,1,8,0:0:0:0:
494,151,103918,1,0,0:0:0:0:
348,156,104099,1,12,0:0:0:0:
432,160,104370,1,12,0:0:0:0:
432,160,104641,1,12,0:0:0:0:
444,196,105002,1,0,0:0:0:0:
448,308,105183,1,0,0:0:0:0:
440,232,105274,1,0,0:0:0:0:
432,160,105364,1,8,0:0:0:0:
368,74,105544,1,4,0:0:0:0:
444,196,105725,1,0,0:0:0:0:
487,160,105816,1,8,0:0:0:0:
419,128,105906,1,8,0:0:0:0:
444,196,106087,1,0,0:0:0:0:
444,196,106177,1,0,0:0:0:0:
341,144,106267,1,8,0:0:0:0:
487,160,106358,1,0,0:0:0:0:
457,156,106448,1,8,0:0:0:0:
444,196,106539,1,8,0:0:0:0:
457,156,106629,1,0,0:0:0:0:
457,156,106719,1,0,0:0:0:0:
457,156,106809,1,8,0:0:0:0:
457,156,106990,1,4,0:0:0:0:
487,160,107352,1,8,0:0:0:0:
487,160,107713,1,0,0:0:0:0:
487,160,107894,1,0,0:0:0:0:
487,160,108075,1,8,0:0:0:0:
373,66,108256,1,8,0:0:0:0:
469,175,108436,1,0,0:0:0:0:
487,160,108798,1,8,0:0:0:0:
487,160,108978,1,8,0:0:0:0:
469,175,109159,1,0,0:0:0:0:
469,175,109340,1,8,0:0:0:0:
487,160,109521,1,8,0:0:0:0:
453,145,109701,1,8,0:0:0:0:
453,145,109882,1,0,0:0:0:0:
453,145,110243,1,8,0:0:0:0:
483,154,110605,1,0,0:0:0:0:
483,154,110786,1,0,0:0:0:0:
483,154,110966,1,8,0:0:0:0:
483,154,111147,1,8,0:0:0:0:
483,154,111328,1,0,0:0:0:0:
483,154,111689,1,0,0:0:0:0:
483,154,111870,1,8,0:0:0:0:
483,154,112051,1,0,0:0:0:0:
483,154,112231,1,0,0:0:0:0:
339,185,112412,1,8,0:0:0:0:
483,154,112593,1,0,0:0:0:0:
410,169,112683,1,8,0:0:0:0:
483,154,112774,1,0,0:0:0:0:
483,154,113135,1,8,0:0:0:0:
483,154,113496,1,0,0:0:0:0:
483,154,113677,1,0,0:0:0:0:
483,154,113858,1,8,0:0:0:0:
483,154,114039,1,8,0:0:0:0:
498,179,114219,1,0,0:0:0:0:
443,167,114581,1,8,0:0:0:0:
483,154,114762,1,0,0:0:0:0:
357,136,114942,1,8,0:0:0:0:
496,182,115123,1,0,0:0:0:0:
443,167,115304,1,8,0:0:0:0:
443,167,115484,1,8,0:0:0:0:
443,167,115665,1,0,0:0:0:0:
443,167,116027,1,8,0:0:0:0:
480,176,116388,1,0,0:0:0:0:
480,176,116569,1,0,0:0:0:0:
480,176,116749,1,8,0:0:0:0:
443,167,116930,1,8,0:0:0:0:
504,172,117111,1,4,0:0:0:0:
480,176,117472,1,8,0:0:0:0:
504,172,117653,1,0,0:0:0:0:
504,172,117743,1,0,0:0:0:0:
504,172,117834,1,8,0:0:0:0:
443,167,117924,1,8,0:0:0:0:
443,167,118015,1,0,0:0:0:0:
440,240,118105,1,0,0:0:0:0:
443,167,118195,1,8,0:0:0:0:
480,176,118376,1,8,0:0:0:0:
504,172,118557,1,4,0:0:0:0:
212,139,118918,1,8,0:0:0:0:
360,148,119099,1,8,0:0:0:0:
432,152,119189,1,8,0:0:0:0:
497,211,119280,1,0,0:0:0:0:
361,156,119460,1,0,0:0:0:0:
508,163,119641,1,8,0:0:0:0:
360,156,119822,1,8,0:0:0:0:
505,167,120002,1,0,0:0:0:0:
400,268,120183,1,0,0:0:0:0:
452,216,120274,1,0,0:0:0:0:
218,97,120364,1,8,0:0:0:0:
360,136,120545,1,8,0:0:0:0:
492,200,120725,1,0,0:0:0:0:
364,120,120906,1,0,0:0:0:0:
504,164,121087,1,8,0:0:0:0:
504,164,121177,1,8,0:0:0:0:
364,120,121268,1,8,0:0:0:0:
484,204,121448,1,0,0:0:0:0:
464,164,121810,1,8,0:0:0:0:
464,164,121990,1,8,0:0:0:0:
464,164,122081,1,8,0:0:0:0:
464,164,122171,1,0,0:0:0:0:
464,164,122352,1,0,0:0:0:0:
320,204,122533,1,8,0:0:0:0:
464,164,122713,1,8,0:0:0:0:
464,164,122894,1,0,0:0:0:0:
464,164,123075,1,0,0:0:0:0:
464,164,123165,1,0,0:0:0:0:
464,164,123256,1,8,0:0:0:0:
464,164,123436,1,0,0:0:0:0:
464,164,123527,1,0,0:0:0:0:
464,164,123617,1,8,0:0:0:0:
400,171,123798,1,0,0:0:0:0:
332,201,123978,1,8,0:0:0:0:
359,59,124159,1,8,0:0:0:0:
472,152,124340,1,4,0:0:0:0:
209,283,124701,1,8,0:0:0:0:
340,217,124882,1,8,0:0:0:0:
467,143,125063,1,0,0:0:0:0:
332,201,125243,1,0,0:0:0:0:
400,171,125334,1,0,0:0:0:0:
472,165,125424,1,8,0:0:0:0:
396,292,125605,1,8,0:0:0:0:
428,148,125786,1,0,0:0:0:0:
472,165,125966,1,0,0:0:0:0:
472,165,126057,1,0,0:0:0:0:
472,165,126147,1,8,0:0:0:0:
472,165,126328,1,8,0:0:0:0:
385,138,126418,1,8,0:0:0:0:
472,165,126509,1,0,0:0:0:0:
432,304,126689,1,0,0:0:0:0:
408,160,126870,1,8,0:0:0:0:
387,285,127051,1,8,0:0:0:0:
385,138,127231,1,4,0:0:0:0:
432,164,127593,1,8,0:0:0:0:
432,164,127774,1,8,0:0:0:0:
432,164,127954,1,0,0:0:0:0:
432,164,128135,1,0,0:0:0:0:
432,164,128225,1,0,0:0:0:0:
432,164,128316,1,8,0:0:0:0:
432,164,128496,1,8,0:0:0:0:
300,96,128677,1,4,0:0:0:0:
432,164,128858,1,0,0:0:0:0:
488,168,128948,1,0,0:0:0:0:
488,168,129039,1,8,0:0:0:0:
468,224,129219,1,0,0:0:0:0:
432,164,129400,1,8,0:0:0:0:
457,186,129490,1,8,0:0:0:0:
488,168,129581,1,0,0:0:0:0:
416,185,129671,1,0,0:0:0:0:
488,168,129762,1,8,0:0:0:0:
488,168,129942,1,8,0:0:0:0:
488,168,130123,1,4,0:0:0:0:
488,168,130304,1,0,0:0:0:0:
488,168,130484,1,8,0:0:0:0:
488,168,130665,1,8,0:0:0:0:
500,240,130846,1,0,0:0:0:0:
500,240,130936,1,0,0:0:0:0:
460,216,131027,1,0,0:0:0:0:
460,216,131117,1,0,0:0:0:0:
306,152,131207,1,8,0:0:0:0:
306,152,131298,1,8,0:0:0:0:
464,176,131388,1,8,0:0:0:0:
464,176,131478,1,8,0:0:0:0:
392,172,131569,1,0,0:0:0:0:
432,152,132653,1,12,0:0:0:0:
424,240,133015,1,4,0:0:0:0:
444,240,135002,1,8,0:0:0:0:
340,136,135183,1,0,0:0:0:0:
432,208,135545,1,8,0:0:0:0:
208,184,135906,1,8,0:0:0:0:
496,208,136810,1,0,0:0:0:0:
445,181,136990,1,8,0:0:0:0:
445,181,137171,1,0,0:0:0:0:
400,156,137894,1,8,0:0:0:0:
464,160,138075,1,0,0:0:0:0:
480,196,138256,1,8,0:0:0:0:
480,196,138436,1,8,0:0:0:0:
356,152,138617,1,0,0:0:0:0:
400,156,138798,1,8,0:0:0:0:
384,180,139701,1,8,0:0:0:0:
488,168,139882,1,0,0:0:0:0:
464,188,140063,1,8,0:0:0:0:
336,116,140243,1,8,0:0:0:0:
372,128,140605,1,0,0:0:0:0:
416,148,140966,1,8,0:0:0:0:
448,168,141328,1,8,0:0:0:0:
495,172,141689,1,8,0:0:0:0:
232,136,142051,1,0,0:0:0:0:
495,172,142412,1,0,0:0:0:0:
220,277,142774,1,8,0:0:0:0:
492,166,143135,1,8,0:0:0:0:
439,127,144039,1,0,0:0:0:0:
439,127,144219,1,0,0:0:0:0:
464,272,144400,1,8,0:0:0:0:
207,241,144581,1,8,0:0:0:0:
493,176,146569,1,8,0:0:0:0:
493,176,146749,1,0,0:0:0:0:
200,204,147111,1,8,0:0:0:0:
419,194,147472,1,8,0:0:0:0:
419,194,148376,1,0,0:0:0:0:
479,162,148557,1,8,0:0:0:0:
419,194,148737,1,8,0:0:0:0:
419,194,149460,1,8,0:0:0:0:
436,164,149641,1,0,0:0:0:0:
300,132,149822,1,8,0:0:0:0:
332,152,150002,1,8,0:0:0:0:
476,170,150183,1,0,0:0:0:0:
436,164,150364,1,8,0:0:0:0:
436,164,150545,1,0,0:0:0:0:
420,236,150635,1,0,0:0:0:0:
436,164,150725,1,8,0:0:0:0:
436,311,150906,1,0,0:0:0:0:
479,162,151087,1,8,0:0:0:0:
412,196,151177,1,0,0:0:0:0:
479,162,151268,1,0,0:0:0:0:
420,236,151358,1,0,0:0:0:0:
479,162,151448,1,8,0:0:0:0:
508,168,151629,1,0,0:0:0:0:
479,162,151810,1,8,0:0:0:0:
479,162,151900,1,8,0:0:0:0:
484,236,151990,1,0,0:0:0:0:
436,164,152081,1,0,0:0:0:0:
479,162,152171,1,8,0:0:0:0:
479,162,152352,1,0,0:0:0:0:
479,162,152533,1,8,0:0:0:0:
436,164,152623,1,8,0:0:0:0:
436,164,152713,1,8,0:0:0:0:
436,164,152804,1,8,0:0:0:0:
409,185,152894,1,0,0:0:0:0:
479,162,152984,1,0,0:0:0:0:
445,228,153075,1,8,0:0:0:0:
436,164,153256,1,4,0:0:0:0:
436,164,153617,1,8,0:0:0:0:
436,164,153798,1,8,0:0:0:0:
408,164,153978,1,4,0:0:0:0:
480,204,154159,1,0,0:0:0:0:
436,164,154340,1,8,0:0:0:0:
436,164,154521,1,8,0:0:0:0:
480,164,154701,1,0,0:0:0:0:
480,164,154792,1,0,0:0:0:0:
436,164,154882,1,0,0:0:0:0:
408,144,154972,1,0,0:0:0:0:
480,164,155063,1,8,0:0:0:0:
408,164,155153,1,8,0:0:0:0:
480,156,155243,1,0,0:0:0:0:
408,164,155334,1,0,0:0:0:0:
480,144,155424,1,8,0:0:0:0:
512,160,155515,1,0,0:0:0:0:
460,212,155605,1,8,0:0:0:0:
479,162,155695,1,8,0:0:0:0:
479,162,155786,1,0,0:0:0:0:
496,232,155876,1,0,0:0:0:0:
480,164,155966,1,8,0:0:0:0:
340,124,156147,1,4,0:0:0:0:
400,168,156509,1,8,0:0:0:0:
444,192,156689,1,8,0:0:0:0:
444,192,156780,1,8,0:0:0:0:
480,164,156870,1,0,0:0:0:0:
387,278,157051,1,0,0:0:0:0:
480,164,157231,1,8,0:0:0:0:
476,160,157412,1,0,0:0:0:0:
400,148,157502,1,0,0:0:0:0:
480,164,157593,1,8,0:0:0:0:
405,164,157774,1,0,0:0:0:0:
448,184,157864,1,8,0:0:0:0:
448,184,157954,1,0,0:0:0:0:
372,188,158045,1,0,0:0:0:0:
448,184,158135,1,8,0:0:0:0:
405,164,158225,1,8,0:0:0:0:
296,152,158316,1,0,0:0:0:0:
405,164,158496,1,0,0:0:0:0:
469,200,158587,1,0,0:0:0:0:
480,164,158677,1,8,0:0:0:0:
337,125,158858,1,0,0:0:0:0:
479,157,159039,1,8,0:0:0:0:
480,164,159219,1,0,0:0:0:0:
480,164,159310,1,0,0:0:0:0:
333,177,159400,1,8,0:0:0:0:
476,143,159581,1,0,0:0:0:0:
333,177,159762,1,8,0:0:0:0:
471,208,159852,1,0,0:0:0:0:
479,157,159942,1,8,0:0:0:0:
480,164,160033,1,8,0:0:0:0:
406,169,160123,1,0,0:0:0:0:
479,157,160304,1,8,0:0:0:0:
334,177,160484,1,0,0:0:0:0:
479,157,160665,1,0,0:0:0:0:
405,167,160756,1,0,0:0:0:0:
480,164,160846,1,8,0:0:0:0:
408,148,161027,1,8,0:0:0:0:
479,157,161117,1,8,0:0:0:0:
408,148,161207,1,0,0:0:0:0:
462,202,161298,1,0,0:0:0:0:
334,177,161388,1,8,0:0:0:0:
437,163,161478,1,0,0:0:0:0:
420,207,161569,1,8,0:0:0:0:
480,164,161749,1,8,0:0:0:0:
480,164,161930,1,0,0:0:0:0:
480,164,162111,1,0,0:0:0:0:
420,207,162201,1,0,0:0:0:0:
437,163,162292,1,8,0:0:0:0:
500,296,162472,1,0,0:0:0:0:
437,163,162653,1,0,0:0:0:0:
437,163,162743,1,0,0:0:0:0:
359,169,162834,1,0,0:0:0:0:
437,163,162924,1,0,0:0:0:0:
379,215,163015,1,8,0:0:0:0:
437,163,163195,1,0,0:0:0:0:
363,163,163376,1,8,0:0:0:0:
475,257,163557,1,0,0:0:0:0:
418,210,163647,1,0,0:0:0:0:
441,179,163737,1,8,0:0:0:0:
363,163,163918,1,8,0:0:0:0:
437,163,164009,1,0,0:0:0:0:
437,163,164099,1,8,0:0:0:0:
360,172,164189,1,0,0:0:0:0:
363,163,164280,1,0,0:0:0:0:
437,163,164370,1,0,0:0:0:0:
437,163,164460,1,8,0:0:0:0:
420,220,164641,1,0,0:0:0:0:
408,148,164822,1,8,0:0:0:0:
369,191,165002,1,8,0:0:0:0:
369,191,165093,1,8,0:0:0:0:
441,179,165183,1,0,0:0:0:0:
437,163,165364,1,8,0:0:0:0:
369,191,165454,1,0,0:0:0:0:
417,138,165545,1,8,0:0:0:0:
437,163,165635,1,8,0:0:0:0:
437,163,165725,1,0,0:0:0:0:
437,163,165816,1,0,0:0:0:0:
437,163,165906,1,8,0:0:0:0:
441,179,166087,1,8,0:0:0:0:
430,174,166268,1,0,0:0:0:0:
502,198,166448,1,0,0:0:0:0:
358,163,166629,1,8,0:0:0:0:
503,182,166810,1,0,0:0:0:0:
430,174,166900,1,0,0:0:0:0:
501,160,166990,1,8,0:0:0:0:
408,283,167171,1,0,0:0:0:0:
400,168,167352,1,8,0:0:0:0:
250,116,167442,1,8,0:0:0:0:
448,208,167533,1,8,0:0:0:0:
430,174,167713,1,4,0:0:0:0:
400,168,168075,1,8,0:0:0:0:
444,192,168255,1,8,0:0:0:0:
444,192,168346,1,8,0:0:0:0:
480,164,168436,1,0,0:0:0:0:
387,278,168617,1,0,0:0:0:0:
444,192,168797,1,8,0:0:0:0:
480,164,168978,1,0,0:0:0:0:
480,164,169068,1,0,0:0:0:0:
405,164,169159,1,8,0:0:0:0:
480,164,169340,1,0,0:0:0:0:
480,164,169430,1,8,0:0:0:0:
504,172,169521,1,0,0:0:0:0:
504,172,169611,1,0,0:0:0:0:
480,164,169701,1,8,0:0:0:0:
504,172,169792,1,8,0:0:0:0:
444,192,169882,1,0,0:0:0:0:
405,164,170062,1,0,0:0:0:0:
469,200,170153,1,0,0:0:0:0:
480,164,170243,1,8,0:0:0:0:
337,125,170424,1,0,0:0:0:0:
479,157,170605,1,8,0:0:0:0:
480,164,170785,1,0,0:0:0:0:
405,167,170876,1,0,0:0:0:0:
333,177,170966,1,8,0:0:0:0:
476,143,171147,1,0,0:0:0:0:
433,172,171328,1,0,0:0:0:0:
433,172,171418,1,0,0:0:0:0:
433,172,171509,1,8,0:0:0:0:
479,157,171599,1,0,0:0:0:0:
412,140,171689,1,8,0:0:0:0:
333,177,171870,1,0,0:0:0:0:
197,251,172051,1,8,0:0:0:0:
479,157,172231,1,0,0:0:0:0:
405,167,172322,1,0,0:0:0:0:
480,164,172412,1,8,0:0:0:0:
334,188,172593,1,8,0:0:0:0:
433,172,172683,1,0,0:0:0:0:
476,236,172774,1,8,0:0:0:0:
476,236,172864,1,8,0:0:0:0:
408,148,172954,1,0,0:0:0:0:
433,172,173045,1,0,0:0:0:0:
408,148,173135,1,8,0:0:0:0:
504,272,173316,1,0,0:0:0:0:
396,164,173496,1,8,0:0:0:0:
458,168,173587,1,0,0:0:0:0:
433,172,173677,1,0,0:0:0:0:
458,168,173768,1,0,0:0:0:0:
458,168,173858,1,8,0:0:0:0:
458,168,174039,1,0,0:0:0:0:
433,172,174129,1,0,0:0:0:0:
479,157,174219,1,8,0:0:0:0:
458,168,174310,1,0,0:0:0:0:
433,172,174400,1,0,0:0:0:0:
484,178,174490,1,0,0:0:0:0:
458,168,174581,1,8,0:0:0:0:
458,168,174762,1,8,0:0:0:0:
433,172,174852,1,0,0:0:0:0:
433,172,174942,1,8,0:0:0:0:
458,168,175033,1,8,0:0:0:0:
458,168,175123,1,0,0:0:0:0:
508,171,175213,1,0,0:0:0:0:
458,168,175304,1,8,0:0:0:0:
458,168,175484,1,0,0:0:0:0:
458,168,175575,1,0,0:0:0:0:
508,171,175665,1,8,0:0:0:0:
433,194,175756,1,0,0:0:0:0:
448,100,175846,1,0,0:0:0:0:
433,171,175936,1,0,0:0:0:0:
433,171,176027,1,8,0:0:0:0:
356,160,176117,1,8,0:0:0:0:
508,208,176207,1,0,0:0:0:0:
452,244,176298,1,0,0:0:0:0:
433,172,176388,1,8,0:0:0:0:
484,178,176569,1,0,0:0:0:0:
458,168,176749,1,0,0:0:0:0:
458,168,176930,1,0,0:0:0:0:
458,168,177111,1,8,0:0:0:0:
458,168,177292,1,0,0:0:0:0:
458,168,177472,1,0,0:0:0:0:
458,168,177653,5,0,0:0:0:0:
458,168,177834,1,8,0:0:0:0:
458,168,177924,1,0,0:0:0:0:
458,168,178015,1,0,0:0:0:0:
458,168,178105,1,8,0:0:0:0:
458,168,178195,1,0,0:0:0:0:
458,168,178286,1,0,0:0:0:0:
458,168,178376,1,8,0:0:0:0:
404,220,178466,1,0,0:0:0:0:
458,168,178557,1,0,0:0:0:0:
458,168,178647,1,8,0:0:0:0:
458,168,178737,1,0,0:0:0:0:
458,168,178828,1,0,0:0:0:0:
384,168,178918,1,8,0:0:0:0:
414,168,179099,1,8,0:0:0:0:
385,157,179280,1,4,0:0:0:0:
256,192,179460,12,0,189400,0:0:0:0:
345,218,190846,5,0,0:0:0:0:
440,220,191207,1,0,0:0:0:0:
428,176,191569,1,8,0:0:0:0:
468,168,191930,1,8,0:0:0:0:
468,168,192292,1,8,0:0:0:0:
392,168,192563,1,8,0:0:0:0:
428,176,192834,1,0,0:0:0:0:
428,176,193015,1,0,0:0:0:0:
480,172,193557,1,0,0:0:0:0:
480,172,193737,1,8,0:0:0:0:
456,180,194009,1,8,0:0:0:0:
428,176,194280,1,8,0:0:0:0:
428,176,194460,1,8,0:0:0:0:
448,156,194822,1,0,0:0:0:0:
448,156,195002,1,8,0:0:0:0:
428,176,195183,1,8,0:0:0:0:
428,176,195454,1,0,0:0:0:0:
428,176,195725,1,8,0:0:0:0:
448,156,195906,1,0,0:0:0:0:
472,168,196268,1,0,0:0:0:0:
428,176,196629,1,8,0:0:0:0:
448,216,196990,1,0,0:0:0:0:
452,160,197352,1,8,0:0:0:0:
448,216,197713,1,8,0:0:0:0:
452,160,198075,1,8,0:0:0:0:
452,160,198346,1,0,0:0:0:0:
452,160,198617,1,8,0:0:0:0:
452,160,198798,1,8,0:0:0:0:
452,160,199159,1,0,0:0:0:0:
487,164,199340,1,8,0:0:0:0:
487,164,199521,1,8,0:0:0:0:
452,160,199792,1,0,0:0:0:0:
487,164,200063,1,8,0:0:0:0:
487,164,200243,1,8,0:0:0:0:
45,164,200786,1,0,0:0:0:0:
191,164,200966,1,0,0:0:0:0:
411,160,201237,1,8,0:0:0:0:
411,160,201509,1,8,0:0:0:0:
411,160,201689,1,8,0:0:0:0:
464,170,202412,1,0,0:0:0:0:
464,170,202774,1,8,0:0:0:0:
464,170,203135,1,8,0:0:0:0:
464,170,203496,1,8,0:0:0:0:
506,127,203858,1,8,0:0:0:0:
464,170,204219,1,8,0:0:0:0:
506,127,204581,1,8,0:0:0:0:
506,127,204942,1,8,0:0:0:0:
479,271,205123,1,0,0:0:0:0:
466,124,205304,1,8,0:0:0:0:
464,153,205665,1,8,0:0:0:0:
464,153,206027,1,8,0:0:0:0:
464,153,206388,1,8,0:0:0:0:
464,153,206749,1,8,0:0:0:0:
464,153,207111,1,8,0:0:0:0:
464,153,207472,1,8,0:0:0:0:
464,153,207834,1,8,0:0:0:0:
324,104,208015,1,8,0:0:0:0:
454,170,208195,1,0,0:0:0:0:
173,80,208557,1,8,0:0:0:0:
313,121,208737,1,0,0:0:0:0:
384,141,208828,1,0,0:0:0:0:
453,162,208918,1,8,0:0:0:0:
431,307,209099,1,0,0:0:0:0:
384,141,209189,1,0,0:0:0:0:
384,141,209280,1,8,0:0:0:0:
384,141,209460,1,0,0:0:0:0:
412,285,209641,1,8,0:0:0:0:
453,162,209731,1,0,0:0:0:0:
453,162,209822,1,0,0:0:0:0:
453,162,209912,1,0,0:0:0:0:
453,162,210002,1,8,0:0:0:0:
309,128,210183,1,8,0:0:0:0:
384,141,210274,1,0,0:0:0:0:
453,162,210364,1,8,0:0:0:0:
444,234,210454,1,8,0:0:0:0:
379,169,210545,1,0,0:0:0:0:
451,160,210635,1,0,0:0:0:0:
379,169,210725,1,8,0:0:0:0:
486,269,210906,1,0,0:0:0:0:
432,218,210996,1,0,0:0:0:0:
453,162,211087,1,8,0:0:0:0:
379,169,211177,1,0,0:0:0:0:
451,160,211268,1,0,0:0:0:0:
451,160,211358,1,0,0:0:0:0:
453,162,211448,1,8,0:0:0:0:
451,160,211539,1,8,0:0:0:0:
451,160,211629,1,0,0:0:0:0:
453,162,211719,1,0,0:0:0:0:
453,162,211810,1,8,0:0:0:0:
379,166,211900,1,0,0:0:0:0:
380,168,211990,1,0,0:0:0:0:
305,168,212081,1,0,0:0:0:0:
377,174,212171,1,8,0:0:0:0:
440,212,212262,1,0,0:0:0:0:
451,160,212352,1,8,0:0:0:0:
451,160,212442,1,8,0:0:0:0:
377,169,212533,1,0,0:0:0:0:
379,166,212894,1,8,0:0:0:0:
414,166,212984,1,8,0:0:0:0:
414,166,213075,1,8,0:0:0:0:
376,111,213346,1,0,0:0:0:0:
414,166,213436,1,0,0:0:0:0:
402,239,213527,1,0,0:0:0:0:
414,166,213617,1,8,0:0:0:0:
120,140,213978,1,4,0:0:0:0:
469,162,214340,1,8,0:0:0:0:
421,147,214701,1,8,0:0:0:0:
421,147,215063,1,8,0:0:0:0:
507,171,215243,1,8,0:0:0:0:
421,147,215424,1,4,0:0:0:0:
410,200,215786,1,8,0:0:0:0:
431,156,216147,1,8,0:0:0:0:
431,156,216689,1,8,0:0:0:0:
431,156,216870,1,4,0:0:0:0:
431,156,217231,1,8,0:0:0:0:
432,156,217593,1,8,0:0:0:0:
148,234,217954,1,8,0:0:0:0:
432,156,218135,1,4,0:0:0:0:
432,156,218316,1,8,0:0:0:0:
143,100,218677,1,8,0:0:0:0:
416,156,219039,1,8,0:0:0:0:
432,204,219762,1,4,0:0:0:0:
184,296,220123,1,8,0:0:0:0:
436,144,220484,1,8,0:0:0:0:
436,144,220846,1,8,0:0:0:0:
428,292,221027,1,8,0:0:0:0:
372,156,221207,1,4,0:0:0:0:
468,152,221569,1,8,0:0:0:0:
468,152,221930,1,8,0:0:0:0:
468,152,222472,1,8,0:0:0:0:
500,152,222653,1,4,0:0:0:0:
468,152,223015,1,8,0:0:0:0:
468,152,223376,1,8,0:0:0:0:
494,171,223737,1,0,0:0:0:0:
494,171,223918,1,4,0:0:0:0:
328,196,224099,1,8,0:0:0:0:
436,168,224460,1,8,0:0:0:0:
436,168,224822,1,8,0:0:0:0:
436,168,225545,1,4,0:0:0:0:
472,168,225906,1,8,0:0:0:0:
472,168,226268,1,0,0:0:0:0:
180,192,226629,1,8,0:0:0:0:
472,168,226810,1,8,0:0:0:0:
504,164,226990,1,4,0:0:0:0:
208,172,227352,1,8,0:0:0:0:
500,156,227713,1,0,0:0:0:0:
500,156,228075,1,0,0:0:0:0:
500,156,228256,1,8,0:0:0:0:
352,152,228436,1,4,0:0:0:0:
496,192,228617,1,0,0:0:0:0:
500,156,228798,1,8,0:0:0:0:
500,156,228978,1,8,0:0:0:0:
500,156,229159,1,0,0:0:0:0:
357,192,229340,1,0,0:0:0:0:
208,184,229521,1,8,0:0:0:0:
500,156,229701,1,8,0:0:0:0:
352,168,229882,1,4,0:0:0:0:
440,168,230063,1,8,0:0:0:0:
440,168,230243,1,0,0:0:0:0:
440,168,230424,1,0,0:0:0:0:
500,156,230605,1,8,0:0:0:0:
440,168,230786,1,0,0:0:0:0:
440,168,230966,1,8,0:0:0:0:
440,168,231147,1,8,0:0:0:0:
500,156,231328,1,0,0:0:0:0:
484,196,231418,1,0,0:0:0:0:
440,168,231509,1,0,0:0:0:0:
440,168,231599,1,0,0:0:0:0:
440,168,231689,1,8,0:0:0:0:
416,212,231870,1,0,0:0:0:0:
396,164,232051,1,8,0:0:0:0:
396,164,232141,1,8,0:0:0:0:
396,164,232231,1,0,0:0:0:0:
468,144,232322,1,0,0:0:0:0:
468,144,232412,1,8,0:0:0:0:
416,212,232593,1,0,0:0:0:0:
429,164,232774,1,8,0:0:0:0:
369,206,232864,1,8,0:0:0:0:
429,164,232954,1,0,0:0:0:0:
429,164,233045,1,8,0:0:0:0:
396,152,233135,1,0,0:0:0:0:
324,156,233225,1,0,0:0:0:0:
429,164,233316,1,8,0:0:0:0:
466,187,233406,1,0,0:0:0:0:
429,164,233496,1,8,0:0:0:0:
440,168,233677,1,0,0:0:0:0:
440,168,233768,1,0,0:0:0:0:
440,168,233858,1,8,0:0:0:0:
429,164,234039,1,0,0:0:0:0:
356,176,234129,1,0,0:0:0:0:
429,164,234219,1,8,0:0:0:0:
357,147,234310,1,0,0:0:0:0:
429,164,234400,1,8,0:0:0:0:
429,164,234490,1,8,0:0:0:0:
504,164,234581,1,0,0:0:0:0:
500,172,234671,1,0,0:0:0:0:
500,172,234762,1,8,0:0:0:0:
433,141,234852,1,0,0:0:0:0:
356,176,234942,1,8,0:0:0:0:
356,176,235033,1,8,0:0:0:0:
356,176,235123,1,8,0:0:0:0:
356,176,235213,1,8,0:0:0:0:
356,176,235304,1,8,0:0:0:0:
356,176,235394,1,8,0:0:0:0:
356,176,235484,1,8,0:0:0:0:
429,164,235575,1,8,0:0:0:0:
357,147,235665,1,0,0:0:0:0:
429,164,235846,1,0,0:0:0:0:
429,164,235936,1,0,0:0:0:0:
500,182,236027,1,8,0:0:0:0:
500,182,236117,1,0,0:0:0:0:
429,164,236207,1,8,0:0:0:0:
429,164,236298,1,8,0:0:0:0:
429,164,236388,1,0,0:0:0:0:
429,164,236478,1,0,0:0:0:0:
429,164,236569,1,8,0:0:0:0:
465,188,236659,1,0,0:0:0:0:
392,181,236749,1,8,0:0:0:0:
320,188,237111,1,4,0:0:0:0:
465,188,237382,1,0,0:0:0:0:
466,167,237473,1,8,0:0:0:0:
466,167,237654,1,8,0:0:0:0:
466,167,237744,1,8,0:0:0:0:
421,224,237834,1,0,0:0:0:0:
424,152,238015,1,0,0:0:0:0:
421,224,238105,1,0,0:0:0:0:
466,167,238196,1,8,0:0:0:0:
320,160,238376,1,0,0:0:0:0:
466,167,238557,1,8,0:0:0:0:
432,308,238738,1,0,0:0:0:0:
460,240,238828,1,8,0:0:0:0:
499,177,238919,1,0,0:0:0:0:
466,167,239009,1,0,0:0:0:0:
499,177,239099,1,8,0:0:0:0:
466,167,239280,1,8,0:0:0:0:
434,185,239461,1,0,0:0:0:0:
500,220,239551,1,0,0:0:0:0:
424,152,239642,1,8,0:0:0:0:
350,151,239732,1,0,0:0:0:0:
466,167,239822,1,8,0:0:0:0:
466,167,239913,1,8,0:0:0:0:
466,167,240003,1,0,0:0:0:0:
466,167,240184,1,0,0:0:0:0:
466,167,240274,1,0,0:0:0:0:
466,167,240364,1,8,0:0:0:0:
466,167,240545,1,8,0:0:0:0:
466,167,240635,1,0,0:0:0:0:
466,167,240726,1,8,0:0:0:0:
512,168,240907,1,0,0:0:0:0:
466,167,241087,1,8,0:0:0:0:
466,167,241178,1,8,0:0:0:0:
426,105,241268,1,0,0:0:0:0:
464,167,241358,1,0,0:0:0:0:
397,134,241449,1,8,0:0:0:0:
498,239,241629,1,8,0:0:0:0:
440,97,241720,1,8,0:0:0:0:
466,167,241810,1,0,0:0:0:0:
481,144,241991,1,8,0:0:0:0:
466,167,242081,1,0,0:0:0:0:
481,144,242172,1,8,0:0:0:0:
481,144,242262,1,8,0:0:0:0:
466,167,242352,1,0,0:0:0:0:
402,203,242442,1,0,0:0:0:0:
466,167,242533,1,8,0:0:0:0:
438,106,242713,1,0,0:0:0:0:
436,164,242804,1,0,0:0:0:0:
385,110,242894,1,8,0:0:0:0:
320,164,243075,1,0,0:0:0:0:
509,164,243256,1,8,0:0:0:0:
509,164,243437,1,8,0:0:0:0:
509,164,243527,1,8,0:0:0:0:
509,164,243617,1,0,0:0:0:0:
509,164,243798,1,0,0:0:0:0:
363,179,243888,1,0,0:0:0:0:
509,164,243979,1,8,0:0:0:0:
363,179,244159,1,0,0:0:0:0:
508,157,244340,1,8,0:0:0:0:
364,208,244521,1,0,0:0:0:0:
362,169,244611,1,8,0:0:0:0:
362,169,244701,1,0,0:0:0:0:
362,169,244792,1,0,0:0:0:0:
508,178,244882,1,8,0:0:0:0:
436,164,244972,1,0,0:0:0:0:
496,164,245063,1,8,0:0:0:0:
495,152,245244,1,0,0:0:0:0:
495,152,245334,1,0,0:0:0:0:
495,152,245425,1,8,0:0:0:0:
424,140,245605,1,0,0:0:0:0:
281,178,245786,1,8,0:0:0:0:
509,164,245967,1,0,0:0:0:0:
509,164,246057,1,0,0:0:0:0:
496,164,246148,1,8,0:0:0:0:
356,116,246328,1,8,0:0:0:0:
495,152,246419,1,0,0:0:0:0:
424,140,246509,1,8,0:0:0:0:
424,140,246599,1,8,0:0:0:0:
509,164,246690,1,0,0:0:0:0:
509,164,246780,1,0,0:0:0:0:
436,172,246870,1,8,0:0:0:0:
436,172,247051,1,8,0:0:0:0:
424,140,247232,1,4,0:0:0:0:
468,168,247413,1,0,0:0:0:0:
396,168,247503,1,8,0:0:0:0:
436,172,247593,1,8,0:0:0:0:
509,164,247774,1,4,0:0:0:0:
424,140,247955,1,8,0:0:0:0:
436,172,248135,1,0,0:0:0:0:
468,168,248316,1,8,0:0:0:0:
468,168,248407,1,8,0:0:0:0:
509,164,248497,1,8,0:0:0:0:
468,168,248678,1,4,0:0:0:0:
256,224,248948,1,0,0:0:0:0:
468,168,249039,1,8,0:0:0:0:
323,139,249220,1,8,0:0:0:0:
394,153,249310,1,8,0:0:0:0:
509,164,249401,1,0,0:0:0:0:
368,224,249581,1,0,0:0:0:0:
368,224,249671,1,0,0:0:0:0:
468,168,249762,1,8,0:0:0:0:
468,168,249943,1,0,0:0:0:0:
445,128,250123,1,8,0:0:0:0:
480,270,250304,1,0,0:0:0:0:
468,168,250395,1,8,0:0:0:0:
504,161,250485,1,0,0:0:0:0:
468,168,250575,1,0,0:0:0:0:
465,160,250665,1,8,0:0:0:0:
504,161,250846,1,8,0:0:0:0:
358,180,251027,1,0,0:0:0:0:
504,161,251117,1,0,0:0:0:0:
468,168,251208,1,8,0:0:0:0:
398,189,251298,1,0,0:0:0:0:
468,168,251388,1,8,0:0:0:0:
468,168,251479,1,8,0:0:0:0:
468,168,251569,1,0,0:0:0:0:
327,211,251750,1,0,0:0:0:0:
397,189,251840,1,0,0:0:0:0:
465,160,251931,1,8,0:0:0:0:
446,212,252111,1,0,0:0:0:0:
398,189,252292,1,8,0:0:0:0:
397,189,252382,1,8,0:0:0:0:
468,168,252473,1,0,0:0:0:0:
446,212,252563,1,0,0:0:0:0:
465,160,252654,1,8,0:0:0:0:
392,164,252834,1,0,0:0:0:0:
392,164,253015,1,8,0:0:0:0:
392,164,253195,1,8,0:0:0:0:
468,168,253286,1,8,0:0:0:0:
392,164,253376,1,0,0:0:0:0:
468,168,253557,1,8,0:0:0:0:
446,212,253647,1,0,0:0:0:0:
370,195,253737,1,8,0:0:0:0:
446,212,253828,1,8,0:0:0:0:
421,137,253918,1,0,0:0:0:0:
355,182,254009,1,0,0:0:0:0:
392,164,254099,1,8,0:0:0:0:
446,212,254280,1,0,0:0:0:0:
446,212,254370,1,0,0:0:0:0:
411,147,254460,1,8,0:0:0:0:
436,140,254641,1,0,0:0:0:0:
280,342,254822,1,8,0:0:0:0:
395,250,255003,1,8,0:0:0:0:
453,205,255093,1,8,0:0:0:0:
421,137,255184,1,0,0:0:0:0:
474,273,255364,1,0,0:0:0:0:
447,203,255455,1,0,0:0:0:0:
507,162,255545,1,8,0:0:0:0:
359,163,255726,1,0,0:0:0:0:
506,163,255907,1,8,0:0:0:0:
359,170,256087,1,0,0:0:0:0:
285,160,256178,1,8,0:0:0:0:
358,163,256268,1,0,0:0:0:0:
431,167,256358,1,0,0:0:0:0:
431,167,256449,1,8,0:0:0:0:
431,167,256539,1,0,0:0:0:0:
506,163,256629,1,8,0:0:0:0:
304,91,256810,1,0,0:0:0:0:
367,129,256901,1,0,0:0:0:0:
438,143,256991,1,8,0:0:0:0:
473,164,257172,1,0,0:0:0:0:
473,164,257352,1,12,0:0:0:0:
331,225,257533,1,0,0:0:0:0:
401,195,257623,1,0,0:0:0:0:
473,164,257714,1,0,0:0:0:0:
473,164,257895,1,12,0:0:0:0:
180,168,258256,1,8,0:0:0:0:
325,168,258437,1,0,0:0:0:0:
398,166,258527,1,0,0:0:0:0:
471,161,258617,1,8,0:0:0:0:
473,164,258798,1,4,0:0:0:0:
473,164,258979,1,0,0:0:0:0:
473,164,259069,1,0,0:0:0:0:
392,148,259160,1,8,0:0:0:0:
404,301,259340,1,8,0:0:0:0:
471,161,259430,1,0,0:0:0:0:
473,164,259521,1,8,0:0:0:0:
473,164,259611,1,8,0:0:0:0:
473,164,259702,1,0,0:0:0:0:
473,164,259792,1,0,0:0:0:0:
473,164,259882,1,8,0:0:0:0:
473,164,259972,1,0,0:0:0:0:
396,176,260063,1,8,0:0:0:0:
385,78,260244,1,4,0:0:0:0:
490,188,260605,1,8,0:0:0:0:
218,76,260966,1,0,0:0:0:0:
428,196,261147,1,0,0:0:0:0:
428,196,261237,1,0,0:0:0:0:
457,190,261328,1,8,0:0:0:0:
457,190,261509,1,8,0:0:0:0:
469,163,261689,1,0,0:0:0:0:
457,190,261870,1,0,0:0:0:0:
468,163,262051,1,8,0:0:0:0:
499,162,262231,1,0,0:0:0:0:
499,162,262322,1,0,0:0:0:0:
457,190,262412,1,8,0:0:0:0:
457,235,262593,1,0,0:0:0:0:
468,163,262774,1,8,0:0:0:0:
324,189,262954,1,8,0:0:0:0:
499,162,263135,1,0,0:0:0:0:
220,70,263496,1,8,0:0:0:0:
340,156,263677,1,0,0:0:0:0:
404,192,263768,1,0,0:0:0:0:
469,163,263858,1,8,0:0:0:0:
446,308,264039,1,0,0:0:0:0:
410,183,264219,1,8,0:0:0:0:
469,163,264400,1,8,0:0:0:0:
469,163,264490,1,8,0:0:0:0:
500,191,264581,1,0,0:0:0:0:
483,186,264762,1,0,0:0:0:0:
469,163,264942,1,8,0:0:0:0:
469,163,265123,1,0,0:0:0:0:
469,163,265304,1,8,0:0:0:0:
426,142,265484,1,0,0:0:0:0:
426,142,265575,1,0,0:0:0:0:
483,186,265665,1,8,0:0:0:0:
343,138,265846,1,8,0:0:0:0:
501,155,266027,1,0,0:0:0:0:
501,155,266388,1,8,0:0:0:0:
501,155,266749,1,0,0:0:0:0:
498,163,266930,1,0,0:0:0:0:
426,142,267021,1,0,0:0:0:0:
499,142,267111,1,8,0:0:0:0:
351,142,267292,1,8,0:0:0:0:
497,147,267472,1,0,0:0:0:0:
420,272,267653,1,0,0:0:0:0:
426,142,267834,1,8,0:0:0:0:
491,175,268015,1,0,0:0:0:0:
491,175,268105,1,0,0:0:0:0:
426,142,268195,1,8,0:0:0:0:
491,175,268376,1,0,0:0:0:0:
491,175,268557,1,8,0:0:0:0:
491,175,268737,1,8,0:0:0:0:
491,175,268918,1,0,0:0:0:0:
484,168,269280,1,8,0:0:0:0:
491,175,269460,1,0,0:0:0:0:
484,168,269551,1,0,0:0:0:0:
466,201,269641,1,8,0:0:0:0:
372,88,269822,1,0,0:0:0:0:
484,168,270002,1,8,0:0:0:0:
337,180,270183,1,8,0:0:0:0:
484,168,270364,1,4,0:0:0:0:
349,107,270545,1,0,0:0:0:0:
410,146,270635,1,8,0:0:0:0:
457,201,270725,1,0,0:0:0:0:
484,168,270906,1,4,0:0:0:0:
440,240,271268,1,0,0:0:0:0:
488,100,271448,1,8,0:0:0:0:
464,172,271539,1,8,0:0:0:0:
440,240,271629,1,8,0:0:0:0:
385,78,271810,1,4,0:0:0:0:
490,188,272171,1,8,0:0:0:0:
218,76,272532,1,0,0:0:0:0:
428,196,272713,1,0,0:0:0:0:
428,196,272803,1,0,0:0:0:0:
457,190,272894,1,8,0:0:0:0:
457,190,273075,1,8,0:0:0:0:
469,163,273255,1,0,0:0:0:0:
468,163,273617,1,8,0:0:0:0:
499,162,273797,1,0,0:0:0:0:
499,162,273888,1,0,0:0:0:0:
457,190,273978,1,8,0:0:0:0:
457,235,274159,1,0,0:0:0:0:
468,163,274340,1,8,0:0:0:0:
324,189,274520,1,8,0:0:0:0:
499,162,274701,1,0,0:0:0:0:
220,70,275062,1,8,0:0:0:0:
348,144,275243,1,0,0:0:0:0:
412,180,275334,1,0,0:0:0:0:
469,163,275424,1,8,0:0:0:0:
446,308,275605,5,0,0:0:0:0:
410,183,275785,1,8,0:0:0:0:
469,163,275966,1,8,0:0:0:0:
412,180,276057,1,8,0:0:0:0:
500,191,276147,1,0,0:0:0:0:
500,191,276328,1,0,0:0:0:0:
500,191,276508,1,8,0:0:0:0:
500,191,276689,1,0,0:0:0:0:
469,163,276870,1,8,0:0:0:0:
426,142,277050,1,0,0:0:0:0:
460,208,277141,1,0,0:0:0:0:
449,167,277231,1,8,0:0:0:0:
410,183,277412,1,8,0:0:0:0:
460,44,277593,1,4,0:0:0:0:
410,183,277954,1,0,0:0:0:0:
466,141,278316,1,12,0:0:0:0:
449,167,278677,1,0,0:0:0:0:
410,183,278858,1,12,0:0:0:0:
163,22,279219,1,4,0:0:0:0:
422,161,279581,1,12,0:0:0:0:
463,150,279762,1,4,0:0:0:0:
422,202,280033,1,0,0:0:0:0:
480,158,280123,1,8,0:0:0:0:
332,153,280304,1,4,0:0:0:0:
256,192,280484,12,0,281569,0:0:0:0:
422,202,281749,5,0,0:0:0:0:
453,161,281930,5,4,0:0:0:0:
453,161,283015,1,8,0:0:0:0:
490,152,283105,1,8,0:0:0:0:
418,167,283195,1,8,0:0:0:0:
385,78,283376,1,4,0:0:0:0:
494,269,283647,1,0,0:0:0:0:
470,160,283737,1,8,0:0:0:0:
470,160,283918,1,8,0:0:0:0:
470,160,284008,1,8,0:0:0:0:
470,160,284099,1,0,0:0:0:0:
470,160,284279,1,0,0:0:0:0:
470,160,284460,1,8,0:0:0:0:
470,160,284641,1,0,0:0:0:0:
470,160,284731,1,8,0:0:0:0:
470,160,284822,1,0,0:0:0:0:
470,160,285093,1,0,0:0:0:0:
507,170,285183,1,8,0:0:0:0:
359,167,285364,1,0,0:0:0:0:
432,168,285454,1,0,0:0:0:0:
470,160,285544,1,0,0:0:0:0:
507,170,285725,1,0,0:0:0:0:
507,170,285906,1,8,0:0:0:0:
470,160,285996,1,0,0:0:0:0:
396,156,286087,1,0,0:0:0:0:
470,160,286177,1,8,0:0:0:0:
470,160,286267,1,0,0:0:0:0:
470,160,286538,1,0,0:0:0:0:
470,160,286629,1,8,0:0:0:0:
507,170,286809,1,8,0:0:0:0:
507,170,286900,1,8,0:0:0:0:
470,160,286990,1,0,0:0:0:0:
322,160,287171,1,0,0:0:0:0:
470,160,287352,1,8,0:0:0:0:
424,300,287532,1,0,0:0:0:0:
470,160,287623,1,0,0:0:0:0:
470,160,287713,1,8,0:0:0:0:
424,300,287894,1,8,0:0:0:0:
470,160,287984,1,0,0:0:0:0:
470,160,288075,1,8,0:0:0:0:
470,160,288255,1,8,0:0:0:0:
470,160,288436,1,0,0:0:0:0:
470,160,288617,1,8,0:0:0:0:
470,160,288797,1,0,0:0:0:0:
472,208,288888,1,8,0:0:0:0:
472,200,288978,1,8,0:0:0:0:
441,204,289069,1,0,0:0:0:0:
470,160,289159,1,8,0:0:0:0:
494,269,289430,1,0,0:0:0:0:
470,160,289520,1,8,0:0:0:0:
470,160,289701,1,8,0:0:0:0:
470,160,289791,1,8,0:0:0:0:
470,160,289882,1,0,0:0:0:0:
470,160,290062,1,0,0:0:0:0:
470,160,290243,1,8,0:0:0:0:
470,160,290424,1,0,0:0:0:0:
470,160,290514,1,8,0:0:0:0:
470,160,290605,1,0,0:0:0:0:
470,160,290876,1,0,0:0:0:0:
507,170,290966,1,8,0:0:0:0:
359,167,291147,1,0,0:0:0:0:
432,168,291237,1,0,0:0:0:0:
470,160,291327,1,0,0:0:0:0:
507,170,291508,1,0,0:0:0:0:
507,170,291689,1,8,0:0:0:0:
470,160,291779,1,0,0:0:0:0:
492,232,291870,1,0,0:0:0:0:
470,160,291960,1,8,0:0:0:0:
470,160,292050,1,0,0:0:0:0:
470,160,292321,1,0,0:0:0:0:
470,160,292412,1,8,0:0:0:0:
507,170,292592,1,8,0:0:0:0:
507,170,292683,1,8,0:0:0:0:
470,160,292773,1,0,0:0:0:0:
322,160,292954,1,0,0:0:0:0:
470,160,293044,1,0,0:0:0:0:
396,164,293135,1,8,0:0:0:0:
457,140,293316,1,8,0:0:0:0:
470,160,293496,1,4,0:0:0:0:
440,192,293677,1,8,0:0:0:0:
470,160,293858,1,8,0:0:0:0:
470,160,293948,1,0,0:0:0:0:
470,160,294129,1,12,0:0:0:0:
252,188,294400,1,8,0:0:0:0:
164,68,294581,1,8,0:0:0:0:
470,160,294671,1,8,0:0:0:0:
470,160,294761,1,0,0:0:0:0:
457,140,294942,1,4,0:0:0:0:
494,269,295213,1,0,0:0:0:0:
470,160,295303,1,8,0:0:0:0:
470,160,295484,1,8,0:0:0:0:
432,168,295575,1,8,0:0:0:0:
470,160,295665,1,0,0:0:0:0:
470,160,295845,1,0,0:0:0:0:
470,160,296026,1,8,0:0:0:0:
470,160,296207,1,0,0:0:0:0:
470,160,296297,1,8,0:0:0:0:
470,160,296388,1,0,0:0:0:0:
470,160,296659,1,0,0:0:0:0:
507,170,296749,1,8,0:0:0:0:
359,167,296930,1,0,0:0:0:0:
428,192,297020,1,0,0:0:0:0:
380,136,297111,1,0,0:0:0:0:
496,224,297291,1,0,0:0:0:0:
507,170,297472,1,8,0:0:0:0:
470,160,297562,1,0,0:0:0:0:
496,192,297653,1,0,0:0:0:0:
470,160,297743,1,8,0:0:0:0:
470,160,297833,1,0,0:0:0:0:
470,160,298104,1,0,0:0:0:0:
470,160,298195,1,8,0:0:0:0:
507,170,298375,1,8,0:0:0:0:
507,170,298466,1,8,0:0:0:0:
470,160,298556,1,0,0:0:0:0:
322,160,298737,1,0,0:0:0:0:
470,160,298918,1,8,0:0:0:0:
376,48,299099,1,0,0:0:0:0:
470,160,299189,1,0,0:0:0:0:
470,160,299279,1,8,0:0:0:0:
507,170,299460,1,8,0:0:0:0:
470,160,299550,1,0,0:0:0:0:
470,160,299641,1,8,0:0:0:0:
470,160,299821,1,8,0:0:0:0:
470,160,300002,1,0,0:0:0:0:
414,296,300183,1,8,0:0:0:0:
504,166,300363,1,0,0:0:0:0:
432,156,300454,1,0,0:0:0:0:
504,166,300544,1,8,0:0:0:0:
470,160,300725,1,4,0:0:0:0:
248,148,300996,1,0,0:0:0:0:
457,140,301087,1,8,0:0:0:0:
432,156,301267,1,8,0:0:0:0:
432,156,301358,1,8,0:0:0:0:
432,156,301448,1,0,0:0:0:0:
471,297,301629,1,0,0:0:0:0:
498,201,301809,1,8,0:0:0:0:
470,160,301990,1,8,0:0:0:0:
496,148,302171,1,4,0:0:0:0:
457,140,302442,1,0,0:0:0:0:
457,140,302532,1,8,0:0:0:0:
426,165,302713,1,0,0:0:0:0:
426,165,302803,1,0,0:0:0:0:
457,140,302894,1,0,0:0:0:0:
426,165,303075,1,0,0:0:0:0:
426,165,303255,1,8,0:0:0:0:
468,172,303346,1,0,0:0:0:0:
457,140,303436,1,8,0:0:0:0:
437,160,303617,1,0,0:0:0:0:
492,208,303707,1,0,0:0:0:0:
448,267,303797,1,0,0:0:0:0:
504,168,303888,1,0,0:0:0:0:
504,168,303978,1,8,0:0:0:0:
444,212,304069,1,0,0:0:0:0:
408,132,304159,1,8,0:0:0:0:
468,172,304249,1,8,0:0:0:0:
480,176,304340,1,0,0:0:0:0:
476,160,304430,1,0,0:0:0:0:
468,172,304520,1,0,0:0:0:0:
468,172,304611,1,0,0:0:0:0:
468,172,304701,1,8,0:0:0:0:
504,168,304792,1,0,0:0:0:0:
504,168,304882,1,8,0:0:0:0:
480,176,304972,1,8,0:0:0:0:
468,172,305063,1,0,0:0:0:0:
456,216,305243,1,8,0:0:0:0:
480,176,305424,1,8,0:0:0:0:
456,164,305514,1,0,0:0:0:0:
356,175,305605,1,0,0:0:0:0:
456,164,305695,1,8,0:0:0:0:
376,288,305876,1,0,0:0:0:0:
456,164,305966,1,8,0:0:0:0:
456,164,306147,1,8,0:0:0:0:
456,164,306237,1,0,0:0:0:0:
456,164,306328,1,0,0:0:0:0:
504,168,306508,1,12,0:0:0:0:
356,175,306689,1,0,0:0:0:0:
429,171,306780,1,0,0:0:0:0:
456,164,306870,1,0,0:0:0:0:
504,168,307051,1,12,0:0:0:0:
456,164,307231,1,0,0:0:0:0:
383,180,307322,1,0,0:0:0:0:
456,164,307412,1,0,0:0:0:0:
310,189,307593,1,12,0:0:0:0:
256,192,307774,12,0,310123,0:0:0:0:
