osu file format v14

[General]
AudioFilename: audio.mp3
AudioLeadIn: 0
PreviewTime: 47851
Countdown: 0
SampleSet: Normal
StackLeniency: 0.7
Mode: 1
LetterboxInBreaks: 0
WidescreenStoryboard: 0

[Editor]
DistanceSpacing: 0.8
BeatDivisor: 4
GridSize: 16
TimelineZoom: 1.3

[Metadata]
Title:CLICK (TV Size)
TitleUnicode:CLICK (TV Size)
Artist:ClariS
ArtistUnicode:ClariS
Creator:davidminh0111
Version:Oni
Source:ニセコイ
Tags:クララ アリス クラリス ichijou anime japanese OP opening Nisekoi Shaft Raku Ichijô Chitoge Kirisaki Kosaki Onodera livetune kz Clara Alice False love
BeatmapID:2185902
BeatmapSetID:1045640

[Difficulty]
HPDrainRate:5.5
CircleSize:2
OverallDifficulty:5
ApproachRate:10
SliderMultiplier:1.4
SliderTickRate:1

[Events]
//Background and Video events
0,0,"bg.jpg",0,40
//Break Periods
//Storyboard Layer 0 (Background)
//Storyboard Layer 1 (Fail)
//Storyboard Layer 2 (Pass)
//Storyboard Layer 3 (Foreground)
//Storyboard Layer 4 (Overlay)
//Storyboard Sound Samples

[TimingPoints]
1185,444.444444444444,4,1,0,70,1,0
1185,-100,4,1,0,70,0,0
9629,-99.009900990099,4,1,0,70,0,0
9740,-98.0392156862745,4,1,0,70,0,0
9851,-97.0873786407767,4,1,0,70,0,0
9962,-96.1538461538461,4,1,0,70,0,0
10073,444.444444444444,4,1,0,80,1,0
10073,-95.2380952380952,4,1,0,80,0,0
16739,-96.1538461538461,4,1,0,80,0,0
16850,-97.0873786407767,4,1,0,80,0,0
16961,-98.0392156862745,4,1,0,80,0,0
17072,-99.009900990099,4,1,0,80,0,0
17184,-100,4,1,0,75,0,0
31407,-100,4,1,0,80,0,0
49184,444.444444444444,4,1,0,90,1,0
49184,-90.9090909090909,4,1,0,90,0,1
77628,-100,4,1,0,80,0,0

[HitObjects]
256,192,1185,5,8,0:0:0:0:
256,192,1629,1,0,0:0:0:0:
256,192,2073,1,0,0:0:0:0:
256,192,2518,1,0,0:0:0:0:
256,192,2740,1,0,0:0:0:0:
256,192,2962,1,8,0:0:0:0:
256,192,3296,1,0,0:0:0:0:
256,192,3629,1,8,0:0:0:0:
256,192,3851,1,8,0:0:0:0:
256,192,4296,1,8,0:0:0:0:
256,192,4518,1,0,0:0:0:0:
256,192,4740,1,8,0:0:0:0:
256,192,5073,1,0,0:0:0:0:
256,192,5407,1,8,0:0:0:0:
256,192,5629,1,8,0:0:0:0:
256,192,6296,1,8,0:0:0:0:
256,192,6518,1,0,0:0:0:0:
256,192,6851,1,8,0:0:0:0:
256,192,7184,1,0,0:0:0:0:
256,192,7407,1,0,0:0:0:0:
256,192,7740,1,8,0:0:0:0:
256,192,8073,1,0,0:0:0:0:
256,192,8296,1,0,0:0:0:0:
256,192,9629,1,0,0:0:0:0:
256,192,9740,1,0,0:0:0:0:
256,192,9851,1,8,0:0:0:0:
256,192,9962,1,8,0:0:0:0:
256,192,10073,1,4,0:0:0:0:
256,192,10406,1,8,0:0:0:0:
256,192,10739,1,0,0:0:0:0:
256,192,11184,1,0,0:0:0:0:
256,192,11406,1,8,0:0:0:0:
256,192,11628,1,0,0:0:0:0:
256,192,11739,1,0,0:0:0:0:
256,192,11850,1,8,0:0:0:0:
256,192,12184,1,0,0:0:0:0:
256,192,12517,1,8,0:0:0:0:
256,192,12961,1,0,0:0:0:0:
256,192,13184,1,8,0:0:0:0:
256,192,13406,1,0,0:0:0:0:
256,192,13517,1,8,0:0:0:0:
256,192,13628,1,0,0:0:0:0:
256,192,13961,1,0,0:0:0:0:
256,192,14295,1,8,0:0:0:0:
256,192,14739,1,0,0:0:0:0:
256,192,14961,1,8,0:0:0:0:
256,192,15184,1,0,0:0:0:0:
256,192,15295,1,0,0:0:0:0:
256,192,15406,1,0,0:0:0:0:
256,192,15628,1,0,0:0:0:0:
256,192,15850,1,8,0:0:0:0:
256,192,15961,1,8,0:0:0:0:
256,192,16184,1,8,0:0:0:0:
256,192,16517,1,0,0:0:0:0:
256,192,16739,1,8,0:0:0:0:
256,192,16850,1,8,0:0:0:0:
256,192,16961,1,0,0:0:0:0:
256,192,17072,1,8,0:0:0:0:
256,192,17184,1,4,0:0:0:0:
256,192,17850,1,8,0:0:0:0:
256,192,18072,1,0,0:0:0:0:
256,192,18295,1,0,0:0:0:0:
256,192,18517,1,8,0:0:0:0:
256,192,18739,1,0,0:0:0:0:
256,192,18961,1,0,0:0:0:0:
256,192,19628,1,0,0:0:0:0:
256,192,19850,1,0,0:0:0:0:
256,192,20072,1,8,0:0:0:0:
256,192,20295,1,8,0:0:0:0:
256,192,20517,1,0,0:0:0:0:
256,192,20739,1,8,0:0:0:0:
256,192,21184,1,0,0:0:0:0:
256,192,21628,1,0,0:0:0:0:
256,192,22072,1,8,0:0:0:0:
256,192,22295,1,8,0:0:0:0:
256,192,22517,1,0,0:0:0:0:
256,192,23184,1,8,0:0:0:0:
256,192,23406,1,0,0:0:0:0:
256,192,23628,1,0,0:0:0:0:
256,192,23850,1,8,0:0:0:0:
256,192,24072,1,0,0:0:0:0:
256,192,24184,1,8,0:0:0:0:
256,192,24295,1,0,0:0:0:0:
256,192,24739,1,8,0:0:0:0:
256,192,25184,1,0,0:0:0:0:
256,192,25406,1,0,0:0:0:0:
256,192,25628,1,8,0:0:0:0:
256,192,25850,1,8,0:0:0:0:
256,192,26072,1,0,0:0:0:0:
256,192,26517,1,8,0:0:0:0:
256,192,26961,1,8,0:0:0:0:
256,192,27184,1,8,0:0:0:0:
256,192,27406,1,0,0:0:0:0:
256,192,27628,1,0,0:0:0:0:
256,192,27850,1,0,0:0:0:0:
256,192,28295,1,0,0:0:0:0:
256,192,28739,1,8,0:0:0:0:
256,192,29184,1,8,0:0:0:0:
256,192,29406,1,0,0:0:0:0:
256,192,29628,1,0,0:0:0:0:
256,192,30072,1,8,0:0:0:0:
256,192,30517,1,0,0:0:0:0:
256,192,30739,1,0,0:0:0:0:
256,192,30850,1,0,0:0:0:0:
256,192,30961,1,8,0:0:0:0:
256,192,31184,1,8,0:0:0:0:
256,192,31295,1,8,0:0:0:0:
256,192,31406,1,4,0:0:0:0:
256,192,31739,1,8,0:0:0:0:
256,192,32072,1,0,0:0:0:0:
256,192,32517,1,0,0:0:0:0:
256,192,32739,1,8,0:0:0:0:
256,192,32961,1,0,0:0:0:0:
256,192,33072,1,0,0:0:0:0:
256,192,33184,1,8,0:0:0:0:
256,192,33517,1,0,0:0:0:0:
256,192,33850,1,8,0:0:0:0:
256,192,34295,1,0,0:0:0:0:
256,192,34517,1,8,0:0:0:0:
256,192,34739,1,0,0:0:0:0:
256,192,34850,1,0,0:0:0:0:
256,192,34961,1,0,0:0:0:0:
256,192,35295,1,0,0:0:0:0:
256,192,35628,1,8,0:0:0:0:
256,192,36072,1,8,0:0:0:0:
256,192,36295,1,0,0:0:0:0:
256,192,36517,1,8,0:0:0:0:
256,192,36739,1,0,0:0:0:0:
256,192,37184,1,0,0:0:0:0:
256,192,37406,1,8,0:0:0:0:
256,192,37628,1,0,0:0:0:0:
256,192,37850,1,0,0:0:0:0:
256,192,38072,1,8,0:0:0:0:
256,192,38295,1,8,0:0:0:0:
256,192,38406,1,8,0:0:0:0:
256,192,38517,1,0,0:0:0:0:
256,192,38850,1,0,0:0:0:0:
256,192,39184,1,8,0:0:0:0:
256,192,39628,1,0,0:0:0:0:
256,192,39850,1,8,0:0:0:0:
256,192,40072,1,0,0:0:0:0:
256,192,40295,1,8,0:0:0:0:
256,192,40628,1,8,0:0:0:0:
256,192,40961,1,0,0:0:0:0:
256,192,41406,1,0,0:0:0:0:
256,192,41628,1,8,0:0:0:0:
256,192,41850,1,4,0:0:0:0:
256,192,42295,1,0,0:0:0:0:
256,192,42517,1,8,0:0:0:0:
256,192,42739,1,0,0:0:0:0:
256,192,42961,1,8,0:0:0:0:
256,192,43406,1,8,0:0:0:0:
256,192,43628,1,4,0:0:0:0:
256,192,44072,1,8,0:0:0:0:
256,192,44295,1,0,0:0:0:0:
256,192,44517,1,8,0:0:0:0:
256,192,44739,1,0,0:0:0:0:
256,192,44961,1,0,0:0:0:0:
256,192,45184,1,8,0:0:0:0:
256,192,45406,1,12,0:0:0:0:
256,192,45628,12,0,47406,0:0:0:0:
256,192,47850,5,8,0:0:0:0:
256,192,48295,1,8,0:0:0:0:
256,192,48739,1,0,0:0:0:0:
256,192,49184,1,12,0:0:0:0:
256,192,49628,1,0,0:0:0:0:
256,192,50072,1,8,0:0:0:0:
256,192,50295,1,0,0:0:0:0:
256,192,50406,1,0,0:0:0:0:
256,192,50517,1,8,0:0:0:0:
256,192,50739,1,0,0:0:0:0:
256,192,50961,1,8,0:0:0:0:
256,192,51184,1,0,0:0:0:0:
256,192,51295,1,8,0:0:0:0:
256,192,51517,1,0,0:0:0:0:
256,192,51628,1,0,0:0:0:0:
256,192,51850,1,0,0:0:0:0:
256,192,52295,1,8,0:0:0:0:
256,192,52517,1,0,0:0:0:0:
256,192,52739,1,0,0:0:0:0:
256,192,52961,1,0,0:0:0:0:
256,192,53072,1,8,0:0:0:0:
256,192,53295,1,0,0:0:0:0:
256,192,53406,1,8,0:0:0:0:
256,192,53628,1,8,0:0:0:0:
256,192,54072,1,8,0:0:0:0:
256,192,54295,1,0,0:0:0:0:
256,192,54517,1,8,0:0:0:0:
256,192,54739,1,8,0:0:0:0:
256,192,54850,1,0,0:0:0:0:
256,192,55072,1,8,0:0:0:0:
256,192,55184,1,0,0:0:0:0:
256,192,55406,1,0,0:0:0:0:
256,192,55850,1,8,0:0:0:0:
256,192,56295,1,8,0:0:0:0:
256,192,56739,1,0,0:0:0:0:
256,192,57184,1,8,0:0:0:0:
256,192,57406,1,0,0:0:0:0:
256,192,57517,1,0,0:0:0:0:
256,192,57628,1,8,0:0:0:0:
256,192,57850,1,0,0:0:0:0:
256,192,58072,1,8,0:0:0:0:
256,192,58295,1,0,0:0:0:0:
256,192,58406,1,8,0:0:0:0:
256,192,58628,1,8,0:0:0:0:
256,192,58739,1,8,0:0:0:0:
256,192,58961,1,8,0:0:0:0:
256,192,59406,1,8,0:0:0:0:
256,192,59628,1,8,0:0:0:0:
256,192,59850,1,0,0:0:0:0:
256,192,60072,1,0,0:0:0:0:
256,192,60184,1,8,0:0:0:0:
256,192,60406,1,0,0:0:0:0:
256,192,60517,1,8,0:0:0:0:
256,192,60739,1,8,0:0:0:0:
256,192,61184,1,8,0:0:0:0:
256,192,61406,1,0,0:0:0:0:
256,192,61628,1,8,0:0:0:0:
256,192,61850,1,0,0:0:0:0:
256,192,61961,1,8,0:0:0:0:
256,192,62184,1,8,0:0:0:0:
256,192,62295,1,0,0:0:0:0:
256,192,62517,1,8,0:0:0:0:
256,192,62739,1,0,0:0:0:0:
256,192,62850,1,0,0:0:0:0:
256,192,62961,1,12,0:0:0:0:
256,192,63184,1,8,0:0:0:0:
256,192,63406,1,12,0:0:0:0:
256,192,63850,1,0,0:0:0:0:
256,192,64295,1,8,0:0:0:0:
256,192,64517,1,0,0:0:0:0:
256,192,64628,1,0,0:0:0:0:
256,192,64739,1,8,0:0:0:0:
256,192,64961,1,0,0:0:0:0:
256,192,65184,1,8,0:0:0:0:
256,192,65406,1,0,0:0:0:0:
256,192,65517,1,8,0:0:0:0:
256,192,65739,1,0,0:0:0:0:
256,192,65850,1,0,0:0:0:0:
256,192,66072,1,0,0:0:0:0:
256,192,66517,1,8,0:0:0:0:
256,192,66739,1,0,0:0:0:0:
256,192,66961,1,0,0:0:0:0:
256,192,67184,1,0,0:0:0:0:
256,192,67295,1,8,0:0:0:0:
256,192,67517,1,0,0:0:0:0:
256,192,67628,1,8,0:0:0:0:
256,192,67850,1,8,0:0:0:0:
256,192,68295,1,8,0:0:0:0:
256,192,68517,1,0,0:0:0:0:
256,192,68739,1,8,0:0:0:0:
256,192,68961,1,8,0:0:0:0:
256,192,69072,1,0,0:0:0:0:
256,192,69295,1,8,0:0:0:0:
256,192,69406,1,0,0:0:0:0:
256,192,69628,1,0,0:0:0:0:
256,192,69850,1,2,0:0:0:0:
256,192,70072,1,8,0:0:0:0:
256,192,70517,1,8,0:0:0:0:
256,192,70961,1,0,0:0:0:0:
256,192,71406,1,8,0:0:0:0:
256,192,71628,1,0,0:0:0:0:
256,192,71739,1,0,0:0:0:0:
256,192,71850,1,8,0:0:0:0:
256,192,72072,1,0,0:0:0:0:
256,192,72295,1,8,0:0:0:0:
256,192,72517,1,0,0:0:0:0:
256,192,72628,1,8,0:0:0:0:
256,192,72850,1,8,0:0:0:0:
256,192,72961,1,8,0:0:0:0:
256,192,73184,1,8,0:0:0:0:
256,192,73628,1,8,0:0:0:0:
256,192,73850,1,8,0:0:0:0:
256,192,74072,1,0,0:0:0:0:
256,192,74295,1,0,0:0:0:0:
256,192,74406,1,8,0:0:0:0:
256,192,74628,1,0,0:0:0:0:
256,192,74739,1,8,0:0:0:0:
256,192,74961,1,8,0:0:0:0:
256,192,75406,1,8,0:0:0:0:
256,192,75628,1,0,0:0:0:0:
256,192,75850,1,8,0:0:0:0:
256,192,76072,1,8,0:0:0:0:
256,192,76184,1,0,0:0:0:0:
256,192,76406,1,8,0:0:0:0:
256,192,76517,1,0,0:0:0:0:
256,192,76739,1,0,0:0:0:0:
256,192,76961,1,8,0:0:0:0:
256,192,77072,1,0,0:0:0:0:
256,192,77295,1,8,0:0:0:0:
256,192,77406,1,0,0:0:0:0:
256,192,77628,1,4,0:0:0:0:
256,192,77961,1,8,0:0:0:0:
256,192,78295,1,0,0:0:0:0:
256,192,78739,1,0,0:0:0:0:
256,192,78961,1,8,0:0:0:0:
256,192,79184,1,0,0:0:0:0:
256,192,79295,1,0,0:0:0:0:
256,192,79406,1,8,0:0:0:0:
256,192,79739,1,0,0:0:0:0:
256,192,80072,1,8,0:0:0:0:
256,192,80517,1,0,0:0:0:0:
256,192,80739,1,8,0:0:0:0:
256,192,80961,1,0,0:0:0:0:
256,192,81072,1,8,0:0:0:0:
256,192,81184,1,0,0:0:0:0:
256,192,81517,1,0,0:0:0:0:
256,192,81850,1,8,0:0:0:0:
256,192,82295,1,0,0:0:0:0:
256,192,82517,1,8,0:0:0:0:
256,192,82739,1,0,0:0:0:0:
256,192,82850,1,0,0:0:0:0:
256,192,82961,1,0,0:0:0:0:
256,192,83184,1,0,0:0:0:0:
256,192,83406,1,8,0:0:0:0:
256,192,83517,1,8,0:0:0:0:
256,192,83739,1,8,0:0:0:0:
256,192,84072,1,0,0:0:0:0:
256,192,84295,1,8,0:0:0:0:
256,192,84406,1,8,0:0:0:0:
256,192,84517,1,0,0:0:0:0:
256,192,84628,1,8,0:0:0:0:
256,192,84739,1,4,0:0:0:0:
256,192,84961,1,8,0:0:0:0:
256,192,85072,1,8,0:0:0:0:
256,192,85406,1,4,0:0:0:0:
256,192,85628,1,8,0:0:0:0:
256,192,85739,1,8,0:0:0:0:
256,192,86072,1,4,0:0:0:0:
256,192,86295,12,0,87850,0:0:0:0:
256,192,88072,5,8,0:0:0:0:
256,192,88146,1,8,0:0:0:0:
256,192,88221,1,8,0:0:0:0:
