osu file format v14

[General]
AudioFilename: audio.mp3
AudioLeadIn: 0
PreviewTime: 235675
Countdown: 0
SampleSet: Soft
StackLeniency: 0.7
Mode: 3
LetterboxInBreaks: 0
SpecialStyle: 0
WidescreenStoryboard: 1

[Editor]
Bookmarks: 133010
DistanceSpacing: 0.9
BeatDivisor: 4
GridSize: 16
TimelineZoom: 2

[Metadata]
Title:CLICK (Soleily Remix)
TitleUnicode:CLICK (Soleily Remix)
Artist:ClariS
ArtistUnicode:ClariS
Creator:_Rokii
Version:Touru & Deta's Xross Memories // 4K
Source:ニセコイ
Tags:touru0711 deta5859 nisekoi false love opening clara alice japanese electronic Anime Shaft SECL-1457 dnb drum bass livetune
BeatmapID:2575504
BeatmapSetID:1232531

[Difficulty]
HPDrainRate:8
CircleSize:4
OverallDifficulty:8
ApproachRate:5
SliderMultiplier:1.4
SliderTickRate:1

[Events]
//Background and Video events
0,0,"BG.jpg",0,0
//Break Periods
//Storyboard Layer 0 (Background)
//Storyboard Layer 1 (Fail)
//Storyboard Layer 2 (Pass)
//Storyboard Layer 3 (Foreground)
//Storyboard Layer 4 (Overlay)
//Storyboard Sound Samples

[TimingPoints]
2904,361.44578313253,4,2,1,60,1,0
60735,-100.0,4,2,1,60,0,1
70855,-100.0,4,2,1,60,0,0
72301,-100.0,4,2,1,60,0,1
80976,-100.0,4,2,1,60,0,0
156157,-100.0,4,2,1,60,0,1
179289,-100.0,4,2,1,60,0,0
237120,-100.0,4,2,1,60,0,1
247241,-100.0,4,2,1,60,0,0
248687,-100.0,4,2,1,60,0,1
260253,-100.0,4,2,1,60,0,0

[HitObjects]
64,192,4349,1,0,0:0:0:0:
448,192,4349,1,0,0:0:0:0:
192,192,4440,1,0,0:0:0:0:
320,192,4530,1,0,0:0:0:0:
448,192,4620,1,0,0:0:0:0:
192,192,4711,1,0,0:0:0:0:
320,192,4801,1,0,0:0:0:0:
64,192,4891,1,0,0:0:0:0:
192,192,4982,1,0,0:0:0:0:
320,192,5072,1,0,0:0:0:0:
64,192,5163,1,0,0:0:0:0:
448,192,5253,1,0,0:0:0:0:
192,192,5343,1,0,0:0:0:0:
320,192,5434,1,0,0:0:0:0:
448,192,5524,1,0,0:0:0:0:
64,192,5614,1,0,0:0:0:0:
192,192,5705,1,0,0:0:0:0:
320,192,5795,1,0,0:0:0:0:
448,192,5795,1,0,0:0:0:0:
64,192,5885,1,0,0:0:0:0:
448,192,5976,1,0,0:0:0:0:
320,192,6066,1,0,0:0:0:0:
192,192,6157,1,0,0:0:0:0:
64,192,6247,1,0,0:0:0:0:
320,192,6337,1,0,0:0:0:0:
192,192,6428,1,0,0:0:0:0:
64,192,6518,1,0,0:0:0:0:
448,192,6518,1,0,0:0:0:0:
320,192,6608,1,0,0:0:0:0:
192,192,6699,1,0,0:0:0:0:
448,192,6789,1,0,0:0:0:0:
64,192,6879,1,0,0:0:0:0:
320,192,6970,1,0,0:0:0:0:
192,192,7060,1,0,0:0:0:0:
64,192,7150,1,0,0:0:0:0:
320,192,7241,1,0,0:0:0:0:
448,192,7241,1,0,0:0:0:0:
192,192,7331,1,0,0:0:0:0:
320,192,7422,1,0,0:0:0:0:
448,192,7512,1,0,0:0:0:0:
64,192,7602,1,0,0:0:0:0:
192,192,7693,1,0,0:0:0:0:
320,192,7783,1,0,0:0:0:0:
448,192,7873,1,0,0:0:0:0:
64,192,7964,1,0,0:0:0:0:
192,192,7964,1,0,0:0:0:0:
320,192,8054,1,0,0:0:0:0:
448,192,8144,1,0,0:0:0:0:
192,192,8235,1,0,0:0:0:0:
320,192,8325,1,0,0:0:0:0:
64,192,8416,1,0,0:0:0:0:
192,192,8506,1,0,0:0:0:0:
320,192,8596,1,0,0:0:0:0:
64,192,8687,1,0,0:0:0:0:
448,192,8687,1,0,0:0:0:0:
320,192,8777,1,0,0:0:0:0:
192,192,8867,1,0,0:0:0:0:
64,192,8958,1,0,0:0:0:0:
320,192,9048,1,0,0:0:0:0:
192,192,9138,1,0,0:0:0:0:
448,192,9229,1,0,0:0:0:0:
320,192,9319,1,0,0:0:0:0:
64,192,9410,1,0,0:0:0:0:
192,192,9410,1,0,0:0:0:0:
448,192,9500,1,0,0:0:0:0:
320,192,9590,1,0,0:0:0:0:
192,192,9681,1,0,0:0:0:0:
64,192,9771,1,0,0:0:0:0:
448,192,9861,1,0,0:0:0:0:
320,192,9952,1,0,0:0:0:0:
192,192,10042,1,0,0:0:0:0:
64,192,10132,128,4,10494:0:0:0:0:
320,192,10132,1,2,0:0:0:0:
448,192,10132,1,0,0:0:0:0:
192,192,10313,128,0,10675:0:0:0:0:
320,192,10494,128,0,10855:0:0:0:0:
448,192,10675,128,0,10855:0:0:0:0:
64,192,10855,1,0,0:0:0:0:
192,192,10946,1,0,0:0:0:0:
320,192,11036,1,0,0:0:0:0:
448,192,11126,1,0,0:0:0:0:
64,192,11217,1,0,0:0:0:70:LR3_Snare FCSRL.wav
192,192,11217,128,0,11337:0:0:0:0:
320,192,11277,128,0,11397:0:0:0:0:
448,192,11337,128,0,11458:0:0:0:0:
64,192,11397,128,0,11518:0:0:0:0:
192,192,11458,128,0,11518:0:0:0:0:
320,192,11518,1,0,0:0:0:0:
64,192,11578,128,2,11940:0:0:0:0:
192,192,11578,1,4,0:0:0:0:
448,192,11578,1,0,0:0:0:0:
192,192,11849,128,0,11940:0:0:0:0:
320,192,11940,1,8,0:0:0:0:
448,192,11940,1,0,0:0:0:0:
448,192,12120,128,0,12663:0:0:0:0:
64,192,12301,1,2,0:0:0:0:
192,192,12301,1,0,0:0:0:0:
320,192,12482,1,0,0:0:0:0:
64,192,12663,1,8,0:0:0:0:
192,192,12663,1,0,0:0:0:0:
320,192,12843,128,0,13024:0:0:0:0:
448,192,12934,128,0,13024:0:0:0:0:
64,192,13024,128,2,13385:0:0:0:0:
192,192,13024,1,0,0:0:0:0:
192,192,13295,128,0,13385:0:0:0:0:
320,192,13385,1,8,0:0:0:0:
448,192,13385,1,0,0:0:0:0:
448,192,13566,128,0,14108:0:0:0:0:
64,192,13747,1,2,0:0:0:0:
192,192,13747,1,0,0:0:0:0:
320,192,13928,1,0,0:0:0:0:
64,192,14108,1,8,0:0:0:0:
192,192,14108,1,0,0:0:0:0:
320,192,14289,128,0,14470:0:0:0:0:
192,192,14379,128,0,14470:0:0:0:0:
64,192,14470,1,2,0:0:0:0:
448,192,14470,128,0,14831:0:0:0:0:
320,192,14741,128,0,14831:0:0:0:0:
64,192,14831,1,8,0:0:0:0:
192,192,14831,1,0,0:0:0:0:
64,192,15012,128,0,15554:0:0:0:0:
320,192,15193,1,2,0:0:0:0:
448,192,15193,1,0,0:0:0:0:
192,192,15373,1,0,0:0:0:0:
320,192,15554,1,8,0:0:0:0:
448,192,15554,1,0,0:0:0:0:
192,192,15735,128,0,15916:0:0:0:0:
320,192,15825,128,0,15916:0:0:0:0:
64,192,15916,1,2,0:0:0:0:
448,192,15916,128,0,16187:0:0:0:0:
320,192,16096,128,0,16187:0:0:0:0:
192,192,16277,128,8,16819:0:0:0:0:
448,192,16277,1,0,0:0:0:0:
64,192,16458,128,0,16819:0:0:0:0:
320,192,16638,1,2,0:0:0:0:
448,192,16638,1,0,0:0:0:0:
320,192,16819,1,0,0:0:0:0:
64,192,17000,128,8,17120:0:0:0:0:
448,192,17000,1,0,0:0:0:0:
192,192,17060,128,0,17181:0:0:0:0:
320,192,17120,128,0,17241:0:0:0:0:
64,192,17181,128,0,17301:0:0:0:0:
192,192,17241,128,0,17301:0:0:0:0:
320,192,17301,1,0,0:0:0:0:
64,192,17361,128,2,17723:0:0:0:0:
448,192,17361,1,0,0:0:0:0:
192,192,17632,128,0,17723:0:0:0:0:
320,192,17723,1,8,0:0:0:0:
448,192,17723,1,0,0:0:0:0:
448,192,17903,128,0,18446:0:0:0:0:
64,192,18084,1,2,0:0:0:0:
192,192,18084,1,0,0:0:0:0:
320,192,18265,1,0,0:0:0:0:
64,192,18446,1,8,0:0:0:0:
192,192,18446,1,0,0:0:0:0:
320,192,18626,128,0,18807:0:0:0:0:
448,192,18717,128,0,18807:0:0:0:0:
64,192,18807,128,2,19169:0:0:0:0:
192,192,18807,1,0,0:0:0:0:
192,192,19078,128,0,19169:0:0:0:0:
320,192,19169,1,8,0:0:0:0:
448,192,19169,1,0,0:0:0:0:
448,192,19349,128,0,19891:0:0:0:0:
64,192,19530,1,2,0:0:0:0:
192,192,19530,1,0,0:0:0:0:
320,192,19711,1,0,0:0:0:0:
64,192,19891,1,8,0:0:0:0:
192,192,19891,1,0,0:0:0:0:
320,192,20072,128,0,20253:0:0:0:0:
192,192,20163,128,0,20253:0:0:0:0:
64,192,20253,1,2,0:0:0:0:
448,192,20253,128,0,20614:0:0:0:0:
320,192,20524,128,0,20614:0:0:0:0:
64,192,20614,1,8,0:0:0:0:
192,192,20614,1,0,0:0:0:0:
64,192,20795,128,0,21337:0:0:0:0:
320,192,20976,1,2,0:0:0:0:
448,192,20976,1,0,0:0:0:0:
192,192,21157,1,0,0:0:0:0:
320,192,21337,1,8,0:0:0:0:
448,192,21337,1,0,0:0:0:0:
192,192,21518,128,0,21699:0:0:0:0:
320,192,21608,128,0,21699:0:0:0:0:
64,192,21699,128,2,21970:0:0:0:0:
448,192,21699,1,4,0:0:0:0:
192,192,21879,128,0,21970:0:0:0:0:
64,192,22060,1,8,0:0:0:0:
320,192,22060,128,0,22241:0:0:0:0:
448,192,22150,128,0,22241:0:0:0:0:
64,192,22331,128,2,22512:0:0:0:0:
192,192,22331,128,4,22512:0:0:0:0:
320,192,22331,128,0,22512:0:0:0:0:
64,192,22602,128,2,22693:0:0:0:0:
192,192,22602,128,0,22693:0:0:0:0:
448,192,22602,128,0,22693:0:0:0:0:
64,192,22783,1,0,0:0:0:70:LR3_Snare FCSRL.wav
320,192,22783,128,0,23054:0:0:0:0:
448,192,22783,1,0,0:0:0:0:
192,192,22873,128,0,23054:0:0:0:0:
64,192,22964,128,0,23054:0:0:0:0:
64,192,23144,1,2,0:0:0:0:
320,192,23144,1,4,0:0:0:0:
448,192,23144,128,0,23506:0:0:0:0:
320,192,23416,128,0,23506:0:0:0:0:
64,192,23506,1,8,0:0:0:0:
192,192,23506,1,0,0:0:0:0:
64,192,23687,128,0,24229:0:0:0:0:
320,192,23867,1,2,0:0:0:0:
448,192,23867,1,0,0:0:0:0:
192,192,24048,1,0,0:0:0:0:
320,192,24229,1,8,0:0:0:0:
448,192,24229,1,0,0:0:0:0:
192,192,24410,128,0,24590:0:0:0:0:
64,192,24500,128,0,24590:0:0:0:0:
320,192,24590,1,2,0:0:0:0:
448,192,24590,128,0,24952:0:0:0:0:
320,192,24861,128,0,24952:0:0:0:0:
64,192,24952,1,8,0:0:0:0:
192,192,24952,1,0,0:0:0:0:
64,192,25132,128,0,25675:0:0:0:0:
320,192,25313,1,2,0:0:0:0:
448,192,25313,1,0,0:0:0:0:
192,192,25494,1,0,0:0:0:0:
320,192,25675,1,8,0:0:0:0:
448,192,25675,1,0,0:0:0:0:
192,192,25855,128,0,26036:0:0:0:0:
320,192,25946,128,0,26036:0:0:0:0:
64,192,26036,128,2,26397:0:0:0:0:
448,192,26036,1,0,0:0:0:0:
192,192,26307,128,0,26397:0:0:0:0:
320,192,26397,1,8,0:0:0:0:
448,192,26397,1,0,0:0:0:0:
448,192,26578,128,0,27120:0:0:0:0:
64,192,26759,1,2,0:0:0:0:
192,192,26759,1,0,0:0:0:0:
320,192,26940,1,0,0:0:0:0:
64,192,27120,1,8,0:0:0:0:
192,192,27120,1,0,0:0:0:0:
320,192,27301,128,0,27482:0:0:0:0:
192,192,27391,128,0,27482:0:0:0:0:
64,192,27482,128,2,27753:0:0:0:0:
448,192,27482,1,0,0:0:0:0:
192,192,27663,128,0,27753:0:0:0:0:
64,192,27843,1,8,0:0:0:0:
320,192,27843,128,0,28385:0:0:0:0:
448,192,28024,128,0,28385:0:0:0:0:
64,192,28205,1,2,0:0:0:0:
192,192,28205,1,0,0:0:0:0:
192,192,28385,1,0,0:0:0:0:
64,192,28566,128,8,28687:0:0:0:0:
448,192,28566,1,0,0:0:0:0:
192,192,28626,128,0,28747:0:0:0:0:
320,192,28687,128,0,28807:0:0:0:0:
64,192,28747,128,0,28867:0:0:0:0:
192,192,28807,128,0,28867:0:0:0:0:
320,192,28867,1,0,0:0:0:0:
64,192,28928,128,2,29289:0:0:0:0:
192,192,28928,1,4,0:0:0:0:
448,192,28928,1,0,0:0:0:0:
192,192,29199,128,0,29289:0:0:0:0:
320,192,29289,1,8,0:0:0:0:
448,192,29289,1,0,0:0:0:0:
448,192,29470,128,0,30012:0:0:0:0:
64,192,29650,1,2,0:0:0:0:
192,192,29650,1,0,0:0:0:0:
320,192,29831,1,0,0:0:0:0:
64,192,30012,1,8,0:0:0:0:
192,192,30012,1,0,0:0:0:0:
320,192,30012,1,0,0:0:0:0:
448,192,30193,128,0,30373:0:0:0:0:
320,192,30283,128,0,30373:0:0:0:0:
64,192,30373,128,4,30735:0:0:0:0:
192,192,30373,1,2,0:0:0:0:
192,192,30644,128,0,30735:0:0:0:0:
320,192,30735,1,8,0:0:0:0:
448,192,30735,1,0,0:0:0:0:
448,192,30916,128,0,31458:0:0:0:0:
64,192,31096,1,2,0:0:0:0:
192,192,31096,1,0,0:0:0:0:
320,192,31277,1,0,0:0:0:0:
64,192,31458,1,8,0:0:0:0:
192,192,31458,1,0,0:0:0:0:
320,192,31458,1,0,0:0:0:0:
448,192,31638,1,0,0:0:0:0:
320,192,31729,1,0,0:0:0:0:
64,192,31819,1,4,0:0:0:0:
192,192,31819,1,2,0:0:0:0:
448,192,31819,1,0,0:0:0:0:
320,192,31910,1,0,0:0:0:0:
64,192,32000,1,0,0:0:0:0:
192,192,32090,1,0,0:0:0:0:
320,192,32181,1,8,0:0:0:0:
448,192,32181,1,0,0:0:0:0:
64,192,32271,1,0,0:0:0:0:
192,192,32361,1,0,0:0:0:0:
320,192,32452,1,0,0:0:0:0:
64,192,32542,1,2,0:0:0:0:
192,192,32542,1,4,0:0:0:0:
448,192,32542,1,0,0:0:0:0:
320,192,32632,1,0,0:0:0:0:
64,192,32723,1,0,0:0:0:0:
448,192,32813,1,0,0:0:0:0:
192,192,32903,1,8,0:0:0:0:
320,192,32903,1,0,0:0:0:0:
64,192,32994,1,0,0:0:0:0:
448,192,33084,1,0,0:0:0:0:
320,192,33175,1,0,0:0:0:0:
64,192,33265,128,2,33355:0:0:0:0:
192,192,33265,1,4,0:0:0:0:
448,192,33265,1,0,0:0:0:0:
192,192,33446,128,0,33536:0:0:0:0:
320,192,33626,128,8,33717:0:0:0:0:
448,192,33717,128,0,33807:0:0:0:0:
64,192,33897,128,0,34169:0:0:0:0:
192,192,34169,128,2,34349:0:0:0:0:
448,192,34349,128,8,34620:0:0:0:0:
320,192,34440,128,0,34620:0:0:0:0:
192,192,34530,128,0,34620:0:0:0:0:
64,192,34711,1,2,0:0:0:0:
320,192,34711,1,4,0:0:0:0:
448,192,34711,1,0,0:0:0:0:
64,192,34891,1,0,0:0:0:0:
64,192,35072,1,0,0:0:0:0:
64,192,35253,1,0,0:0:0:0:
448,192,35434,1,0,0:0:0:0:
448,192,35614,1,0,0:0:0:0:
448,192,35795,1,0,0:0:0:0:
448,192,35976,1,0,0:0:0:0:
64,192,36157,1,0,0:0:0:0:
64,192,36337,1,0,0:0:0:0:
64,192,36518,1,0,0:0:0:0:
64,192,36699,1,0,0:0:0:0:
448,192,36879,1,0,0:0:0:0:
448,192,37060,1,0,0:0:0:0:
448,192,37241,1,0,0:0:0:0:
448,192,37422,1,0,0:0:0:0:
192,192,37602,1,0,0:0:0:0:
320,192,37602,1,0,0:0:0:0:
192,192,37783,1,0,0:0:0:0:
192,192,37964,1,0,0:0:0:0:
192,192,38144,1,0,0:0:0:0:
320,192,38325,1,0,0:0:0:0:
320,192,38506,1,0,0:0:0:0:
320,192,38687,1,0,0:0:0:0:
320,192,38867,1,0,0:0:0:0:
64,192,39048,1,0,0:0:0:0:
192,192,39048,1,0,0:0:0:0:
192,192,39229,1,0,0:0:0:0:
192,192,39410,1,0,0:0:0:0:
192,192,39590,1,0,0:0:0:0:
320,192,39771,1,0,0:0:0:0:
448,192,39771,1,0,0:0:0:0:
320,192,39952,1,0,0:0:0:0:
320,192,40132,1,0,0:0:0:0:
320,192,40313,1,0,0:0:0:0:
64,192,40494,128,0,41940:0:0:0:0:
448,192,40494,1,0,0:0:0:0:
448,192,40675,1,0,0:0:0:0:
448,192,40855,1,0,0:0:0:0:
448,192,41036,1,0,0:0:0:0:
320,192,41217,1,0,0:0:0:0:
320,192,41397,1,0,0:0:0:0:
320,192,41578,1,0,0:0:0:0:
320,192,41759,1,0,0:0:0:0:
192,192,41940,1,0,0:0:0:0:
448,192,41940,128,0,43385:0:0:0:0:
192,192,42120,1,0,0:0:0:0:
192,192,42301,1,0,0:0:0:0:
192,192,42482,1,0,0:0:0:0:
64,192,42663,1,0,0:0:0:0:
64,192,42843,1,0,0:0:0:0:
64,192,43024,1,0,0:0:0:0:
64,192,43205,1,0,0:0:0:0:
192,192,43385,1,0,0:0:0:0:
320,192,43385,1,0,0:0:0:0:
192,192,43566,1,0,0:0:0:0:
320,192,43566,1,0,0:0:0:0:
192,192,43747,1,0,0:0:0:0:
320,192,43747,1,0,0:0:0:0:
192,192,43928,1,0,0:0:0:0:
320,192,43928,1,0,0:0:0:0:
192,192,44108,1,0,0:0:0:0:
320,192,44108,1,0,0:0:0:0:
192,192,44289,1,0,0:0:0:0:
320,192,44289,1,0,0:0:0:0:
192,192,44470,1,0,0:0:0:0:
320,192,44470,1,0,0:0:0:0:
192,192,44650,1,0,0:0:0:0:
320,192,44650,1,0,0:0:0:0:
64,192,44831,1,0,0:0:0:0:
448,192,44831,1,0,0:0:0:0:
64,192,45012,1,0,0:0:0:0:
448,192,45012,1,0,0:0:0:0:
64,192,45193,1,0,0:0:0:0:
448,192,45193,1,0,0:0:0:0:
64,192,45373,1,0,0:0:0:0:
448,192,45373,1,0,0:0:0:0:
64,192,45554,1,0,0:0:0:0:
448,192,45554,1,0,0:0:0:0:
64,192,45735,1,0,0:0:0:0:
448,192,45735,1,0,0:0:0:0:
64,192,45916,1,0,0:0:0:70:LR3_Snare FCSRL.wav
192,192,45916,1,0,0:0:0:0:
448,192,45916,1,0,0:0:0:0:
320,192,46096,1,0,0:0:0:0:
64,192,46277,128,4,46458:0:0:0:0:
192,192,46277,128,2,46458:0:0:0:0:
448,192,46277,128,0,46458:0:0:0:0:
64,192,46548,128,2,46729:0:0:0:0:
320,192,46548,128,4,46729:0:0:0:0:
448,192,46548,128,0,46729:0:0:0:0:
192,192,46819,128,2,47000:0:0:0:0:
320,192,46819,128,4,47000:0:0:0:0:
448,192,46819,128,0,47000:0:0:0:0:
64,192,47181,128,0,47361:0:0:0:0:
320,192,47361,128,8,47482:0:0:0:0:
448,192,47361,1,0,0:0:0:0:
192,192,47422,128,0,47542:0:0:0:0:
64,192,47482,128,0,47602:0:0:0:0:
448,192,47542,128,0,47663:0:0:0:0:
320,192,47602,128,0,47723:0:0:0:0:
192,192,47663,128,0,47723:0:0:0:0:
64,192,47723,128,4,47903:0:0:0:0:
448,192,47723,128,2,47903:0:0:0:0:
320,192,47994,128,0,48175:0:0:0:0:
64,192,48265,128,2,48717:0:0:0:0:
192,192,48265,128,4,48717:0:0:0:0:
448,192,48265,128,0,48717:0:0:0:0:
64,192,48807,1,0,0:0:0:70:LR3_Snare LRW.wav
192,192,48807,1,0,0:0:0:0:
448,192,48807,1,0,0:0:0:0:
320,192,48988,1,0,0:0:0:0:
64,192,49169,128,2,49349:0:0:0:0:
192,192,49169,128,4,49349:0:0:0:0:
448,192,49169,128,0,49349:0:0:0:0:
64,192,49440,128,2,49620:0:0:0:0:
320,192,49440,128,4,49620:0:0:0:0:
448,192,49440,128,0,49620:0:0:0:0:
192,192,49711,128,4,49891:0:0:0:0:
320,192,49711,128,2,49891:0:0:0:0:
448,192,49711,128,0,49891:0:0:0:0:
64,192,50072,128,0,50253:0:0:0:0:
192,192,50253,1,8,0:0:0:0:
320,192,50253,1,0,0:0:0:0:
448,192,50253,1,0,0:0:0:0:
192,192,50434,1,4,0:0:0:0:
320,192,50434,1,2,0:0:0:0:
448,192,50434,128,0,50976:0:0:0:0:
64,192,50614,1,0,0:0:0:0:
192,192,50705,1,0,0:0:0:0:
320,192,50795,1,0,0:0:0:0:
64,192,50885,1,0,0:0:0:0:
192,192,50976,1,8,0:0:0:0:
320,192,50976,1,0,0:0:0:0:
448,192,51066,128,0,51157:0:0:0:0:
64,192,51157,1,4,0:0:0:0:
192,192,51157,1,2,0:0:0:0:
320,192,51247,128,0,51337:0:0:0:0:
64,192,51337,1,0,0:0:0:0:
448,192,51428,128,0,51518:0:0:0:0:
192,192,51518,1,0,0:0:0:0:
64,192,51699,1,0,0:0:0:70:LR3_Snare FCSRL.wav
320,192,51699,1,0,0:0:0:0:
448,192,51699,1,0,0:0:0:0:
64,192,52060,128,2,52241:0:0:0:0:
192,192,52060,128,4,52241:0:0:0:0:
320,192,52060,128,0,52241:0:0:0:0:
64,192,52331,128,4,52512:0:0:0:0:
192,192,52331,128,2,52512:0:0:0:0:
448,192,52331,128,0,52512:0:0:0:0:
64,192,52602,128,2,52783:0:0:0:0:
320,192,52602,128,4,52783:0:0:0:0:
448,192,52602,128,0,52783:0:0:0:0:
192,192,52964,1,0,0:0:0:0:
320,192,53144,128,8,53265:0:0:0:0:
448,192,53144,1,0,0:0:0:0:
192,192,53205,128,0,53325:0:0:0:0:
64,192,53265,128,0,53385:0:0:0:0:
448,192,53325,128,0,53446:0:0:0:0:
320,192,53385,128,0,53506:0:0:0:0:
192,192,53446,128,0,53506:0:0:0:0:
64,192,53506,128,2,53687:0:0:0:0:
448,192,53506,128,4,53687:0:0:0:0:
64,192,53777,128,4,53958:0:0:0:0:
320,192,53777,128,2,53958:0:0:0:0:
448,192,53777,128,0,53958:0:0:0:0:
64,192,54048,128,4,54500:0:0:0:0:
192,192,54048,128,2,54500:0:0:0:0:
320,192,54048,128,0,54500:0:0:0:0:
64,192,54590,1,8,0:0:0:0:
192,192,54590,1,0,0:0:0:0:
448,192,54590,1,0,0:0:0:0:
64,192,54771,128,4,55132:0:0:0:0:
320,192,54771,128,2,55132:0:0:0:0:
448,192,54771,128,0,55132:0:0:0:0:
192,192,55132,1,0,0:0:0:0:
64,192,55313,128,8,55494:0:0:0:0:
320,192,55313,1,0,0:0:0:0:
448,192,55313,128,0,55494:0:0:0:0:
192,192,55494,1,0,0:0:0:0:
64,192,55675,1,2,0:0:0:0:
448,192,55675,1,0,0:0:0:0:
320,192,55855,1,0,0:0:0:0:
64,192,56036,1,8,0:0:0:0:
192,192,56036,1,0,0:0:0:0:
448,192,56036,1,0,0:0:0:0:
320,192,56217,1,0,0:0:0:0:
64,192,56397,1,2,0:0:0:0:
192,192,56397,1,4,0:0:0:0:
448,192,56397,1,0,0:0:0:0:
192,192,56578,1,0,0:0:0:0:
64,192,56759,1,8,0:0:0:0:
320,192,56759,1,0,0:0:0:0:
448,192,56759,1,0,0:0:0:0:
448,192,56940,1,0,0:0:0:0:
64,192,57120,1,2,0:0:0:0:
320,192,57120,1,0,0:0:0:0:
192,192,57301,1,0,0:0:0:0:
64,192,57482,1,8,0:0:0:0:
320,192,57482,1,0,0:0:0:0:
448,192,57482,1,0,0:0:0:0:
192,192,57663,1,0,0:0:0:0:
64,192,57843,1,2,0:0:0:0:
320,192,57843,1,4,0:0:0:0:
448,192,57843,1,0,0:0:0:0:
64,192,58024,1,2,0:0:0:0:
192,192,58024,1,0,0:0:0:0:
192,192,58205,1,8,0:0:0:0:
320,192,58205,1,2,0:0:0:0:
448,192,58205,1,0,0:0:0:0:
320,192,58385,1,2,0:0:0:0:
448,192,58385,1,0,0:0:0:0:
64,192,58566,1,2,0:0:0:0:
192,192,58566,1,4,0:0:0:0:
448,192,58566,1,0,0:0:0:0:
320,192,58657,1,0,0:0:0:0:
64,192,58747,1,2,0:0:0:0:
192,192,58747,1,0,0:0:0:0:
448,192,58837,1,0,0:0:0:0:
64,192,58928,1,2,0:0:0:0:
320,192,58928,1,8,0:0:0:0:
192,192,59018,1,0,0:0:0:0:
320,192,59108,1,2,0:0:0:0:
448,192,59108,1,0,0:0:0:0:
64,192,59199,1,0,0:0:0:0:
192,192,59289,1,2,0:0:0:0:
320,192,59289,1,4,0:0:0:0:
448,192,59289,1,0,0:0:0:0:
64,192,59470,1,0,0:0:0:0:
192,192,59560,1,0,0:0:0:0:
448,192,59650,1,0,0:0:0:0:
320,192,59741,1,0,0:0:0:0:
192,192,59831,1,0,0:0:0:0:
64,192,59922,1,0,0:0:0:0:
320,192,60012,1,0,0:0:0:0:
448,192,60102,1,0,0:0:0:0:
192,192,60193,1,0,0:0:0:0:
320,192,60283,1,0,0:0:0:0:
64,192,60373,1,0,0:0:0:0:
192,192,60464,1,0,0:0:0:0:
320,192,60554,1,0,0:0:0:0:
448,192,60644,1,0,0:0:0:0:
64,192,60735,128,2,61006:0:0:0:0:
192,192,60735,128,4,61006:0:0:0:0:
320,192,60735,1,0,0:0:0:0:
64,192,61096,1,8,0:0:0:0:
320,192,61096,1,0,0:0:0:0:
448,192,61096,128,0,61277:0:0:0:0:
192,192,61277,1,0,0:0:0:0:
64,192,61458,1,2,0:0:0:0:
320,192,61458,128,0,61638:0:0:0:0:
448,192,61638,1,0,0:0:0:0:
64,192,61819,1,8,0:0:0:0:
192,192,61819,128,0,62000:0:0:0:0:
320,192,61819,1,0,0:0:0:0:
448,192,62000,1,0,0:0:0:0:
192,192,62181,1,2,0:0:0:0:
448,192,62181,128,0,62542:0:0:0:0:
320,192,62452,128,0,62542:0:0:0:0:
64,192,62542,1,8,0:0:0:0:
192,192,62542,1,0,0:0:0:0:
64,192,62723,128,0,62813:0:0:0:0:
192,192,62723,128,0,62813:0:0:0:0:
64,192,62903,128,2,63084:0:0:0:0:
192,192,62903,128,0,63084:0:0:0:0:
448,192,62903,1,0,0:0:0:0:
320,192,63084,1,0,0:0:0:0:
64,192,63265,1,8,0:0:0:0:
192,192,63265,1,0,0:0:0:0:
448,192,63265,1,0,0:0:0:0:
320,192,63446,128,0,63626:0:0:0:0:
64,192,63626,128,2,63988:0:0:0:0:
448,192,63626,1,0,0:0:0:0:
192,192,63897,128,0,63988:0:0:0:0:
320,192,63988,1,8,0:0:0:0:
448,192,63988,1,0,0:0:0:0:
320,192,64169,128,0,64259:0:0:0:0:
448,192,64169,128,0,64259:0:0:0:0:
64,192,64349,1,2,0:0:0:0:
320,192,64349,128,0,64530:0:0:0:0:
448,192,64349,128,0,64530:0:0:0:0:
192,192,64530,1,0,0:0:0:0:
64,192,64711,128,8,64891:0:0:0:0:
320,192,64711,1,0,0:0:0:0:
448,192,64711,1,0,0:0:0:0:
192,192,64891,128,0,65072:0:0:0:0:
64,192,65072,1,2,0:0:0:0:
448,192,65072,128,0,65434:0:0:0:0:
320,192,65343,128,0,65434:0:0:0:0:
64,192,65434,1,8,0:0:0:0:
192,192,65434,1,0,0:0:0:0:
320,192,65614,128,0,65795:0:0:0:0:
448,192,65614,128,0,65795:0:0:0:0:
64,192,65795,128,2,65976:0:0:0:0:
192,192,65795,128,0,65976:0:0:0:0:
448,192,65976,1,0,0:0:0:0:
64,192,66157,1,8,0:0:0:0:
192,192,66157,128,0,66337:0:0:0:0:
320,192,66157,128,0,66337:0:0:0:0:
448,192,66337,1,0,0:0:0:0:
64,192,66518,1,2,0:0:0:0:
320,192,66518,128,0,66699:0:0:0:0:
448,192,66518,128,0,66699:0:0:0:0:
192,192,66699,1,0,0:0:0:0:
64,192,66879,128,8,67060:0:0:0:0:
320,192,66879,1,0,0:0:0:0:
448,192,66879,1,0,0:0:0:0:
192,192,67060,1,0,0:0:0:0:
320,192,67241,128,2,67422:0:0:0:0:
448,192,67241,1,0,0:0:0:0:
64,192,67422,1,0,0:0:0:0:
192,192,67602,1,8,0:0:0:0:
320,192,67602,1,0,0:0:0:0:
448,192,67602,128,0,67783:0:0:0:0:
64,192,67783,1,0,0:0:0:0:
64,192,67964,128,2,68325:0:0:0:0:
448,192,67964,1,0,0:0:0:0:
192,192,68235,128,0,68325:0:0:0:0:
320,192,68325,1,8,0:0:0:0:
448,192,68325,1,0,0:0:0:0:
320,192,68506,128,0,68596:0:0:0:0:
448,192,68506,128,0,68596:0:0:0:0:
64,192,68687,1,2,0:0:0:0:
320,192,68687,128,0,68867:0:0:0:0:
448,192,68687,128,0,68867:0:0:0:0:
192,192,68867,1,0,0:0:0:0:
64,192,69048,128,8,69229:0:0:0:0:
320,192,69048,1,0,0:0:0:0:
448,192,69048,1,0,0:0:0:0:
192,192,69229,128,0,69410:0:0:0:0:
64,192,69410,1,2,0:0:0:0:
448,192,69410,128,0,69771:0:0:0:0:
320,192,69681,128,0,69771:0:0:0:0:
64,192,69771,1,8,0:0:0:0:
192,192,69771,1,0,0:0:0:0:
64,192,69952,128,0,70042:0:0:0:0:
192,192,69952,128,0,70042:0:0:0:0:
64,192,70132,128,2,70313:0:0:0:0:
192,192,70132,128,0,70313:0:0:0:0:
448,192,70132,1,0,0:0:0:0:
320,192,70313,1,0,0:0:0:0:
64,192,70494,1,8,0:0:0:0:
192,192,70494,1,0,0:0:0:0:
448,192,70494,128,0,70675:0:0:0:0:
320,192,70675,1,0,0:0:0:0:
64,192,70855,128,2,71036:0:0:0:0:
192,192,70855,128,4,71036:0:0:0:0:
448,192,70855,128,0,71036:0:0:0:0:
64,192,71126,128,2,71307:0:0:0:0:
320,192,71126,128,4,71307:0:0:0:0:
448,192,71126,128,0,71307:0:0:0:0:
192,192,71397,128,4,71578:0:0:0:0:
320,192,71397,128,2,71578:0:0:0:0:
448,192,71397,128,0,71578:0:0:0:0:
64,192,71578,1,0,0:0:0:0:
192,192,71759,1,2,0:0:0:0:
320,192,71759,1,0,0:0:0:0:
64,192,71940,128,0,72060:0:0:0:70:LR3_Snare FCSRL.wav
448,192,71940,1,0,0:0:0:0:
192,192,72000,128,0,72120:0:0:0:0:
320,192,72060,128,0,72181:0:0:0:0:
448,192,72120,128,0,72241:0:0:0:0:
64,192,72181,128,0,72301:0:0:0:0:
192,192,72241,128,0,72301:0:0:0:0:
320,192,72301,128,4,72482:0:0:0:0:
448,192,72301,128,2,72482:0:0:0:0:
192,192,72482,1,0,0:0:0:0:
64,192,72663,128,8,72843:0:0:0:0:
320,192,72663,1,0,0:0:0:0:
448,192,72663,1,0,0:0:0:0:
192,192,72843,1,0,0:0:0:0:
320,192,73024,128,2,73205:0:0:0:0:
448,192,73024,1,0,0:0:0:0:
64,192,73205,1,0,0:0:0:0:
192,192,73385,1,8,0:0:0:0:
320,192,73385,1,0,0:0:0:0:
448,192,73385,128,0,73566:0:0:0:0:
64,192,73566,1,0,0:0:0:0:
64,192,73747,128,2,74108:0:0:0:0:
448,192,73747,1,0,0:0:0:0:
192,192,74018,128,0,74108:0:0:0:0:
320,192,74108,1,8,0:0:0:0:
448,192,74108,1,0,0:0:0:0:
320,192,74289,128,0,74379:0:0:0:0:
448,192,74289,128,0,74379:0:0:0:0:
64,192,74470,1,2,0:0:0:0:
320,192,74470,128,0,74650:0:0:0:0:
448,192,74470,128,0,74650:0:0:0:0:
192,192,74650,1,0,0:0:0:0:
64,192,74831,1,8,0:0:0:0:
320,192,74831,1,0,0:0:0:0:
448,192,74831,1,0,0:0:0:0:
192,192,75012,128,0,75193:0:0:0:0:
64,192,75193,1,2,0:0:0:0:
448,192,75193,128,0,75554:0:0:0:0:
320,192,75464,128,0,75554:0:0:0:0:
64,192,75554,1,8,0:0:0:0:
192,192,75554,1,0,0:0:0:0:
64,192,75735,128,0,75825:0:0:0:0:
192,192,75735,128,0,75825:0:0:0:0:
64,192,75916,128,2,76096:0:0:0:0:
192,192,75916,128,0,76096:0:0:0:0:
448,192,75916,1,0,0:0:0:0:
320,192,76096,1,0,0:0:0:0:
64,192,76277,1,8,0:0:0:0:
192,192,76277,1,0,0:0:0:0:
448,192,76277,128,0,76458:0:0:0:0:
320,192,76458,128,0,76638:0:0:0:0:
64,192,76638,128,2,77000:0:0:0:0:
448,192,76638,1,0,0:0:0:0:
192,192,76910,128,0,77000:0:0:0:0:
320,192,77000,1,8,0:0:0:0:
448,192,77000,1,0,0:0:0:0:
64,192,77181,128,0,77361:0:0:0:0:
192,192,77181,128,0,77361:0:0:0:0:
320,192,77361,128,2,77542:0:0:0:0:
448,192,77361,128,0,77542:0:0:0:0:
64,192,77542,1,0,0:0:0:0:
192,192,77723,128,8,77903:0:0:0:0:
320,192,77723,128,0,77903:0:0:0:0:
448,192,77723,1,0,0:0:0:0:
64,192,77903,1,0,0:0:0:0:
64,192,78084,128,2,78265:0:0:0:0:
192,192,78084,128,0,78265:0:0:0:0:
448,192,78084,1,0,0:0:0:0:
320,192,78265,1,0,0:0:0:0:
64,192,78446,1,8,0:0:0:0:
192,192,78446,1,0,0:0:0:0:
448,192,78446,128,0,78626:0:0:0:0:
320,192,78626,1,0,0:0:0:0:
64,192,78807,1,2,0:0:0:0:
192,192,78807,128,0,78988:0:0:0:0:
448,192,78988,1,0,0:0:0:0:
64,192,79169,128,8,79349:0:0:0:0:
192,192,79169,1,0,0:0:0:0:
320,192,79169,1,0,0:0:0:0:
448,192,79349,1,0,0:0:0:0:
64,192,79530,128,2,79891:0:0:0:0:
448,192,79530,1,0,0:0:0:0:
192,192,79801,128,0,79891:0:0:0:0:
320,192,79891,1,8,0:0:0:0:
448,192,79891,1,0,0:0:0:0:
320,192,80072,128,0,80163:0:0:0:0:
448,192,80072,128,0,80163:0:0:0:0:
64,192,80253,1,2,0:0:0:0:
320,192,80253,128,0,80434:0:0:0:0:
448,192,80253,128,0,80434:0:0:0:0:
192,192,80434,1,0,0:0:0:0:
64,192,80614,128,8,80795:0:0:0:0:
320,192,80614,1,0,0:0:0:0:
448,192,80614,1,0,0:0:0:0:
192,192,80795,128,0,80976:0:0:0:0:
64,192,80976,1,4,0:0:0:0:
320,192,80976,1,2,0:0:0:0:
448,192,80976,128,0,81337:0:0:0:0:
320,192,81247,128,0,81337:0:0:0:0:
64,192,81337,1,8,0:0:0:0:
192,192,81337,1,0,0:0:0:0:
64,192,81518,128,4,81608:0:0:0:0:
192,192,81518,128,2,81608:0:0:0:0:
448,192,81518,128,0,81608:0:0:0:0:
64,192,81699,128,0,81879:0:0:0:0:
192,192,81699,128,0,81879:0:0:0:0:
320,192,81879,1,0,0:0:0:0:
64,192,82060,128,8,82241:0:0:0:0:
192,192,82060,1,0,0:0:0:0:
448,192,82060,1,0,0:0:0:0:
320,192,82241,1,0,0:0:0:0:
64,192,82422,1,2,0:0:0:0:
320,192,82422,1,4,0:0:0:0:
448,192,82422,1,0,0:0:0:0:
192,192,82512,1,0,0:0:0:0:
448,192,82602,1,2,0:0:0:0:
320,192,82693,1,2,0:0:0:0:
64,192,82783,1,2,0:0:0:0:
192,192,82783,1,0,0:0:0:0:
448,192,82873,1,2,0:0:0:0:
64,192,82964,1,2,0:0:0:0:
320,192,82964,1,0,0:0:0:0:
192,192,83054,1,2,0:0:0:0:
320,192,83144,1,2,0:0:0:0:
448,192,83144,1,0,0:0:0:0:
64,192,83235,1,2,0:0:0:0:
192,192,83235,1,0,0:0:0:0:
320,192,83325,1,2,0:0:0:0:
448,192,83325,1,0,0:0:0:0:
64,192,83416,1,2,0:0:0:0:
192,192,83416,1,0,0:0:0:0:
320,192,83506,1,0,0:0:0:0:
448,192,83596,1,0,0:0:0:0:
64,192,83687,1,0,0:0:0:0:
192,192,83777,1,0,0:0:0:0:
64,192,83867,1,2,0:0:0:0:
320,192,83867,1,4,0:0:0:0:
448,192,83867,128,0,84048:0:0:0:0:
64,192,84048,1,0,0:0:0:0:
192,192,84229,128,8,84410:0:0:0:0:
320,192,84229,1,0,0:0:0:0:
448,192,84229,1,0,0:0:0:0:
448,192,84410,1,0,0:0:0:0:
64,192,84590,1,2,0:0:0:0:
320,192,84590,128,0,84771:0:0:0:0:
64,192,84771,1,0,0:0:0:0:
192,192,84952,1,8,0:0:0:0:
320,192,84952,1,0,0:0:0:0:
448,192,84952,128,0,85132:0:0:0:0:
192,192,85132,1,0,0:0:0:0:
64,192,85313,1,2,0:0:0:0:
320,192,85313,128,0,85675:0:0:0:0:
192,192,85584,128,0,85675:0:0:0:0:
64,192,85675,1,8,0:0:0:0:
448,192,85675,1,0,0:0:0:0:
64,192,85855,128,0,85946:0:0:0:0:
448,192,85855,128,0,85946:0:0:0:0:
64,192,86036,128,2,86217:0:0:0:0:
320,192,86036,1,0,0:0:0:0:
448,192,86036,128,0,86217:0:0:0:0:
192,192,86217,1,0,0:0:0:0:
64,192,86397,1,8,0:0:0:0:
320,192,86397,1,0,0:0:0:0:
448,192,86397,1,0,0:0:0:0:
64,192,86578,128,0,86759:0:0:0:0:
192,192,86759,128,2,87120:0:0:0:0:
448,192,86759,1,0,0:0:0:0:
320,192,87030,128,0,87120:0:0:0:0:
64,192,87120,1,8,0:0:0:0:
448,192,87120,1,0,0:0:0:0:
64,192,87301,128,0,87391:0:0:0:0:
448,192,87301,128,0,87391:0:0:0:0:
64,192,87482,128,2,87663:0:0:0:0:
192,192,87482,1,0,0:0:0:0:
448,192,87482,128,0,87663:0:0:0:0:
320,192,87663,1,0,0:0:0:0:
64,192,87843,128,8,88114:0:0:0:0:
192,192,87843,1,0,0:0:0:0:
448,192,87843,1,0,0:0:0:0:
448,192,88024,128,0,88114:0:0:0:0:
64,192,88205,1,2,0:0:0:0:
448,192,88205,128,0,88566:0:0:0:0:
320,192,88476,128,0,88566:0:0:0:0:
64,192,88566,1,8,0:0:0:0:
192,192,88566,1,0,0:0:0:0:
64,192,88747,128,0,88837:0:0:0:0:
192,192,88747,128,0,88837:0:0:0:0:
64,192,88928,128,2,89108:0:0:0:0:
192,192,88928,128,0,89108:0:0:0:0:
320,192,88928,1,0,0:0:0:0:
448,192,89108,1,0,0:0:0:0:
192,192,89289,1,8,0:0:0:0:
320,192,89289,128,0,89470:0:0:0:0:
448,192,89289,128,0,89470:0:0:0:0:
64,192,89470,1,0,0:0:0:0:
192,192,89650,1,2,0:0:0:0:
448,192,89650,128,0,89831:0:0:0:0:
192,192,89831,1,0,0:0:0:0:
64,192,90012,128,8,90193:0:0:0:0:
320,192,90012,1,0,0:0:0:0:
448,192,90012,1,0,0:0:0:0:
320,192,90193,1,0,0:0:0:0:
192,192,90373,128,2,90554:0:0:0:0:
448,192,90373,1,0,0:0:0:0:
448,192,90554,1,0,0:0:0:0:
64,192,90735,1,8,0:0:0:0:
192,192,90735,1,0,0:0:0:0:
320,192,90735,128,0,90916:0:0:0:0:
64,192,90916,1,0,0:0:0:0:
192,192,91096,1,2,0:0:0:0:
448,192,91096,128,0,91458:0:0:0:0:
64,192,91367,128,0,91458:0:0:0:0:
192,192,91458,1,8,0:0:0:0:
320,192,91458,1,0,0:0:0:0:
64,192,91638,128,0,91729:0:0:0:0:
448,192,91638,128,0,91729:0:0:0:0:
64,192,91819,1,2,0:0:0:0:
192,192,91819,128,0,92000:0:0:0:0:
448,192,91819,128,0,92000:0:0:0:0:
320,192,92000,1,0,0:0:0:0:
64,192,92181,128,8,92452:0:0:0:0:
320,192,92181,1,0,0:0:0:0:
448,192,92181,1,0,0:0:0:0:
192,192,92361,128,0,92452:0:0:0:0:
64,192,92542,128,2,92903:0:0:0:0:
448,192,92542,1,0,0:0:0:0:
192,192,92813,128,0,92903:0:0:0:0:
320,192,92903,1,8,0:0:0:0:
448,192,92903,1,0,0:0:0:0:
320,192,93084,128,0,93175:0:0:0:0:
448,192,93084,128,0,93175:0:0:0:0:
64,192,93265,1,2,0:0:0:0:
320,192,93265,128,0,93446:0:0:0:0:
448,192,93265,128,0,93446:0:0:0:0:
192,192,93446,1,0,0:0:0:0:
64,192,93626,1,8,0:0:0:0:
320,192,93626,1,0,0:0:0:0:
448,192,93626,1,0,0:0:0:0:
192,192,93807,128,0,93988:0:0:0:0:
320,192,93988,128,2,94169:0:0:0:0:
448,192,93988,128,4,94169:0:0:0:0:
64,192,94169,1,0,0:0:0:0:
192,192,94169,1,0,0:0:0:0:
320,192,94259,128,4,94349:0:0:0:0:
448,192,94259,128,2,94349:0:0:0:0:
64,192,94349,1,8,0:0:0:0:
192,192,94349,1,0,0:0:0:0:
64,192,94530,128,2,94711:0:0:0:0:
192,192,94530,128,4,94711:0:0:0:0:
320,192,94530,128,0,94711:0:0:0:0:
448,192,94711,128,0,94891:0:0:0:0:
64,192,94891,1,2,0:0:0:0:
192,192,94891,1,0,0:0:0:0:
320,192,95072,128,0,95193:0:0:0:70:LR3_Snare FCSRL.wav
448,192,95072,1,0,0:0:0:0:
192,192,95132,128,0,95253:0:0:0:0:
64,192,95193,128,0,95313:0:0:0:0:
448,192,95253,128,0,95373:0:0:0:0:
320,192,95313,128,0,95434:0:0:0:0:
192,192,95373,128,0,95434:0:0:0:0:
64,192,95434,128,2,95705:0:0:0:0:
448,192,95434,1,0,0:0:0:0:
64,192,95795,1,4,0:0:0:0:
320,192,95795,1,8,0:0:0:0:
448,192,95795,128,0,95976:0:0:0:0:
64,192,95976,1,0,0:0:0:0:
192,192,96157,128,2,96337:0:0:0:0:
448,192,96157,1,0,0:0:0:0:
448,192,96337,1,0,0:0:0:0:
64,192,96518,128,8,96699:0:0:0:0:
192,192,96518,1,0,0:0:0:0:
320,192,96518,1,0,0:0:0:0:
320,192,96699,1,0,0:0:0:0:
192,192,96879,128,2,97241:0:0:0:0:
448,192,96879,1,0,0:0:0:0:
320,192,97150,128,0,97241:0:0:0:0:
64,192,97241,1,8,0:0:0:0:
448,192,97241,1,0,0:0:0:0:
64,192,97422,128,0,97512:0:0:0:0:
448,192,97422,128,0,97512:0:0:0:0:
64,192,97602,128,2,97783:0:0:0:0:
192,192,97602,1,0,0:0:0:0:
448,192,97602,128,0,97783:0:0:0:0:
320,192,97783,1,0,0:0:0:0:
64,192,97964,1,8,0:0:0:0:
192,192,97964,1,0,0:0:0:0:
448,192,97964,1,0,0:0:0:0:
448,192,98144,128,0,98325:0:0:0:0:
64,192,98325,1,2,0:0:0:0:
320,192,98325,128,0,98687:0:0:0:0:
192,192,98596,128,0,98687:0:0:0:0:
64,192,98687,1,8,0:0:0:0:
448,192,98687,1,0,0:0:0:0:
64,192,98867,128,0,98958:0:0:0:0:
448,192,98867,128,0,98958:0:0:0:0:
64,192,99048,128,2,99229:0:0:0:0:
320,192,99048,1,0,0:0:0:0:
448,192,99048,128,0,99229:0:0:0:0:
192,192,99229,1,0,0:0:0:0:
64,192,99410,1,8,0:0:0:0:
320,192,99410,1,0,0:0:0:0:
448,192,99410,128,0,99681:0:0:0:0:
64,192,99590,128,0,99681:0:0:0:0:
64,192,99771,128,2,100132:0:0:0:0:
448,192,99771,1,0,0:0:0:0:
192,192,100042,128,0,100132:0:0:0:0:
320,192,100132,1,8,0:0:0:0:
448,192,100132,1,0,0:0:0:0:
320,192,100313,128,0,100403:0:0:0:0:
448,192,100313,128,0,100403:0:0:0:0:
64,192,100494,1,2,0:0:0:0:
320,192,100494,128,0,100675:0:0:0:0:
448,192,100494,128,0,100675:0:0:0:0:
192,192,100675,1,0,0:0:0:0:
64,192,100855,128,8,101036:0:0:0:0:
192,192,100855,128,0,101036:0:0:0:0:
448,192,100855,1,0,0:0:0:0:
320,192,101036,1,0,0:0:0:0:
192,192,101217,1,2,0:0:0:0:
448,192,101217,128,0,101397:0:0:0:0:
192,192,101397,1,0,0:0:0:0:
64,192,101578,128,8,101759:0:0:0:0:
320,192,101578,1,0,0:0:0:0:
448,192,101578,1,0,0:0:0:0:
448,192,101759,1,0,0:0:0:0:
192,192,101940,1,2,0:0:0:0:
320,192,101940,128,0,102120:0:0:0:0:
192,192,102120,1,0,0:0:0:0:
64,192,102301,1,8,0:0:0:0:
320,192,102301,1,0,0:0:0:0:
448,192,102301,128,0,102482:0:0:0:0:
64,192,102482,1,0,0:0:0:0:
320,192,102663,1,2,0:0:0:0:
448,192,102663,128,0,103024:0:0:0:0:
64,192,102934,128,0,103024:0:0:0:0:
192,192,103024,1,8,0:0:0:0:
320,192,103024,1,0,0:0:0:0:
64,192,103205,128,0,103295:0:0:0:0:
448,192,103205,128,0,103295:0:0:0:0:
64,192,103385,1,2,0:0:0:0:
192,192,103385,128,0,103566:0:0:0:0:
448,192,103385,128,0,103566:0:0:0:0:
320,192,103566,1,0,0:0:0:0:
64,192,103747,1,8,0:0:0:0:
192,192,103747,1,0,0:0:0:0:
448,192,103747,128,0,104018:0:0:0:0:
320,192,103928,128,0,104018:0:0:0:0:
64,192,104108,128,2,104289:0:0:0:0:
320,192,104108,128,4,104289:0:0:0:0:
448,192,104108,128,0,104289:0:0:0:0:
64,192,104379,128,4,104560:0:0:0:0:
192,192,104379,128,2,104560:0:0:0:0:
448,192,104379,128,0,104560:0:0:0:0:
64,192,104650,128,4,104922:0:0:0:0:
192,192,104650,128,2,104922:0:0:0:0:
320,192,104650,128,0,104922:0:0:0:0:
64,192,105012,1,2,0:0:0:0:
320,192,105012,1,0,0:0:0:0:
64,192,105193,1,8,0:0:0:0:
192,192,105193,1,0,0:0:0:0:
448,192,105193,1,0,0:0:0:0:
320,192,105373,1,0,0:0:0:0:
64,192,105554,1,2,0:0:0:0:
320,192,105554,1,4,0:0:0:0:
448,192,105554,1,0,0:0:0:0:
192,192,105644,1,0,0:0:0:0:
448,192,105735,1,0,0:0:0:0:
320,192,105825,1,0,0:0:0:0:
64,192,105916,1,0,0:0:0:0:
192,192,105916,1,0,0:0:0:0:
320,192,106096,1,0,0:0:0:0:
448,192,106096,1,0,0:0:0:0:
192,192,106187,1,0,0:0:0:0:
320,192,106277,1,0,0:0:0:0:
448,192,106367,1,0,0:0:0:0:
64,192,106458,1,0,0:0:0:0:
192,192,106548,1,0,0:0:0:0:
320,192,106638,1,0,0:0:0:0:
448,192,106638,1,0,0:0:0:0:
64,192,106729,1,0,0:0:0:0:
192,192,106819,1,0,0:0:0:0:
320,192,106910,1,0,0:0:0:0:
64,192,107000,128,2,107181:0:0:0:0:
192,192,107000,1,4,0:0:0:0:
448,192,107000,1,0,0:0:0:0:
320,192,107181,1,0,0:0:0:0:
64,192,107361,128,2,107542:0:0:0:0:
448,192,107361,1,0,0:0:0:0:
192,192,107542,1,0,0:0:0:0:
64,192,107723,128,2,107903:0:0:0:0:
448,192,107723,1,0,0:0:0:0:
192,192,107903,1,0,0:0:0:0:
64,192,108084,128,2,108265:0:0:0:0:
448,192,108084,1,0,0:0:0:0:
192,192,108265,1,0,0:0:0:0:
64,192,108446,128,2,108626:0:0:0:0:
320,192,108446,1,0,0:0:0:0:
192,192,108626,1,0,0:0:0:0:
64,192,108807,128,2,108988:0:0:0:0:
320,192,108807,1,0,0:0:0:0:
192,192,108988,1,0,0:0:0:0:
64,192,109169,128,2,109349:0:0:0:0:
320,192,109169,1,0,0:0:0:0:
192,192,109349,1,0,0:0:0:0:
64,192,109530,128,2,109711:0:0:0:0:
320,192,109530,1,0,0:0:0:0:
192,192,109711,1,0,0:0:0:0:
64,192,109891,1,2,0:0:0:0:
448,192,109891,128,0,110072:0:0:0:0:
320,192,110072,1,0,0:0:0:0:
64,192,110253,1,2,0:0:0:0:
448,192,110253,128,0,110434:0:0:0:0:
320,192,110434,1,0,0:0:0:0:
64,192,110614,1,2,0:0:0:0:
448,192,110614,128,0,110795:0:0:0:0:
320,192,110795,1,0,0:0:0:0:
64,192,110976,1,2,0:0:0:0:
448,192,110976,128,0,111157:0:0:0:0:
320,192,111157,1,0,0:0:0:0:
192,192,111337,1,2,0:0:0:0:
448,192,111337,128,0,111518:0:0:0:0:
320,192,111518,1,0,0:0:0:0:
192,192,111699,1,2,0:0:0:0:
448,192,111699,128,0,111879:0:0:0:0:
320,192,111879,1,0,0:0:0:0:
192,192,112060,1,2,0:0:0:0:
448,192,112060,128,0,112241:0:0:0:0:
320,192,112241,1,0,0:0:0:0:
192,192,112422,1,2,0:0:0:0:
448,192,112422,128,0,112602:0:0:0:0:
320,192,112602,1,0,0:0:0:0:
64,192,112783,128,2,112964:0:0:0:0:
448,192,112783,1,0,0:0:0:0:
448,192,112964,1,0,0:0:0:0:
64,192,113144,128,2,113325:0:0:0:0:
448,192,113144,1,0,0:0:0:0:
448,192,113325,1,0,0:0:0:0:
64,192,113506,128,2,113687:0:0:0:0:
448,192,113506,1,0,0:0:0:0:
448,192,113687,1,0,0:0:0:0:
64,192,113867,128,2,114048:0:0:0:0:
448,192,113867,1,0,0:0:0:0:
448,192,114048,1,0,0:0:0:0:
64,192,114229,1,2,0:0:0:0:
448,192,114229,128,0,114410:0:0:0:0:
64,192,114410,1,0,0:0:0:0:
64,192,114590,1,2,0:0:0:0:
448,192,114590,128,0,114771:0:0:0:0:
64,192,114771,1,0,0:0:0:0:
64,192,114952,128,2,115042:0:0:0:0:
448,192,114952,128,0,115223:0:0:0:0:
64,192,115132,128,0,115223:0:0:0:0:
64,192,115313,128,2,115403:0:0:0:0:
448,192,115313,128,0,115584:0:0:0:0:
64,192,115494,128,0,115584:0:0:0:0:
64,192,115675,128,2,115946:0:0:0:0:
320,192,115675,128,0,115765:0:0:0:0:
320,192,115855,128,0,115946:0:0:0:0:
192,192,116036,128,2,116126:0:0:0:0:
448,192,116036,128,0,116307:0:0:0:0:
192,192,116217,128,0,116307:0:0:0:0:
64,192,116397,128,2,116488:0:0:0:0:
448,192,116397,128,0,116669:0:0:0:0:
64,192,116578,128,0,116669:0:0:0:0:
64,192,116759,128,2,117030:0:0:0:0:
320,192,116759,128,0,116849:0:0:0:0:
320,192,116940,128,0,117030:0:0:0:0:
64,192,117120,128,2,117391:0:0:0:0:
192,192,117120,128,4,117391:0:0:0:0:
448,192,117120,128,0,117391:0:0:0:0:
64,192,117482,1,2,0:0:0:0:
192,192,117482,1,0,0:0:0:0:
320,192,117663,1,0,0:0:0:0:
64,192,117843,1,2,0:0:0:0:
448,192,117843,1,0,0:0:0:0:
192,192,117934,1,0,0:0:0:0:
320,192,118024,1,0,0:0:0:0:
64,192,118205,1,8,0:0:0:0:
192,192,118205,1,0,0:0:0:0:
448,192,118205,1,0,0:0:0:0:
64,192,118385,1,2,0:0:0:0:
320,192,118385,1,0,0:0:0:0:
64,192,118566,1,4,0:0:0:0:
192,192,118566,1,2,0:0:0:0:
448,192,118566,128,0,118928:0:0:0:0:
320,192,118837,128,0,118928:0:0:0:0:
64,192,118928,1,8,0:0:0:0:
192,192,118928,1,0,0:0:0:0:
320,192,119108,128,0,119289:0:0:0:0:
448,192,119108,128,0,119289:0:0:0:0:
64,192,119289,1,2,0:0:0:0:
192,192,119289,1,0,0:0:0:0:
448,192,119470,128,0,119560:0:0:0:0:
64,192,119650,1,8,0:0:0:0:
192,192,119650,1,0,0:0:0:0:
448,192,119650,128,0,119741:0:0:0:0:
448,192,119831,128,0,119922:0:0:0:0:
64,192,120012,128,2,120373:0:0:0:0:
448,192,120012,1,0,0:0:0:0:
192,192,120283,128,0,120373:0:0:0:0:
320,192,120373,1,8,0:0:0:0:
448,192,120373,1,0,0:0:0:0:
64,192,120554,128,0,120735:0:0:0:0:
192,192,120554,128,0,120735:0:0:0:0:
320,192,120735,1,2,0:0:0:0:
448,192,120735,1,0,0:0:0:0:
192,192,120916,1,0,0:0:0:0:
320,192,121096,128,8,121217:0:0:0:0:
448,192,121096,1,0,0:0:0:0:
192,192,121157,128,0,121277:0:0:0:0:
64,192,121217,128,0,121337:0:0:0:0:
448,192,121277,128,0,121397:0:0:0:0:
320,192,121337,128,0,121458:0:0:0:0:
192,192,121397,128,0,121458:0:0:0:0:
64,192,121458,128,2,121819:0:0:0:0:
448,192,121458,1,0,0:0:0:0:
192,192,121729,128,0,121819:0:0:0:0:
320,192,121819,1,8,0:0:0:0:
448,192,121819,1,0,0:0:0:0:
64,192,122000,128,0,122181:0:0:0:0:
192,192,122000,128,0,122181:0:0:0:0:
320,192,122181,1,2,0:0:0:0:
448,192,122181,1,0,0:0:0:0:
64,192,122361,128,0,122542:0:0:0:0:
192,192,122542,1,8,0:0:0:0:
320,192,122542,1,0,0:0:0:0:
448,192,122542,1,0,0:0:0:0:
448,192,122723,128,0,122903:0:0:0:0:
64,192,122903,1,2,0:0:0:0:
192,192,122903,1,0,0:0:0:0:
320,192,123084,1,0,0:0:0:0:
64,192,123265,1,8,0:0:0:0:
192,192,123265,1,0,0:0:0:0:
448,192,123265,1,0,0:0:0:0:
320,192,123446,1,0,0:0:0:0:
64,192,123626,1,2,0:0:0:0:
192,192,123626,1,0,0:0:0:0:
448,192,123807,128,0,123897:0:0:0:0:
64,192,123988,1,8,0:0:0:0:
192,192,123988,128,0,124078:0:0:0:0:
448,192,123988,128,0,124078:0:0:0:0:
448,192,124169,128,0,124259:0:0:0:0:
64,192,124349,128,2,124711:0:0:0:0:
320,192,124349,1,4,0:0:0:0:
448,192,124349,1,0,0:0:0:0:
192,192,124620,128,0,124711:0:0:0:0:
320,192,124711,1,8,0:0:0:0:
448,192,124711,1,0,0:0:0:0:
64,192,124891,128,0,125072:0:0:0:0:
192,192,124891,128,0,125072:0:0:0:0:
320,192,125072,1,2,0:0:0:0:
448,192,125072,1,0,0:0:0:0:
64,192,125253,128,0,125343:0:0:0:0:
64,192,125434,128,8,125524:0:0:0:0:
320,192,125434,1,0,0:0:0:0:
448,192,125434,1,0,0:0:0:0:
64,192,125614,128,0,125705:0:0:0:0:
64,192,125795,1,2,0:0:0:0:
448,192,125795,128,0,126157:0:0:0:0:
192,192,126066,128,0,126157:0:0:0:0:
64,192,126157,1,8,0:0:0:0:
320,192,126157,1,0,0:0:0:0:
192,192,126337,128,0,126518:0:0:0:0:
448,192,126337,128,0,126518:0:0:0:0:
64,192,126518,1,2,0:0:0:0:
320,192,126518,1,0,0:0:0:0:
192,192,126699,1,0,0:0:0:0:
64,192,126879,1,8,0:0:0:0:
320,192,126879,1,0,0:0:0:0:
448,192,126879,1,0,0:0:0:0:
448,192,127060,128,0,127241:0:0:0:0:
64,192,127241,1,2,0:0:0:0:
192,192,127241,1,4,0:0:0:0:
320,192,127241,1,0,0:0:0:0:
320,192,127422,128,0,127602:0:0:0:0:
64,192,127602,1,8,0:0:0:0:
192,192,127602,128,0,127783:0:0:0:0:
448,192,127602,1,0,0:0:0:0:
64,192,127783,128,0,127964:0:0:0:0:
320,192,127964,1,2,0:0:0:0:
448,192,127964,128,0,128144:0:0:0:0:
192,192,128144,1,0,0:0:0:0:
64,192,128325,128,8,128506:0:0:0:0:
320,192,128325,1,0,0:0:0:0:
448,192,128325,1,0,0:0:0:0:
320,192,128506,128,0,128687:0:0:0:0:
64,192,128687,1,2,0:0:0:0:
192,192,128687,1,4,0:0:0:0:
448,192,128687,1,0,0:0:0:0:
448,192,128867,128,0,129048:0:0:0:0:
64,192,129048,1,8,0:0:0:0:
192,192,129048,1,0,0:0:0:0:
320,192,129048,128,0,129229:0:0:0:0:
64,192,129229,128,0,129410:0:0:0:0:
192,192,129410,128,2,129590:0:0:0:0:
320,192,129410,1,0,0:0:0:0:
320,192,129590,128,0,129771:0:0:0:0:
64,192,129771,1,8,0:0:0:0:
192,192,129771,1,0,0:0:0:0:
448,192,129771,128,0,129952:0:0:0:0:
64,192,129952,128,0,130132:0:0:0:0:
192,192,130132,1,2,0:0:0:0:
320,192,130132,1,4,0:0:0:0:
448,192,130132,1,0,0:0:0:0:
64,192,130313,1,2,0:0:0:0:
192,192,130313,1,0,0:0:0:0:
64,192,130494,1,8,0:0:0:0:
320,192,130494,1,2,0:0:0:0:
448,192,130494,1,0,0:0:0:0:
192,192,130675,1,2,0:0:0:0:
448,192,130675,1,0,0:0:0:0:
64,192,130855,1,2,0:0:0:0:
192,192,130855,1,4,0:0:0:0:
320,192,130855,1,0,0:0:0:0:
448,192,130946,1,0,0:0:0:0:
64,192,131036,1,2,0:0:0:0:
320,192,131036,1,0,0:0:0:0:
192,192,131126,1,0,0:0:0:0:
320,192,131217,1,2,0:0:0:0:
448,192,131217,1,8,0:0:0:0:
64,192,131307,1,0,0:0:0:0:
192,192,131397,1,2,0:0:0:0:
448,192,131397,1,0,0:0:0:0:
320,192,131488,1,0,0:0:0:0:
64,192,131578,1,2,0:0:0:0:
192,192,131578,1,4,0:0:0:0:
448,192,131578,1,0,0:0:0:0:
64,192,132120,128,0,132301:0:0:0:0:
192,192,132301,128,0,132663:0:0:0:0:
64,192,132663,1,0,0:0:0:70:LR3_Snare LRW.wav
320,192,132663,128,0,133024:0:0:0:0:
448,192,132663,1,0,0:0:0:0:
64,192,133024,1,2,0:0:0:0:
192,192,133024,1,4,0:0:0:0:
448,192,133024,128,0,134831:0:0:0:0:
192,192,133205,128,0,133385:0:0:0:0:
64,192,133385,128,0,133566:0:0:0:0:
192,192,133566,128,0,133747:0:0:0:0:
64,192,133747,128,0,133928:0:0:0:0:
320,192,133928,128,0,134108:0:0:0:0:
192,192,134108,128,0,134289:0:0:0:0:
64,192,134289,128,0,134470:0:0:0:0:
192,192,134470,128,0,134650:0:0:0:0:
64,192,134650,128,0,134831:0:0:0:0:
320,192,134831,128,0,135012:0:0:0:0:
448,192,135012,128,0,135193:0:0:0:0:
64,192,135193,128,0,135373:0:0:0:0:
192,192,135193,128,0,135554:0:0:0:0:
448,192,135373,128,0,135554:0:0:0:0:
64,192,135554,128,0,135735:0:0:0:0:
320,192,135554,128,0,135916:0:0:0:0:
192,192,135735,128,0,135916:0:0:0:0:
64,192,135916,128,0,136096:0:0:0:0:
448,192,135916,128,0,136819:0:0:0:0:
192,192,136096,128,0,136277:0:0:0:0:
320,192,136277,128,0,136458:0:0:0:0:
64,192,136458,128,0,136638:0:0:0:0:
320,192,136638,128,0,136819:0:0:0:0:
192,192,136819,128,0,137000:0:0:0:0:
64,192,137000,128,0,137181:0:0:0:0:
320,192,137181,128,0,137723:0:0:0:0:
448,192,137181,128,0,137361:0:0:0:0:
192,192,137361,128,0,137542:0:0:0:0:
64,192,137542,128,0,137723:0:0:0:0:
448,192,137723,128,0,137903:0:0:0:0:
192,192,137903,128,0,138084:0:0:0:0:
64,192,138084,128,0,138265:0:0:0:0:
448,192,138265,128,0,138446:0:0:0:0:
320,192,138446,128,0,138626:0:0:0:0:
192,192,138626,128,0,138807:0:0:0:0:
64,192,138807,128,0,139530:0:0:0:0:
320,192,138807,128,0,138988:0:0:0:0:
192,192,138988,128,0,139169:0:0:0:0:
448,192,139169,128,0,139349:0:0:0:0:
320,192,139349,128,0,139530:0:0:0:0:
192,192,139530,128,0,139711:0:0:0:0:
448,192,139711,128,0,139891:0:0:0:0:
320,192,139891,128,0,140072:0:0:0:0:
448,192,140072,128,0,140253:0:0:0:0:
64,192,140253,128,0,140614:0:0:0:0:
192,192,140253,128,0,140434:0:0:0:0:
320,192,140434,128,0,140614:0:0:0:0:
192,192,140614,128,0,140976:0:0:0:0:
448,192,140614,128,0,140795:0:0:0:0:
64,192,140795,128,0,140976:0:0:0:0:
320,192,140976,128,0,141337:0:0:0:0:
448,192,140976,128,0,141157:0:0:0:0:
192,192,141157,128,0,141337:0:0:0:0:
64,192,141337,128,0,141518:0:0:0:0:
448,192,141337,128,0,141699:0:0:0:0:
320,192,141518,128,0,141699:0:0:0:0:
64,192,141699,128,0,141879:0:0:0:0:
192,192,141699,128,0,142060:0:0:0:0:
448,192,141879,128,0,142060:0:0:0:0:
64,192,142060,128,0,142422:0:0:0:0:
320,192,142060,128,0,142241:0:0:0:0:
448,192,142241,128,0,142422:0:0:0:0:
192,192,142422,128,0,142783:0:0:0:0:
320,192,142422,128,0,142602:0:0:0:0:
64,192,142602,128,0,142783:0:0:0:0:
320,192,142783,128,0,142964:0:0:0:0:
448,192,142783,128,0,143144:0:0:0:0:
192,192,142964,128,0,143144:0:0:0:0:
64,192,143144,128,0,143325:0:0:0:0:
320,192,143144,128,0,143867:0:0:0:0:
192,192,143325,128,0,143506:0:0:0:0:
448,192,143506,128,0,143687:0:0:0:0:
64,192,143687,128,0,143867:0:0:0:0:
448,192,143867,128,0,144048:0:0:0:0:
192,192,144048,128,0,144229:0:0:0:0:
64,192,144229,128,0,144410:0:0:0:0:
320,192,144410,128,0,144590:0:0:0:0:
192,192,144590,128,0,144771:0:0:0:0:
448,192,144590,128,0,146397:0:0:0:0:
64,192,144771,128,0,144952:0:0:0:0:
320,192,144952,128,0,145132:0:0:0:0:
192,192,145132,128,0,145313:0:0:0:0:
64,192,145313,128,0,145494:0:0:0:0:
320,192,145494,128,0,145675:0:0:0:0:
192,192,145675,128,0,145855:0:0:0:0:
64,192,145855,128,0,146036:0:0:0:0:
192,192,146036,128,0,146217:0:0:0:0:
320,192,146217,128,0,146397:0:0:0:0:
64,192,146397,128,0,146578:0:0:0:0:
192,192,146578,128,0,146759:0:0:0:0:
64,192,146759,128,0,147120:0:0:0:0:
448,192,146759,128,0,146940:0:0:0:0:
320,192,146940,128,0,147120:0:0:0:0:
192,192,147120,128,0,147482:0:0:0:0:
448,192,147120,128,0,147301:0:0:0:0:
64,192,147301,128,0,147482:0:0:0:0:
320,192,147482,128,0,147663:0:0:0:0:
448,192,147482,128,0,148385:0:0:0:0:
192,192,147663,128,0,147843:0:0:0:0:
64,192,147843,128,0,148024:0:0:0:0:
320,192,148024,128,0,148205:0:0:0:0:
192,192,148205,128,0,148385:0:0:0:0:
64,192,148385,128,0,148566:0:0:0:0:
448,192,148566,128,0,148747:0:0:0:0:
192,192,148747,128,0,148928:0:0:0:0:
320,192,148747,128,0,149289:0:0:0:0:
64,192,148928,128,0,149108:0:0:0:0:
448,192,149108,128,0,149289:0:0:0:0:
192,192,149289,128,0,149470:0:0:0:0:
448,192,149470,128,0,149650:0:0:0:0:
320,192,149650,128,0,149831:0:0:0:0:
192,192,149831,128,0,150012:0:0:0:0:
64,192,150012,128,0,150193:0:0:0:0:
448,192,150193,128,0,150373:0:0:0:0:
64,192,150373,1,0,0:0:0:0:
192,192,150464,1,0,0:0:0:0:
320,192,150554,1,0,0:0:0:0:
64,192,150644,1,0,0:0:0:0:
448,192,150735,1,0,0:0:0:0:
192,192,150825,1,0,0:0:0:0:
320,192,150916,1,0,0:0:0:0:
448,192,151006,1,0,0:0:0:0:
64,192,151096,1,0,0:0:0:0:
192,192,151187,1,0,0:0:0:0:
320,192,151277,1,0,0:0:0:0:
64,192,151367,1,0,0:0:0:0:
448,192,151458,1,0,0:0:0:0:
320,192,151548,1,0,0:0:0:0:
192,192,151638,1,0,0:0:0:0:
64,192,151729,1,0,0:0:0:0:
448,192,151819,1,0,0:0:0:0:
320,192,151910,1,0,0:0:0:0:
192,192,152000,1,0,0:0:0:0:
448,192,152090,1,0,0:0:0:0:
64,192,152181,1,0,0:0:0:0:
192,192,152271,1,0,0:0:0:0:
320,192,152361,1,0,0:0:0:0:
448,192,152452,1,0,0:0:0:0:
64,192,152542,1,0,0:0:0:0:
192,192,152632,1,0,0:0:0:0:
320,192,152723,1,0,0:0:0:0:
448,192,152813,1,0,0:0:0:0:
64,192,152903,1,0,0:0:0:0:
320,192,152994,1,0,0:0:0:0:
192,192,153084,1,0,0:0:0:0:
320,192,153175,1,0,0:0:0:0:
64,192,153265,1,4,0:0:0:0:
192,192,153265,1,2,0:0:0:0:
448,192,153265,1,0,0:0:0:0:
320,192,153446,1,0,0:0:0:0:
64,192,153626,1,2,0:0:0:0:
448,192,153626,1,0,0:0:0:0:
192,192,153807,1,2,0:0:0:0:
320,192,153807,1,0,0:0:0:0:
64,192,153988,1,4,0:0:0:0:
192,192,153988,1,2,0:0:0:0:
448,192,153988,1,0,0:0:0:0:
320,192,154169,1,2,0:0:0:0:
448,192,154169,1,0,0:0:0:0:
64,192,154349,1,2,0:0:0:0:
192,192,154349,1,0,0:0:0:0:
320,192,154530,1,2,0:0:0:0:
448,192,154530,1,0,0:0:0:0:
64,192,154711,1,4,0:0:0:0:
192,192,154711,1,2,0:0:0:0:
320,192,154801,1,2,0:0:0:0:
448,192,154801,1,0,0:0:0:0:
64,192,154891,1,2,0:0:0:0:
192,192,154891,1,0,0:0:0:0:
320,192,154982,1,2,0:0:0:0:
448,192,154982,1,0,0:0:0:0:
64,192,155072,1,2,0:0:0:0:
192,192,155072,1,4,0:0:0:0:
320,192,155163,1,2,0:0:0:0:
448,192,155163,1,0,0:0:0:0:
64,192,155253,1,2,0:0:0:0:
192,192,155253,1,0,0:0:0:0:
320,192,155343,1,2,0:0:0:0:
64,192,155434,1,8,0:0:0:0:
192,192,155434,1,4,0:0:0:0:
448,192,155434,1,0,0:0:0:0:
320,192,155524,1,0,0:0:0:0:
64,192,155614,1,2,0:0:0:0:
448,192,155614,1,0,0:0:0:0:
192,192,155705,1,0,0:0:0:0:
64,192,155795,1,4,0:0:0:0:
320,192,155795,1,0,0:0:0:70:LR3_Snare FCSRL.wav
448,192,155795,1,0,0:0:0:0:
192,192,155885,1,0,0:0:0:0:
64,192,155976,1,2,0:0:0:0:
448,192,155976,1,0,0:0:0:0:
320,192,156066,1,0,0:0:0:0:
64,192,156157,1,4,0:0:0:0:
192,192,156157,1,2,0:0:0:0:
448,192,156157,128,0,157964:0:0:0:0:
320,192,156337,1,0,0:0:0:0:
64,192,156518,1,8,0:0:0:0:
192,192,156518,1,0,0:0:0:0:
320,192,156518,1,0,0:0:0:0:
192,192,156699,1,0,0:0:0:0:
64,192,156879,1,2,0:0:0:0:
320,192,156879,1,0,0:0:0:0:
64,192,157060,1,0,0:0:0:0:
64,192,157241,1,8,0:0:0:0:
192,192,157241,1,0,0:0:0:0:
320,192,157241,1,0,0:0:0:0:
320,192,157422,1,0,0:0:0:0:
64,192,157602,1,2,0:0:0:0:
192,192,157602,1,0,0:0:0:0:
192,192,157783,1,0,0:0:0:0:
64,192,157964,1,8,0:0:0:0:
192,192,157964,1,0,0:0:0:0:
320,192,157964,1,0,0:0:0:0:
64,192,158144,128,0,158235:0:0:0:0:
64,192,158325,128,2,158687:0:0:0:0:
448,192,158325,1,0,0:0:0:0:
320,192,158506,1,0,0:0:0:0:
192,192,158687,128,8,159048:0:0:0:0:
320,192,158687,1,0,0:0:0:0:
448,192,158687,1,0,0:0:0:0:
448,192,158867,1,0,0:0:0:0:
64,192,159048,1,2,0:0:0:0:
320,192,159048,128,0,159771:0:0:0:0:
448,192,159229,1,0,0:0:0:0:
64,192,159410,1,8,0:0:0:0:
192,192,159410,1,0,0:0:0:0:
448,192,159410,1,0,0:0:0:0:
64,192,159590,1,0,0:0:0:0:
192,192,159771,1,2,0:0:0:0:
448,192,159771,1,0,0:0:0:0:
64,192,159952,128,0,160132:0:0:0:0:
192,192,160132,128,8,160313:0:0:0:0:
320,192,160132,1,0,0:0:0:0:
448,192,160132,1,0,0:0:0:0:
64,192,160313,128,0,161036:0:0:0:0:
320,192,160494,1,2,0:0:0:0:
448,192,160494,1,0,0:0:0:0:
192,192,160675,1,0,0:0:0:0:
192,192,160855,1,8,0:0:0:0:
320,192,160855,1,0,0:0:0:0:
448,192,160855,1,0,0:0:0:0:
448,192,161036,128,0,161217:0:0:0:0:
64,192,161217,1,2,0:0:0:0:
320,192,161217,128,0,161397:0:0:0:0:
448,192,161397,128,0,161578:0:0:0:0:
64,192,161578,1,8,0:0:0:0:
192,192,161578,1,0,0:0:0:0:
320,192,161578,128,0,161759:0:0:0:0:
192,192,161759,128,0,161940:0:0:0:0:
64,192,161940,128,2,162663:0:0:0:0:
448,192,161940,1,0,0:0:0:0:
320,192,162120,1,0,0:0:0:0:
192,192,162301,1,8,0:0:0:0:
320,192,162301,1,0,0:0:0:0:
448,192,162301,1,0,0:0:0:0:
320,192,162482,1,0,0:0:0:0:
192,192,162663,1,2,0:0:0:0:
448,192,162663,1,0,0:0:0:0:
64,192,162843,128,0,162934:0:0:0:0:
64,192,163024,128,8,163205:0:0:0:0:
320,192,163024,1,0,0:0:0:0:
448,192,163024,1,0,0:0:0:0:
192,192,163205,128,0,163385:0:0:0:0:
64,192,163385,1,2,0:0:0:0:
320,192,163385,128,0,163747:0:0:0:0:
64,192,163566,1,0,0:0:0:0:
64,192,163747,1,8,0:0:0:0:
192,192,163747,128,0,164108:0:0:0:0:
448,192,163747,1,0,0:0:0:0:
448,192,163928,1,0,0:0:0:0:
64,192,164108,1,2,0:0:0:0:
320,192,164108,128,0,164470:0:0:0:0:
192,192,164289,1,0,0:0:0:0:
64,192,164470,1,8,0:0:0:0:
192,192,164470,1,0,0:0:0:0:
448,192,164470,128,0,164831:0:0:0:0:
320,192,164650,1,0,0:0:0:0:
64,192,164831,1,2,0:0:0:0:
192,192,164831,128,0,165193:0:0:0:0:
448,192,165012,1,0,0:0:0:0:
64,192,165193,128,8,165554:0:0:0:0:
320,192,165193,1,0,0:0:0:0:
448,192,165193,1,0,0:0:0:0:
320,192,165373,1,0,0:0:0:0:
192,192,165554,128,2,165916:0:0:0:0:
448,192,165554,1,0,0:0:0:0:
64,192,165735,1,0,0:0:0:0:
64,192,165916,1,8,0:0:0:0:
320,192,165916,1,0,0:0:0:0:
448,192,165916,128,0,166277:0:0:0:0:
192,192,166096,1,0,0:0:0:0:
64,192,166277,1,2,0:0:0:0:
320,192,166277,128,0,166819:0:0:0:0:
192,192,166458,1,0,0:0:0:0:
64,192,166638,1,8,0:0:0:0:
192,192,166638,1,0,0:0:0:0:
448,192,166638,1,0,0:0:0:0:
64,192,166819,128,0,166910:0:0:0:0:
64,192,167000,128,2,167361:0:0:0:0:
320,192,167000,1,0,0:0:0:0:
448,192,167181,1,0,0:0:0:0:
192,192,167361,1,8,0:0:0:0:
320,192,167361,128,0,167723:0:0:0:0:
448,192,167361,1,0,0:0:0:0:
64,192,167542,1,2,0:0:0:0:
192,192,167542,1,0,0:0:0:0:
64,192,167723,1,2,0:0:0:0:
192,192,167723,1,4,0:0:0:0:
448,192,167723,128,0,169530:0:0:0:0:
320,192,167903,1,0,0:0:0:0:
64,192,168084,1,8,0:0:0:0:
192,192,168084,1,0,0:0:0:0:
320,192,168084,1,0,0:0:0:0:
192,192,168265,1,0,0:0:0:0:
64,192,168446,1,2,0:0:0:0:
192,192,168446,1,0,0:0:0:0:
64,192,168626,1,0,0:0:0:0:
64,192,168807,1,8,0:0:0:0:
192,192,168807,1,0,0:0:0:0:
320,192,168807,1,0,0:0:0:0:
192,192,168988,1,0,0:0:0:0:
64,192,169169,1,2,0:0:0:0:
320,192,169169,1,0,0:0:0:0:
320,192,169349,1,0,0:0:0:0:
64,192,169530,1,8,0:0:0:0:
192,192,169530,1,0,0:0:0:0:
320,192,169530,1,0,0:0:0:0:
64,192,169711,128,0,169801:0:0:0:0:
64,192,169891,128,2,170253:0:0:0:0:
448,192,169891,1,0,0:0:0:0:
320,192,170072,1,0,0:0:0:0:
192,192,170253,1,8,0:0:0:0:
320,192,170253,128,0,170614:0:0:0:0:
448,192,170253,1,0,0:0:0:0:
64,192,170434,1,0,0:0:0:0:
192,192,170614,1,2,0:0:0:0:
448,192,170614,128,0,171518:0:0:0:0:
320,192,170795,1,0,0:0:0:0:
64,192,170976,1,8,0:0:0:0:
192,192,170976,1,0,0:0:0:0:
320,192,170976,1,0,0:0:0:0:
64,192,171157,1,0,0:0:0:0:
64,192,171337,1,2,0:0:0:0:
320,192,171337,1,0,0:0:0:0:
192,192,171518,128,0,171699:0:0:0:0:
64,192,171699,128,8,171879:0:0:0:0:
320,192,171699,1,0,0:0:0:0:
448,192,171699,1,0,0:0:0:0:
320,192,171879,128,0,172060:0:0:0:0:
192,192,172060,1,2,0:0:0:0:
448,192,172060,128,0,172422:0:0:0:0:
320,192,172241,1,0,0:0:0:0:
64,192,172422,1,8,0:0:0:0:
192,192,172422,1,0,0:0:0:0:
320,192,172422,1,0,0:0:0:0:
448,192,172602,128,0,172783:0:0:0:0:
192,192,172783,128,2,172964:0:0:0:0:
320,192,172783,1,0,0:0:0:0:
64,192,172964,128,0,173144:0:0:0:0:
192,192,173144,1,8,0:0:0:0:
320,192,173144,1,0,0:0:0:0:
448,192,173144,128,0,173325:0:0:0:0:
64,192,173325,128,0,173506:0:0:0:0:
192,192,173506,1,2,0:0:0:0:
320,192,173506,1,4,0:0:0:0:
448,192,173506,1,0,0:0:0:0:
64,192,173596,1,0,0:0:0:0:
192,192,173687,1,0,0:0:0:0:
320,192,173777,1,0,0:0:0:0:
64,192,173867,1,8,0:0:0:0:
192,192,173867,1,0,0:0:0:0:
448,192,173867,1,0,0:0:0:0:
320,192,173958,1,0,0:0:0:0:
64,192,174048,1,0,0:0:0:0:
448,192,174138,1,0,0:0:0:0:
64,192,174229,1,2,0:0:0:0:
192,192,174229,1,0,0:0:0:0:
320,192,174319,1,0,0:0:0:0:
448,192,174410,1,0,0:0:0:0:
64,192,174500,1,0,0:0:0:0:
192,192,174590,1,8,0:0:0:0:
320,192,174590,1,0,0:0:0:0:
448,192,174590,1,0,0:0:0:0:
64,192,174681,1,0,0:0:0:0:
320,192,174771,1,0,0:0:0:0:
192,192,174861,1,0,0:0:0:0:
64,192,174952,1,2,0:0:0:0:
320,192,174952,1,4,0:0:0:0:
448,192,174952,1,0,0:0:0:0:
192,192,175042,1,0,0:0:0:0:
448,192,175132,1,0,0:0:0:0:
320,192,175223,1,0,0:0:0:0:
64,192,175313,1,8,0:0:0:0:
192,192,175313,1,0,0:0:0:0:
448,192,175313,1,0,0:0:0:0:
320,192,175403,1,0,0:0:0:0:
64,192,175494,1,0,0:0:0:0:
192,192,175584,1,0,0:0:0:0:
320,192,175675,1,2,0:0:0:0:
448,192,175675,1,0,0:0:0:0:
64,192,175765,1,0,0:0:0:0:
192,192,175855,1,0,0:0:0:0:
448,192,175946,1,0,0:0:0:0:
64,192,176036,1,8,0:0:0:0:
192,192,176036,1,0,0:0:0:0:
320,192,176036,1,0,0:0:0:0:
448,192,176126,1,0,0:0:0:0:
64,192,176217,1,2,0:0:0:0:
192,192,176217,1,0,0:0:0:0:
320,192,176307,1,0,0:0:0:0:
64,192,176397,1,2,0:0:0:0:
192,192,176397,1,4,0:0:0:0:
448,192,176397,1,0,0:0:0:0:
320,192,176488,1,0,0:0:0:0:
64,192,176578,1,2,0:0:0:0:
448,192,176578,1,0,0:0:0:0:
192,192,176669,1,0,0:0:0:0:
64,192,176759,1,2,0:0:0:0:
320,192,176759,1,8,0:0:0:0:
448,192,176759,1,0,0:0:0:0:
192,192,176849,1,0,0:0:0:0:
64,192,176940,1,2,0:0:0:0:
448,192,176940,1,0,0:0:0:0:
320,192,177030,1,0,0:0:0:0:
64,192,177120,1,2,0:0:0:0:
192,192,177120,1,4,0:0:0:0:
448,192,177120,1,0,0:0:0:0:
320,192,177211,1,0,0:0:0:0:
192,192,177301,1,2,0:0:0:0:
448,192,177301,1,0,0:0:0:0:
64,192,177391,1,0,0:0:0:0:
192,192,177482,1,2,0:0:0:0:
320,192,177482,1,8,0:0:0:0:
448,192,177482,1,0,0:0:0:0:
64,192,177572,1,0,0:0:0:0:
192,192,177663,1,2,0:0:0:0:
320,192,177663,1,0,0:0:0:0:
448,192,177753,1,0,0:0:0:0:
64,192,177843,1,2,0:0:0:0:
192,192,177843,1,4,0:0:0:0:
320,192,177843,1,0,0:0:0:0:
448,192,177934,1,0,0:0:0:0:
64,192,178024,1,0,0:0:0:0:
192,192,178114,1,4,0:0:0:0:
320,192,178114,1,2,0:0:0:0:
64,192,178205,128,8,178295:0:0:0:0:
448,192,178205,1,0,0:0:0:0:
192,192,178385,1,4,0:0:0:0:
320,192,178385,1,2,0:0:0:0:
448,192,178385,128,0,178476:0:0:0:0:
64,192,178566,128,8,178657:0:0:0:0:
320,192,178566,1,0,0:0:0:0:
192,192,178657,128,4,178747:0:0:0:0:
448,192,178657,1,2,0:0:0:0:
320,192,178747,128,0,178837:0:0:0:0:
448,192,178837,128,0,178928:0:0:0:0:
64,192,178928,128,2,179108:0:0:0:0:
192,192,178928,1,4,0:0:0:0:
320,192,178928,1,0,0:0:0:0:
192,192,179108,1,4,0:0:0:0:
320,192,179108,1,2,0:0:0:0:
448,192,179108,1,0,0:0:0:0:
64,192,179289,1,2,0:0:0:0:
320,192,179289,1,4,0:0:0:0:
448,192,179289,1,0,0:0:0:0:
192,192,179379,128,0,179470:0:0:0:0:
320,192,179470,128,0,179560:0:0:0:0:
448,192,179560,128,0,179650:0:0:0:0:
64,192,179650,128,0,179741:0:0:0:0:
192,192,179741,128,0,179831:0:0:0:0:
320,192,179831,128,0,179922:0:0:0:0:
448,192,179922,128,0,180012:0:0:0:0:
64,192,180012,128,0,180102:0:0:0:0:
320,192,180102,128,0,180193:0:0:0:0:
192,192,180193,128,0,180283:0:0:0:0:
64,192,180283,128,0,180373:0:0:0:0:
448,192,180373,128,0,180464:0:0:0:0:
320,192,180464,128,0,180554:0:0:0:0:
192,192,180554,128,0,180644:0:0:0:0:
64,192,180644,128,0,180735:0:0:0:0:
320,192,180735,128,0,180825:0:0:0:0:
448,192,180825,128,0,180916:0:0:0:0:
192,192,180916,128,0,181006:0:0:0:0:
320,192,181006,128,0,181096:0:0:0:0:
64,192,181096,128,0,181187:0:0:0:0:
448,192,181187,128,0,181277:0:0:0:0:
192,192,181277,128,0,181367:0:0:0:0:
320,192,181367,128,0,181458:0:0:0:0:
64,192,181458,128,0,181548:0:0:0:0:
448,192,181548,128,0,181638:0:0:0:0:
320,192,181638,128,0,181729:0:0:0:0:
192,192,181729,128,0,181819:0:0:0:0:
448,192,181819,128,0,181910:0:0:0:0:
320,192,181910,128,0,182000:0:0:0:0:
64,192,182000,128,0,182090:0:0:0:0:
192,192,182090,128,0,182181:0:0:0:0:
448,192,182181,128,0,182271:0:0:0:0:
64,192,182271,128,0,182361:0:0:0:0:
192,192,182361,128,0,182452:0:0:0:0:
320,192,182452,128,0,182542:0:0:0:0:
448,192,182542,128,0,182632:0:0:0:0:
64,192,182632,128,0,182723:0:0:0:0:
192,192,182723,128,0,182813:0:0:0:0:
320,192,182813,128,0,182903:0:0:0:0:
448,192,182903,128,0,182994:0:0:0:0:
192,192,182994,128,0,183084:0:0:0:0:
64,192,183084,128,0,183175:0:0:0:0:
448,192,183175,128,0,183265:0:0:0:0:
320,192,183265,128,0,183355:0:0:0:0:
192,192,183355,128,0,183446:0:0:0:0:
64,192,183446,128,0,183536:0:0:0:0:
448,192,183536,128,0,183626:0:0:0:0:
320,192,183626,128,0,183717:0:0:0:0:
64,192,183717,128,0,183807:0:0:0:0:
192,192,183807,128,0,183897:0:0:0:0:
320,192,183897,128,0,183988:0:0:0:0:
448,192,183988,128,0,184078:0:0:0:0:
64,192,184078,128,0,184169:0:0:0:0:
192,192,184169,128,0,184259:0:0:0:0:
320,192,184259,128,0,184349:0:0:0:0:
448,192,184349,128,0,184440:0:0:0:0:
192,192,184440,128,0,184530:0:0:0:0:
64,192,184530,128,0,184620:0:0:0:0:
448,192,184620,128,0,184711:0:0:0:0:
320,192,184711,128,0,184801:0:0:0:0:
192,192,184801,128,0,184891:0:0:0:0:
64,192,184891,128,0,184982:0:0:0:0:
448,192,184982,128,0,185072:0:0:0:0:
192,192,185072,128,0,185163:0:0:0:0:
320,192,185163,128,0,185253:0:0:0:0:
448,192,185253,128,0,185343:0:0:0:0:
64,192,185343,128,0,185434:0:0:0:0:
192,192,185434,128,0,185524:0:0:0:0:
320,192,185524,128,0,185614:0:0:0:0:
448,192,185614,128,0,185705:0:0:0:0:
64,192,185705,128,0,185795:0:0:0:0:
192,192,185795,1,0,0:0:0:0:
448,192,185976,1,0,0:0:0:0:
320,192,186066,128,0,186157:0:0:0:0:
192,192,186157,128,0,186247:0:0:0:0:
64,192,186247,128,0,186337:0:0:0:0:
448,192,186337,128,0,186428:0:0:0:0:
192,192,186428,128,0,186518:0:0:0:0:
64,192,186518,128,0,186608:0:0:0:0:
320,192,186608,128,0,186699:0:0:0:0:
448,192,186699,128,0,186789:0:0:0:0:
192,192,186789,128,0,186879:0:0:0:0:
320,192,186879,128,0,186970:0:0:0:0:
448,192,186970,128,0,187060:0:0:0:0:
64,192,187060,1,0,0:0:0:0:
320,192,187241,1,0,0:0:0:0:
192,192,187422,1,0,0:0:0:0:
320,192,187602,128,0,187693:0:0:0:0:
192,192,187693,128,0,187783:0:0:0:0:
448,192,187783,128,0,187873:0:0:0:0:
64,192,187873,128,0,187964:0:0:0:0:
320,192,187964,128,0,188054:0:0:0:0:
192,192,188054,128,0,188144:0:0:0:0:
64,192,188144,128,0,188235:0:0:0:0:
320,192,188235,128,0,188325:0:0:0:0:
192,192,188325,128,0,188416:0:0:0:0:
448,192,188416,128,0,188506:0:0:0:0:
64,192,188506,1,0,0:0:0:0:
320,192,188687,1,0,0:0:0:0:
192,192,188867,1,0,0:0:0:0:
448,192,189048,128,0,189138:0:0:0:0:
192,192,189138,128,0,189229:0:0:0:0:
320,192,189229,128,0,189319:0:0:0:0:
64,192,189319,128,0,189410:0:0:0:0:
448,192,189410,128,0,189500:0:0:0:0:
320,192,189500,128,0,189590:0:0:0:0:
192,192,189590,128,0,189681:0:0:0:0:
448,192,189681,128,0,189771:0:0:0:0:
64,192,189771,128,0,190855:0:0:0:0:
320,192,189771,128,0,189861:0:0:0:0:
192,192,189861,128,0,189952:0:0:0:0:
448,192,189952,1,0,0:0:0:0:
320,192,190132,1,0,0:0:0:0:
192,192,190313,1,0,0:0:0:0:
448,192,190494,128,0,190584:0:0:0:0:
320,192,190584,128,0,190675:0:0:0:0:
192,192,190675,128,0,190765:0:0:0:0:
320,192,190765,128,0,190855:0:0:0:0:
192,192,190855,128,0,191036:0:0:0:0:
448,192,190855,128,0,191217:0:0:0:0:
64,192,191217,128,0,191578:0:0:0:0:
320,192,191578,128,0,191940:0:0:0:0:
448,192,191940,128,0,192301:0:0:0:0:
64,192,192301,128,0,192482:0:0:0:0:
320,192,192301,128,0,192572:0:0:0:0:
192,192,192572,128,0,192843:0:0:0:0:
64,192,192843,128,0,192934:0:0:0:0:
64,192,193024,128,0,193205:0:0:0:0:
64,192,193566,128,0,193747:0:0:0:0:
192,192,193747,128,0,194018:0:0:0:0:
448,192,193747,128,0,193928:0:0:0:0:
320,192,194018,128,0,194289:0:0:0:0:
448,192,194289,128,0,194379:0:0:0:0:
448,192,194470,128,0,194650:0:0:0:0:
64,192,194831,128,0,195012:0:0:0:0:
448,192,195012,128,0,195102:0:0:0:0:
192,192,195193,128,0,195373:0:0:0:0:
448,192,195193,128,0,195464:0:0:0:0:
320,192,195464,128,0,195735:0:0:0:0:
192,192,195735,128,0,195916:0:0:0:0:
64,192,195916,128,0,196277:0:0:0:0:
192,192,196277,128,0,196638:0:0:0:0:
320,192,196638,128,0,196819:0:0:0:0:
448,192,196638,128,0,197000:0:0:0:0:
64,192,197000,128,0,197361:0:0:0:0:
192,192,197361,128,0,197723:0:0:0:0:
320,192,197723,128,0,198084:0:0:0:0:
64,192,198084,128,0,198265:0:0:0:0:
448,192,198084,128,0,198355:0:0:0:0:
192,192,198355,128,0,198626:0:0:0:0:
448,192,198626,128,0,198807:0:0:0:0:
320,192,198807,128,0,199169:0:0:0:0:
192,192,199169,128,0,199349:0:0:0:0:
448,192,199349,128,0,199440:0:0:0:0:
64,192,199530,128,0,199711:0:0:0:0:
448,192,199530,128,0,199801:0:0:0:0:
320,192,199801,128,0,200072:0:0:0:0:
192,192,200072,128,0,200163:0:0:0:0:
192,192,200253,128,0,200795:0:0:0:0:
448,192,200795,128,0,200885:0:0:0:0:
64,192,200976,128,0,201157:0:0:0:0:
448,192,200976,128,0,201247:0:0:0:0:
192,192,201247,128,0,201428:0:0:0:0:
192,192,201518,128,0,201699:0:0:0:0:
64,192,201699,128,0,202422:0:0:0:0:
320,192,201699,128,0,201879:0:0:0:0:
192,192,202422,1,0,0:0:0:70:ClapHand.wav
448,192,202422,128,0,202783:0:0:0:0:
64,192,202783,1,0,0:0:0:70:ClapHand.wav
192,192,202783,128,0,203144:0:0:0:0:
320,192,203144,128,0,203506:0:0:0:70:ClapHand.wav
448,192,203144,1,0,0:0:0:0:
64,192,203506,1,0,0:0:0:70:ClapHand.wav
448,192,203506,128,0,203867:0:0:0:0:
64,192,203867,1,0,0:0:0:70:ClapHand.wav
320,192,203867,128,0,204138:0:0:0:0:
192,192,204138,128,0,204410:0:0:0:0:
448,192,204229,1,0,0:0:0:70:ClapHand.wav
64,192,204410,128,0,204500:0:0:0:0:
64,192,204590,128,0,204771:0:0:0:70:ClapHand.wav
320,192,204590,1,0,0:0:0:0:
192,192,204952,1,0,0:0:0:70:ClapHand.wav
448,192,204952,1,0,0:0:0:0:
64,192,205132,128,0,205313:0:0:0:0:
192,192,205313,128,0,205584:0:0:0:70:ClapHand.wav
448,192,205313,1,0,0:0:0:0:
320,192,205584,128,0,205855:0:0:0:0:
64,192,205675,1,0,0:0:0:70:ClapHand.wav
448,192,205855,128,0,205946:0:0:0:0:
192,192,206036,1,0,0:0:0:70:ClapHand.wav
448,192,206036,128,0,206217:0:0:0:0:
64,192,206397,128,0,206578:0:0:0:70:ClapHand.wav
320,192,206397,1,0,0:0:0:0:
448,192,206578,128,0,206669:0:0:0:0:
192,192,206759,1,0,0:0:0:70:ClapHand.wav
448,192,206759,128,0,207030:0:0:0:0:
320,192,207030,128,0,207301:0:0:0:0:
64,192,207120,1,0,0:0:0:70:ClapHand.wav
192,192,207301,128,0,207482:0:0:0:0:
64,192,207482,128,0,207843:0:0:0:70:ClapHand.wav
448,192,207482,1,0,0:0:0:0:
192,192,207843,128,0,208205:0:0:0:70:ClapHand.wav
320,192,207843,1,0,0:0:0:0:
320,192,208205,1,0,0:0:0:70:ClapHand.wav
448,192,208205,1,0,0:0:0:0:
64,192,208295,1,0,0:0:0:0:
192,192,208385,1,0,0:0:0:0:
320,192,208476,1,0,0:0:0:0:
64,192,208566,1,0,0:0:0:70:ClapHand.wav
448,192,208566,1,0,0:0:0:0:
192,192,208657,1,0,0:0:0:0:
320,192,208747,1,0,0:0:0:0:
448,192,208837,1,0,0:0:0:0:
64,192,208928,1,0,0:0:0:70:ClapHand.wav
192,192,208928,1,0,0:0:0:0:
448,192,209018,1,0,0:0:0:0:
320,192,209108,1,0,0:0:0:0:
192,192,209199,1,0,0:0:0:0:
64,192,209289,1,0,0:0:0:70:ClapHand.wav
448,192,209289,1,0,0:0:0:0:
320,192,209379,1,0,0:0:0:0:
192,192,209470,1,0,0:0:0:0:
64,192,209560,1,0,0:0:0:0:
320,192,209650,1,0,0:0:0:70:ClapHand.wav
448,192,209650,1,0,0:0:0:0:
192,192,209741,1,0,0:0:0:0:
64,192,209831,1,0,0:0:0:0:
448,192,209922,1,0,0:0:0:0:
192,192,210012,1,0,0:0:0:70:ClapHand.wav
320,192,210012,1,0,0:0:0:0:
64,192,210102,1,0,0:0:0:0:
448,192,210193,1,0,0:0:0:0:
320,192,210283,1,0,0:0:0:0:
64,192,210373,1,0,0:0:0:70:ClapHand.wav
448,192,210373,1,0,0:0:0:0:
192,192,210464,1,0,0:0:0:0:
320,192,210554,1,0,0:0:0:0:
448,192,210554,1,0,0:0:0:0:
64,192,210644,1,0,0:0:0:0:
192,192,210735,1,0,0:0:0:70:ClapHand.wav
320,192,210735,1,0,0:0:0:0:
448,192,210825,1,0,0:0:0:0:
64,192,210916,1,0,0:0:0:0:
192,192,210916,1,0,0:0:0:0:
320,192,211006,1,0,0:0:0:0:
64,192,211096,1,0,0:0:0:70:ClapHand.wav
448,192,211096,1,0,0:0:0:0:
192,192,211187,1,0,0:0:0:0:
64,192,211277,1,0,0:0:0:0:
448,192,211277,1,0,0:0:0:0:
320,192,211367,1,0,0:0:0:0:
192,192,211458,1,0,0:0:0:70:ClapHand.wav
448,192,211458,1,0,0:0:0:0:
64,192,211548,1,0,0:0:0:0:
320,192,211638,1,0,0:0:0:0:
448,192,211638,1,0,0:0:0:0:
192,192,211729,1,0,0:0:0:0:
64,192,211819,1,0,0:0:0:70:ClapHand.wav
448,192,211819,1,0,0:0:0:0:
320,192,211910,1,0,0:0:0:0:
64,192,212000,1,0,0:0:0:0:
192,192,212000,1,0,0:0:0:0:
320,192,212090,1,0,0:0:0:0:
64,192,212181,1,0,0:0:0:70:ClapHand.wav
448,192,212181,1,0,0:0:0:0:
192,192,212271,1,0,0:0:0:0:
320,192,212361,1,0,0:0:0:0:
448,192,212361,1,0,0:0:0:0:
192,192,212452,1,0,0:0:0:0:
64,192,212542,1,4,0:0:0:0:
320,192,212542,1,2,0:0:0:0:
448,192,212542,1,0,0:0:0:0:
448,192,212903,128,0,213265:0:0:0:0:
320,192,213265,128,0,213626:0:0:0:0:
64,192,213626,1,0,0:0:0:70:LR3_Snare FCSRL.wav
192,192,213626,1,0,0:0:0:0:
448,192,213626,1,0,0:0:0:0:
64,192,213988,1,2,0:0:0:0:
320,192,213988,1,4,0:0:0:0:
448,192,213988,128,0,214349:0:0:0:0:
64,192,214349,128,0,214711:0:0:0:70:ClapHand.wav
192,192,214349,1,0,0:0:0:0:
192,192,214711,128,0,215072:0:0:0:70:ClapHand.wav
320,192,214711,1,0,0:0:0:0:
64,192,215072,1,0,0:0:0:70:ClapHand.wav
320,192,215072,128,0,215253:0:0:0:0:
448,192,215253,128,0,215434:0:0:0:0:
64,192,215434,128,4,215705:0:0:0:0:
192,192,215434,1,2,0:0:0:0:
320,192,215434,1,0,0:0:0:70:ClapHand.wav
192,192,215705,128,0,215976:0:0:0:0:
448,192,215795,1,0,0:0:0:70:ClapHand.wav
320,192,215976,128,0,216157:0:0:0:0:
64,192,216157,1,0,0:0:0:70:ClapHand.wav
448,192,216157,128,0,216337:0:0:0:0:
64,192,216518,128,0,216578:0:0:0:70:ClapHand.wav
320,192,216518,1,0,0:0:0:0:
192,192,216578,128,0,216638:0:0:0:0:
448,192,216638,128,0,216699:0:0:0:0:
320,192,216699,128,0,216759:0:0:0:0:
192,192,216759,128,0,216819:0:0:0:0:
64,192,216819,128,0,216879:0:0:0:0:
320,192,216879,128,4,217150:0:0:0:0:
448,192,216879,128,2,217964:0:0:0:0:
64,192,217150,128,0,217422:0:0:0:0:
320,192,217241,1,0,0:0:0:70:ClapHand.wav
192,192,217422,128,0,217512:0:0:0:0:
64,192,217602,1,0,0:0:0:70:ClapHand.wav
192,192,217602,128,0,217964:0:0:0:0:
64,192,217964,1,0,0:0:0:70:ClapHand.wav
320,192,217964,128,0,218144:0:0:0:0:
64,192,218144,128,4,218325:0:0:0:0:
192,192,218144,1,2,0:0:0:0:
448,192,218144,1,0,0:0:0:0:
192,192,218325,128,0,218596:0:0:0:70:ClapHand.wav
320,192,218325,1,0,0:0:0:0:
320,192,218596,128,0,218867:0:0:0:0:
64,192,218687,1,0,0:0:0:70:ClapHand.wav
448,192,218867,128,0,219048:0:0:0:0:
64,192,219048,1,0,0:0:0:70:ClapHand.wav
192,192,219048,128,0,219410:0:0:0:0:
320,192,219410,128,0,219590:0:0:0:0:
448,192,219410,1,0,0:0:0:0:
64,192,219771,1,4,0:0:0:0:
192,192,219771,1,2,0:0:0:0:
448,192,219771,128,0,220132:0:0:0:0:
64,192,220132,128,0,220494:0:0:0:70:ClapHand.wav
320,192,220132,1,0,0:0:0:0:
192,192,220494,128,0,220855:0:0:0:70:ClapHand.wav
448,192,220494,1,0,0:0:0:0:
64,192,220855,1,0,0:0:0:70:ClapHand.wav
320,192,220855,128,0,221036:0:0:0:0:
192,192,221036,128,0,221217:0:0:0:0:
64,192,221217,1,4,0:0:0:0:
320,192,221217,1,2,0:0:0:0:
448,192,221217,128,0,221488:0:0:0:70:ClapHand.wav
64,192,221488,128,0,221759:0:0:0:0:
320,192,221578,1,0,0:0:0:70:ClapHand.wav
448,192,221759,128,0,221940:0:0:0:0:
192,192,221940,1,0,0:0:0:70:ClapHand.wav
320,192,221940,128,0,222120:0:0:0:0:
64,192,222301,128,0,222482:0:0:0:70:ClapHand.wav
192,192,222301,1,0,0:0:0:0:
448,192,222482,128,0,222663:0:0:0:0:
64,192,222663,1,2,0:0:0:0:
192,192,222663,1,4,0:0:0:0:
320,192,222663,128,0,222934:0:0:0:0:
192,192,222934,128,0,223205:0:0:0:0:
448,192,223024,1,0,0:0:0:70:ClapHand.wav
64,192,223205,128,0,223385:0:0:0:0:
320,192,223385,1,0,0:0:0:70:ClapHand.wav
448,192,223385,128,0,223747:0:0:0:0:
192,192,223747,1,0,0:0:0:70:ClapHand.wav
320,192,223747,128,0,224108:0:0:0:0:
64,192,223928,1,4,0:0:0:0:
448,192,223928,1,2,0:0:0:0:
64,192,224108,1,0,0:0:0:70:ClapHand.wav
192,192,224108,128,0,224379:0:0:0:0:
320,192,224379,128,0,224650:0:0:0:0:
64,192,224470,1,0,0:0:0:70:ClapHand.wav
448,192,224650,128,0,224831:0:0:0:0:
64,192,224831,128,0,225193:0:0:0:70:ClapHand.wav
192,192,224831,1,0,0:0:0:0:
448,192,225193,128,0,225283:0:0:0:0:
320,192,225283,128,0,225373:0:0:0:0:
192,192,225373,128,0,225464:0:0:0:0:
64,192,225464,128,0,225554:0:0:0:0:
192,192,225554,1,2,0:0:0:0:
320,192,225554,1,4,0:0:0:0:
448,192,225554,128,8,225916:0:0:0:0:
192,192,225735,1,0,0:0:0:0:
64,192,225916,1,2,0:0:0:0:
192,192,225916,128,8,226277:0:0:0:0:
320,192,225916,1,0,0:0:0:0:
448,192,226096,1,0,0:0:0:0:
64,192,226277,1,2,0:0:0:0:
320,192,226277,128,8,226638:0:0:0:0:
448,192,226277,1,0,0:0:0:0:
192,192,226458,1,0,0:0:0:0:
64,192,226638,128,2,226819:0:0:0:0:
192,192,226638,1,8,0:0:0:0:
448,192,226638,1,0,0:0:0:0:
448,192,226819,128,0,227000:0:0:0:0:
64,192,227000,1,2,0:0:0:0:
192,192,227000,1,4,0:0:0:0:
320,192,227000,128,8,227271:0:0:0:0:
448,192,227181,1,0,0:0:0:0:
192,192,227271,128,0,227542:0:0:0:0:
64,192,227361,1,2,0:0:0:0:
320,192,227361,1,8,0:0:0:0:
448,192,227542,128,0,227723:0:0:0:0:
64,192,227723,128,2,228084:0:0:0:0:
192,192,227723,1,8,0:0:0:0:
320,192,227723,1,0,0:0:0:0:
448,192,227903,1,0,0:0:0:0:
192,192,228084,1,2,0:0:0:0:
320,192,228084,1,8,0:0:0:0:
448,192,228084,1,0,0:0:0:0:
64,192,228265,128,0,228446:0:0:0:0:
192,192,228446,128,2,228717:0:0:0:0:
320,192,228446,1,4,0:0:0:0:
448,192,228446,1,8,0:0:0:0:
448,192,228626,1,8,0:0:0:0:
320,192,228717,128,0,228988:0:0:0:0:
64,192,228807,1,10,0:0:0:0:
192,192,228988,1,8,0:0:0:0:
448,192,228988,128,0,229169:0:0:0:0:
64,192,229169,128,2,229349:0:0:0:0:
192,192,229169,1,8,0:0:0:0:
320,192,229349,1,8,0:0:0:0:
448,192,229349,1,0,0:0:0:0:
64,192,229530,1,2,0:0:0:0:
192,192,229530,128,8,229711:0:0:0:0:
320,192,229711,1,8,0:0:0:0:
448,192,229711,128,0,229891:0:0:0:0:
64,192,229891,1,2,0:0:0:0:
192,192,229891,1,4,0:0:0:0:
320,192,229891,128,8,230163:0:0:0:0:
448,192,230072,1,8,0:0:0:0:
192,192,230163,128,0,230434:0:0:0:0:
64,192,230253,1,10,0:0:0:0:
320,192,230434,1,8,0:0:0:0:
448,192,230434,128,0,230614:0:0:0:0:
64,192,230614,128,2,230976:0:0:0:0:
192,192,230614,1,8,0:0:0:0:
448,192,230795,1,8,0:0:0:0:
192,192,230976,128,2,231337:0:0:0:0:
320,192,230976,1,8,0:0:0:0:
64,192,231157,1,2,0:0:0:0:
448,192,231157,1,8,0:0:0:0:
64,192,231337,1,4,0:0:0:0:
320,192,231337,1,2,0:0:0:0:
448,192,231337,1,8,0:0:0:0:
192,192,231428,1,8,0:0:0:0:
64,192,231518,1,2,0:0:0:0:
320,192,231518,1,8,0:0:0:0:
448,192,231608,1,8,0:0:0:0:
64,192,231699,1,2,0:0:0:0:
192,192,231699,1,8,0:0:0:0:
320,192,231789,1,8,0:0:0:0:
192,192,231879,1,2,0:0:0:0:
448,192,231879,1,8,0:0:0:0:
64,192,231970,1,8,0:0:0:0:
192,192,232060,1,2,0:0:0:0:
320,192,232060,1,4,0:0:0:0:
448,192,232060,1,8,0:0:0:0:
64,192,232150,1,8,0:0:0:0:
320,192,232241,1,2,0:0:0:0:
448,192,232241,1,8,0:0:0:0:
192,192,232331,1,8,0:0:0:0:
64,192,232422,1,2,0:0:0:0:
448,192,232422,1,8,0:0:0:0:
320,192,232512,1,8,0:0:0:0:
192,192,232602,1,2,0:0:0:0:
448,192,232602,1,8,0:0:0:0:
64,192,232693,1,8,0:0:0:0:
192,192,232783,1,2,0:0:0:0:
320,192,232783,1,4,0:0:0:0:
448,192,232783,1,8,0:0:0:0:
64,192,232873,1,8,0:0:0:0:
192,192,232964,1,2,0:0:0:0:
320,192,232964,1,8,0:0:0:0:
448,192,233054,1,8,0:0:0:0:
64,192,233144,1,2,0:0:0:0:
192,192,233144,1,8,0:0:0:0:
320,192,233235,1,8,0:0:0:0:
64,192,233325,1,2,0:0:0:0:
448,192,233325,1,8,0:0:0:0:
192,192,233416,1,8,0:0:0:0:
64,192,233506,1,2,0:0:0:0:
320,192,233506,1,4,0:0:0:0:
448,192,233506,1,8,0:0:0:0:
192,192,233596,1,8,0:0:0:0:
64,192,233687,1,2,0:0:0:0:
448,192,233687,1,8,0:0:0:0:
320,192,233777,1,8,0:0:0:0:
192,192,233867,1,2,0:0:0:0:
448,192,233867,1,8,0:0:0:0:
64,192,233958,1,8,0:0:0:0:
320,192,234048,1,2,0:0:0:0:
448,192,234048,1,8,0:0:0:0:
192,192,234138,1,8,0:0:0:0:
320,192,234229,1,2,0:0:0:0:
448,192,234229,1,0,0:0:0:0:
64,192,234319,1,2,0:0:0:0:
192,192,234319,1,0,0:0:0:0:
320,192,234410,1,2,0:0:0:0:
448,192,234410,1,0,0:0:0:0:
64,192,234500,1,2,0:0:0:0:
192,192,234500,1,0,0:0:0:0:
320,192,234590,1,2,0:0:0:0:
448,192,234590,1,0,0:0:0:0:
64,192,234681,1,2,0:0:0:0:
192,192,234681,1,0,0:0:0:0:
320,192,234771,1,2,0:0:0:0:
448,192,234771,1,0,0:0:0:0:
64,192,234861,1,2,0:0:0:0:
192,192,234861,1,0,0:0:0:0:
320,192,234952,1,2,0:0:0:0:
448,192,234952,1,0,0:0:0:0:
64,192,235042,1,2,0:0:0:0:
192,192,235042,1,0,0:0:0:0:
320,192,235132,1,2,0:0:0:0:
448,192,235132,1,0,0:0:0:0:
64,192,235223,1,2,0:0:0:0:
192,192,235223,1,0,0:0:0:0:
320,192,235313,1,2,0:0:0:0:
448,192,235313,1,0,0:0:0:0:
64,192,235403,1,2,0:0:0:0:
192,192,235403,1,0,0:0:0:0:
320,192,235494,1,2,0:0:0:0:
448,192,235494,1,0,0:0:0:0:
64,192,235584,1,2,0:0:0:0:
192,192,235584,1,0,0:0:0:0:
320,192,235675,1,4,0:0:0:0:
448,192,235675,128,2,235765:0:0:0:0:
64,192,235765,128,0,235855:0:0:0:0:
192,192,235855,128,0,235946:0:0:0:0:
320,192,235946,128,0,236036:0:0:0:0:
64,192,236036,128,0,236126:0:0:0:0:
448,192,236036,128,0,236217:0:0:0:0:
192,192,236126,128,0,236217:0:0:0:0:
320,192,236217,128,0,236307:0:0:0:0:
64,192,236307,128,0,236397:0:0:0:0:
192,192,236397,128,0,236578:0:0:0:0:
448,192,236397,128,0,236488:0:0:0:0:
320,192,236488,128,0,236578:0:0:0:0:
64,192,236578,128,0,236669:0:0:0:0:
192,192,236669,128,0,236759:0:0:0:0:
64,192,236759,1,0,0:0:0:70:LR3_Snare LRW.wav
320,192,236759,1,0,0:0:0:0:
448,192,236759,1,0,0:0:0:0:
64,192,237120,1,4,0:0:0:0:
192,192,237120,1,2,0:0:0:0:
320,192,237120,128,0,237482:0:0:0:0:
448,192,237301,1,0,0:0:0:0:
64,192,237482,128,8,237843:0:0:0:0:
192,192,237482,1,0,0:0:0:0:
448,192,237482,1,0,0:0:0:0:
320,192,237663,1,0,0:0:0:0:
192,192,237843,128,2,238205:0:0:0:0:
320,192,237843,1,0,0:0:0:0:
448,192,238024,1,0,0:0:0:0:
64,192,238205,1,8,0:0:0:0:
320,192,238205,1,0,0:0:0:0:
448,192,238205,128,0,238385:0:0:0:0:
64,192,238385,128,0,238566:0:0:0:0:
192,192,238566,1,2,0:0:0:0:
448,192,238566,128,0,238837:0:0:0:0:
192,192,238747,1,0,0:0:0:0:
320,192,238837,128,0,239108:0:0:0:0:
64,192,238928,1,8,0:0:0:0:
448,192,238928,1,0,0:0:0:0:
192,192,239108,128,0,239289:0:0:0:0:
64,192,239289,128,2,239470:0:0:0:0:
448,192,239289,1,0,0:0:0:0:
320,192,239470,1,0,0:0:0:0:
192,192,239650,1,8,0:0:0:0:
320,192,239650,1,0,0:0:0:0:
448,192,239650,1,0,0:0:0:0:
64,192,239831,128,0,240012:0:0:0:0:
192,192,240012,128,2,240283:0:0:0:0:
448,192,240012,1,0,0:0:0:0:
448,192,240193,1,0,0:0:0:0:
320,192,240283,128,0,240554:0:0:0:0:
64,192,240373,1,8,0:0:0:0:
192,192,240373,1,0,0:0:0:0:
448,192,240554,128,0,240644:0:0:0:0:
192,192,240735,1,2,0:0:0:0:
448,192,240735,128,0,240916:0:0:0:0:
64,192,240916,1,0,0:0:0:0:
192,192,241096,128,8,241277:0:0:0:0:
320,192,241096,1,0,0:0:0:0:
448,192,241096,1,0,0:0:0:0:
64,192,241277,128,0,241458:0:0:0:0:
320,192,241458,1,2,0:0:0:0:
448,192,241458,128,0,241729:0:0:0:0:
192,192,241638,1,0,0:0:0:0:
320,192,241729,128,0,242000:0:0:0:0:
64,192,241819,1,8,0:0:0:0:
448,192,241819,1,0,0:0:0:0:
192,192,242000,128,0,242181:0:0:0:0:
64,192,242181,128,2,242542:0:0:0:0:
448,192,242181,1,0,0:0:0:0:
320,192,242361,1,0,0:0:0:0:
192,192,242542,1,8,0:0:0:0:
320,192,242542,1,0,0:0:0:0:
448,192,242542,128,0,242723:0:0:0:0:
192,192,242723,1,0,0:0:0:0:
64,192,242903,1,2,0:0:0:0:
320,192,242903,128,0,243265:0:0:0:0:
192,192,243084,1,0,0:0:0:0:
64,192,243265,128,8,243626:0:0:0:0:
192,192,243265,1,0,0:0:0:0:
448,192,243265,1,0,0:0:0:0:
320,192,243446,1,0,0:0:0:0:
192,192,243626,128,2,243988:0:0:0:0:
448,192,243626,1,0,0:0:0:0:
320,192,243807,1,0,0:0:0:0:
64,192,243988,1,8,0:0:0:0:
320,192,243988,128,0,244169:0:0:0:0:
448,192,243988,1,0,0:0:0:0:
192,192,244169,128,0,244349:0:0:0:0:
320,192,244349,1,2,0:0:0:0:
448,192,244349,128,0,244620:0:0:0:0:
192,192,244530,1,0,0:0:0:0:
64,192,244620,128,0,244891:0:0:0:0:
192,192,244711,1,8,0:0:0:0:
320,192,244711,1,0,0:0:0:0:
448,192,244891,128,0,245072:0:0:0:0:
192,192,245072,128,2,245253:0:0:0:0:
320,192,245072,1,0,0:0:0:0:
448,192,245253,1,0,0:0:0:0:
64,192,245434,128,8,245614:0:0:0:0:
320,192,245434,1,0,0:0:0:0:
448,192,245434,1,0,0:0:0:0:
192,192,245614,128,0,245795:0:0:0:0:
64,192,245795,1,2,0:0:0:0:
320,192,245795,128,0,246066:0:0:0:0:
192,192,245976,1,0,0:0:0:0:
448,192,246066,128,0,246337:0:0:0:0:
64,192,246157,1,8,0:0:0:0:
320,192,246157,1,0,0:0:0:0:
192,192,246337,128,0,246518:0:0:0:0:
64,192,246518,128,2,246879:0:0:0:0:
320,192,246518,1,0,0:0:0:0:
448,192,246699,1,0,0:0:0:0:
192,192,246879,128,8,247060:0:0:0:0:
320,192,246879,1,0,0:0:0:0:
448,192,246879,1,0,0:0:0:0:
320,192,247060,128,0,247241:0:0:0:0:
64,192,247241,128,2,247512:0:0:0:0:
192,192,247241,1,4,0:0:0:0:
448,192,247241,1,0,0:0:0:0:
320,192,247422,1,0,0:0:0:0:
192,192,247512,128,2,247783:0:0:0:0:
448,192,247512,1,4,0:0:0:0:
320,192,247602,1,8,0:0:0:0:
64,192,247783,128,2,247964:0:0:0:0:
320,192,247783,1,4,0:0:0:0:
448,192,247783,1,0,0:0:0:0:
448,192,247964,128,0,248325:0:0:0:0:
64,192,248144,1,2,0:0:0:0:
192,192,248144,1,0,0:0:0:0:
64,192,248325,128,0,248385:0:0:0:70:LR3_Snare FCSRL.wav
320,192,248325,1,0,0:0:0:0:
192,192,248385,128,0,248446:0:0:0:0:
320,192,248446,128,0,248506:0:0:0:0:
448,192,248506,128,0,248566:0:0:0:0:
64,192,248566,128,0,248626:0:0:0:0:
192,192,248626,128,0,248687:0:0:0:0:
320,192,248687,1,4,0:0:0:0:
448,192,248687,128,2,249048:0:0:0:0:
192,192,248867,1,0,0:0:0:0:
64,192,249048,128,8,249410:0:0:0:0:
192,192,249048,1,0,0:0:0:0:
320,192,249048,1,0,0:0:0:0:
448,192,249229,1,0,0:0:0:0:
192,192,249410,128,2,249771:0:0:0:0:
448,192,249410,1,0,0:0:0:0:
64,192,249590,1,0,0:0:0:0:
64,192,249771,1,8,0:0:0:0:
320,192,249771,1,0,0:0:0:0:
448,192,249771,128,0,249952:0:0:0:0:
320,192,249952,128,0,250132:0:0:0:0:
64,192,250132,1,2,0:0:0:0:
192,192,250132,128,0,250403:0:0:0:0:
448,192,250313,1,0,0:0:0:0:
64,192,250403,128,0,250675:0:0:0:0:
320,192,250494,1,8,0:0:0:0:
448,192,250494,1,0,0:0:0:0:
192,192,250675,128,0,250855:0:0:0:0:
320,192,250855,128,2,251036:0:0:0:0:
448,192,250855,1,0,0:0:0:0:
192,192,251036,1,0,0:0:0:0:
64,192,251217,1,8,0:0:0:0:
320,192,251217,1,0,0:0:0:0:
448,192,251217,1,0,0:0:0:0:
192,192,251397,128,0,251578:0:0:0:0:
64,192,251578,1,2,0:0:0:0:
320,192,251578,128,0,251849:0:0:0:0:
192,192,251759,1,0,0:0:0:0:
448,192,251849,128,0,252120:0:0:0:0:
64,192,251940,1,8,0:0:0:0:
192,192,251940,1,0,0:0:0:0:
320,192,252120,128,0,252301:0:0:0:0:
64,192,252301,1,2,0:0:0:0:
448,192,252301,128,0,252482:0:0:0:0:
192,192,252482,1,0,0:0:0:0:
64,192,252663,1,8,0:0:0:0:
320,192,252663,128,0,252843:0:0:0:0:
448,192,252663,1,0,0:0:0:0:
192,192,252843,128,0,253024:0:0:0:0:
64,192,253024,128,2,253295:0:0:0:0:
448,192,253024,1,0,0:0:0:0:
320,192,253205,1,0,0:0:0:0:
448,192,253295,128,0,253566:0:0:0:0:
192,192,253385,1,8,0:0:0:0:
320,192,253385,1,0,0:0:0:0:
64,192,253566,128,0,253747:0:0:0:0:
192,192,253747,128,2,254108:0:0:0:0:
448,192,253747,1,0,0:0:0:0:
320,192,253928,1,0,0:0:0:0:
64,192,254108,1,8,0:0:0:0:
320,192,254108,128,0,254289:0:0:0:0:
448,192,254108,1,0,0:0:0:0:
192,192,254289,1,0,0:0:0:0:
64,192,254470,1,2,0:0:0:0:
448,192,254470,128,0,254831:0:0:0:0:
320,192,254650,1,0,0:0:0:0:
64,192,254831,128,8,255193:0:0:0:0:
192,192,254831,1,0,0:0:0:0:
320,192,254831,1,0,0:0:0:0:
192,192,255012,1,0,0:0:0:0:
320,192,255193,128,2,255554:0:0:0:0:
448,192,255193,1,0,0:0:0:0:
192,192,255373,1,0,0:0:0:0:
64,192,255554,128,8,255735:0:0:0:0:
192,192,255554,1,0,0:0:0:0:
448,192,255554,1,0,0:0:0:0:
192,192,255735,128,0,255916:0:0:0:0:
320,192,255916,128,2,256187:0:0:0:0:
448,192,255916,1,0,0:0:0:0:
192,192,256096,1,0,0:0:0:0:
64,192,256187,128,0,256458:0:0:0:0:
192,192,256277,1,8,0:0:0:0:
320,192,256277,1,0,0:0:0:0:
448,192,256458,128,0,256638:0:0:0:0:
192,192,256638,128,2,256819:0:0:0:0:
320,192,256638,1,0,0:0:0:0:
448,192,256819,1,0,0:0:0:0:
64,192,257000,1,8,0:0:0:0:
192,192,257000,1,0,0:0:0:0:
320,192,257000,128,0,257181:0:0:0:0:
448,192,257181,128,0,257361:0:0:0:0:
64,192,257361,128,2,257632:0:0:0:0:
192,192,257361,1,4,0:0:0:0:
320,192,257361,1,0,0:0:0:0:
320,192,257542,1,0,0:0:0:0:
448,192,257632,128,0,257903:0:0:0:0:
64,192,257723,1,8,0:0:0:0:
192,192,257723,1,0,0:0:0:0:
64,192,257903,1,2,0:0:0:0:
192,192,257903,1,4,0:0:0:0:
320,192,257903,128,0,258084:0:0:0:0:
192,192,258084,128,0,258265:0:0:0:0:
64,192,258265,1,0,0:0:0:0:
448,192,258265,1,0,0:0:0:0:
192,192,258446,1,8,0:0:0:0:
320,192,258446,1,0,0:0:0:0:
448,192,258446,1,0,0:0:0:0:
64,192,258626,128,0,258807:0:0:0:0:
192,192,258807,128,4,259078:0:0:0:0:
320,192,258807,1,2,0:0:0:0:
448,192,258807,1,0,0:0:0:0:
448,192,258988,1,2,0:0:0:0:
320,192,259078,128,2,259349:0:0:0:0:
64,192,259169,1,2,0:0:0:0:
192,192,259259,1,2,0:0:0:0:
448,192,259349,128,2,259530:0:0:0:0:
192,192,259440,1,2,0:0:0:0:
64,192,259530,128,2,259801:0:0:0:0:
320,192,259620,1,2,0:0:0:0:
448,192,259711,1,2,0:0:0:0:
192,192,259801,128,2,260072:0:0:0:0:
448,192,259891,1,0,0:0:0:0:
64,192,259982,1,0,0:0:0:0:
320,192,260072,128,0,260253:0:0:0:0:
64,192,260163,1,0,0:0:0:0:
192,192,260253,1,2,0:0:0:0:
448,192,260253,128,4,263144:0:0:0:0:
320,192,260434,1,0,0:0:0:0:
64,192,260614,1,8,0:0:0:0:
192,192,260614,1,0,0:0:0:0:
320,192,260614,1,0,0:0:0:0:
192,192,260795,1,0,0:0:0:0:
64,192,260976,1,2,0:0:0:0:
192,192,260976,1,0,0:0:0:0:
64,192,261157,1,0,0:0:0:0:
64,192,261337,1,8,0:0:0:0:
192,192,261337,1,0,0:0:0:0:
320,192,261337,1,0,0:0:0:0:
192,192,261518,1,0,0:0:0:0:
192,192,261699,1,2,0:0:0:0:
320,192,261699,1,0,0:0:0:0:
320,192,261879,1,0,0:0:0:0:
64,192,262060,1,8,0:0:0:0:
192,192,262060,1,0,0:0:0:0:
320,192,262060,1,0,0:0:0:0:
64,192,262241,1,0,0:0:0:0:
64,192,262422,1,2,0:0:0:0:
192,192,262422,1,0,0:0:0:0:
192,192,262602,1,0,0:0:0:0:
64,192,262783,1,8,0:0:0:0:
192,192,262783,1,0,0:0:0:0:
320,192,262783,1,0,0:0:0:0:
320,192,262964,1,0,0:0:0:0:
64,192,263144,1,2,0:0:0:0:
320,192,263144,1,0,0:0:0:0:
192,192,263325,1,0,0:0:0:0:
64,192,263506,1,8,0:0:0:0:
320,192,263506,1,0,0:0:0:0:
448,192,263506,1,0,0:0:0:0:
448,192,263687,1,0,0:0:0:0:
192,192,263867,1,2,0:0:0:0:
320,192,263867,1,0,0:0:0:0:
320,192,264048,1,0,0:0:0:0:
64,192,264229,1,8,0:0:0:0:
192,192,264229,1,0,0:0:0:0:
448,192,264229,1,0,0:0:0:0:
64,192,264410,1,0,0:0:0:0:
320,192,264590,1,2,0:0:0:0:
448,192,264590,1,0,0:0:0:0:
448,192,264771,1,0,0:0:0:0:
64,192,264952,1,8,0:0:0:0:
192,192,264952,1,0,0:0:0:0:
320,192,264952,1,0,0:0:0:0:
320,192,265132,1,0,0:0:0:0:
64,192,265313,1,2,0:0:0:0:
448,192,265313,1,0,0:0:0:0:
64,192,265494,1,0,0:0:0:0:
192,192,265675,1,8,0:0:0:0:
320,192,265675,1,0,0:0:0:0:
448,192,265675,1,0,0:0:0:0:
448,192,265855,1,0,0:0:0:0:
64,192,266036,1,2,0:0:0:0:
192,192,266036,1,0,0:0:0:0:
192,192,266217,1,0,0:0:0:0:
64,192,266397,1,8,0:0:0:0:
320,192,266397,1,0,0:0:0:0:
448,192,266397,1,0,0:0:0:0:
448,192,266578,1,0,0:0:0:0:
192,192,266759,1,2,0:0:0:0:
320,192,266759,1,0,0:0:0:0:
320,192,266940,1,0,0:0:0:0:
64,192,267120,1,8,0:0:0:0:
192,192,267120,1,0,0:0:0:0:
448,192,267120,1,0,0:0:0:0:
192,192,267301,1,0,0:0:0:0:
64,192,267482,1,2,0:0:0:0:
320,192,267482,1,0,0:0:0:0:
64,192,267663,1,0,0:0:0:0:
192,192,267843,1,8,0:0:0:0:
320,192,267843,1,0,0:0:0:0:
448,192,267843,1,0,0:0:0:0:
192,192,268024,1,0,0:0:0:0:
64,192,268205,1,2,0:0:0:0:
448,192,268205,1,0,0:0:0:0:
448,192,268385,1,0,0:0:0:0:
64,192,268566,1,8,0:0:0:0:
192,192,268566,1,0,0:0:0:0:
320,192,268566,1,0,0:0:0:0:
64,192,268747,1,0,0:0:0:0:
320,192,268928,1,2,0:0:0:0:
448,192,268928,1,0,0:0:0:0:
320,192,269108,1,0,0:0:0:0:
64,192,269289,1,8,0:0:0:0:
192,192,269289,1,0,0:0:0:0:
448,192,269289,1,0,0:0:0:0:
192,192,269470,1,0,0:0:0:0:
64,192,269650,1,2,0:0:0:0:
320,192,269650,1,0,0:0:0:0:
64,192,269831,1,0,0:0:0:0:
192,192,270012,1,8,0:0:0:0:
320,192,270012,1,0,0:0:0:0:
448,192,270012,1,0,0:0:0:0:
448,192,270193,1,0,0:0:0:0:
64,192,270373,1,2,0:0:0:0:
320,192,270373,1,4,0:0:0:0:
192,192,270554,1,0,0:0:0:0:
64,192,270644,1,2,0:0:0:0:
448,192,270644,1,4,0:0:0:0:
192,192,270735,1,8,0:0:0:0:
320,192,270735,1,0,0:0:0:0:
64,192,270916,1,4,0:0:0:0:
192,192,270916,1,2,0:0:0:0:
448,192,270916,1,0,0:0:0:0:
192,192,271277,1,2,0:0:0:0:
320,192,271277,1,0,0:0:0:0:
64,192,271458,128,0,271518:0:0:0:70:LR3_Snare FCSRL.wav
320,192,271458,1,0,0:0:0:0:
448,192,271458,1,0,0:0:0:0:
192,192,271518,128,0,271578:0:0:0:0:
320,192,271578,128,0,271638:0:0:0:0:
64,192,271638,128,0,271699:0:0:0:0:
192,192,271699,128,0,271759:0:0:0:0:
320,192,271759,128,0,271819:0:0:0:0:
64,192,271819,1,4,0:0:0:0:
448,192,271819,1,2,0:0:0:0:
192,192,272000,1,0,0:0:0:0:
64,192,272181,1,8,0:0:0:0:
320,192,272181,1,0,0:0:0:0:
448,192,272181,1,0,0:0:0:0:
320,192,272361,1,0,0:0:0:0:
64,192,272542,1,2,0:0:0:0:
448,192,272542,1,0,0:0:0:0:
320,192,272723,1,0,0:0:0:0:
64,192,272903,1,8,0:0:0:0:
192,192,272903,1,0,0:0:0:0:
448,192,272903,1,0,0:0:0:0:
192,192,273084,1,0,0:0:0:0:
64,192,273265,1,2,0:0:0:0:
320,192,273265,1,0,0:0:0:0:
448,192,273446,1,0,0:0:0:0:
64,192,273626,1,8,0:0:0:0:
192,192,273626,1,0,0:0:0:0:
448,192,273626,1,0,0:0:0:0:
320,192,273807,1,0,0:0:0:0:
192,192,273988,1,2,0:0:0:0:
320,192,273988,1,0,0:0:0:0:
64,192,274169,1,0,0:0:0:0:
64,192,274349,1,8,0:0:0:0:
192,192,274349,1,0,0:0:0:0:
448,192,274349,1,0,0:0:0:0:
320,192,274530,1,0,0:0:0:0:
64,192,274711,1,2,0:0:0:0:
192,192,274711,1,0,0:0:0:0:
448,192,274891,1,0,0:0:0:0:
64,192,275072,1,8,0:0:0:0:
192,192,275072,1,0,0:0:0:0:
320,192,275072,1,0,0:0:0:0:
448,192,275253,1,0,0:0:0:0:
192,192,275434,1,2,0:0:0:0:
320,192,275434,1,0,0:0:0:0:
64,192,275614,1,0,0:0:0:0:
192,192,275795,1,8,0:0:0:0:
320,192,275795,1,0,0:0:0:0:
448,192,275795,1,0,0:0:0:0:
64,192,275976,1,0,0:0:0:0:
320,192,276157,1,2,0:0:0:0:
448,192,276157,1,0,0:0:0:0:
192,192,276337,1,0,0:0:0:0:
64,192,276518,1,8,0:0:0:0:
320,192,276518,1,0,0:0:0:0:
448,192,276518,1,0,0:0:0:0:
192,192,276699,1,0,0:0:0:0:
64,192,276879,1,2,0:0:0:0:
320,192,276879,1,0,0:0:0:0:
448,192,277060,1,0,0:0:0:0:
64,192,277241,1,8,0:0:0:0:
192,192,277241,1,0,0:0:0:0:
320,192,277241,1,0,0:0:0:0:
320,192,277422,1,0,0:0:0:0:
64,192,277602,1,2,0:0:0:0:
192,192,277602,1,4,0:0:0:0:
448,192,277602,128,0,277964:0:0:0:0:
320,192,277783,1,0,0:0:0:0:
64,192,277964,128,8,278325:0:0:0:0:
192,192,277964,1,0,0:0:0:0:
320,192,277964,1,0,0:0:0:0:
448,192,278144,1,0,0:0:0:0:
192,192,278325,128,2,278687:0:0:0:0:
320,192,278325,1,4,0:0:0:0:
448,192,278325,1,0,0:0:0:0:
64,192,278506,1,0,0:0:0:0:
64,192,278687,1,8,0:0:0:0:
320,192,278687,128,0,278867:0:0:0:0:
448,192,278687,1,0,0:0:0:0:
64,192,278867,1,2,0:0:0:0:
192,192,278867,1,4,0:0:0:0:
448,192,278867,128,0,279229:0:0:0:0:
64,192,279229,128,2,279590:0:0:0:0:
192,192,279229,1,4,0:0:0:0:
320,192,279229,1,0,0:0:0:0:
192,192,279590,1,2,0:0:0:0:
320,192,279590,1,4,0:0:0:0:
448,192,279590,128,0,279771:0:0:0:0:
64,192,279771,1,4,0:0:0:0:
192,192,279771,1,2,0:0:0:0:
320,192,279771,128,0,279952:0:0:0:0:
192,192,279952,1,0,0:0:0:0:
64,192,280042,128,4,280313:0:0:0:0:
320,192,280042,1,2,0:0:0:0:
448,192,280042,1,0,0:0:0:0:
192,192,280313,1,2,0:0:0:0:
320,192,280313,1,4,0:0:0:0:
448,192,280313,128,0,281578:0:0:0:0:
64,192,281759,128,0,281849:0:0:0:0:
64,192,281940,128,2,282211:0:0:0:0:
192,192,281940,1,4,0:0:0:0:
448,192,281940,1,0,0:0:0:0:
192,192,282211,128,0,282391:0:0:0:0:
192,192,282482,128,0,282572:0:0:0:0:
192,192,282663,128,0,282934:0:0:0:0:
448,192,282934,128,0,283205:0:0:0:0:
64,192,283024,128,0,283084:0:0:0:70:LR3_Snare FCSRL.wav
320,192,283024,1,0,0:0:0:0:
192,192,283084,128,0,283144:0:0:0:0:
320,192,283144,128,0,283205:0:0:0:0:
64,192,283205,128,0,283385:0:0:0:0:
192,192,283205,128,0,283265:0:0:0:0:
320,192,283265,128,0,283325:0:0:0:0:
448,192,283325,128,0,283385:0:0:0:0:
192,192,283385,128,2,284831:0:0:0:0:
320,192,283385,128,4,283657:0:0:0:0:
64,192,283566,1,0,0:0:0:0:
448,192,283657,128,0,283928:0:0:0:0:
64,192,283747,1,8,0:0:0:0:
64,192,283928,128,0,284470:0:0:0:0:
320,192,284108,1,2,0:0:0:0:
448,192,284289,1,0,0:0:0:0:
320,192,284470,1,8,0:0:0:0:
448,192,284470,1,0,0:0:0:0:
448,192,284650,128,0,284741:0:0:0:0:
64,192,284741,128,0,284831:0:0:0:0:
320,192,284831,128,2,285102:0:0:0:0:
448,192,284831,1,0,0:0:0:0:
192,192,285012,1,0,0:0:0:0:
448,192,285102,128,0,285373:0:0:0:0:
64,192,285193,1,8,0:0:0:0:
192,192,285193,1,0,0:0:0:0:
64,192,285373,128,0,285916:0:0:0:0:
192,192,285554,1,2,0:0:0:0:
320,192,285554,1,0,0:0:0:0:
448,192,285735,1,0,0:0:0:0:
192,192,285916,1,8,0:0:0:0:
320,192,285916,1,0,0:0:0:0:
448,192,285916,1,0,0:0:0:0:
192,192,286096,128,0,286187:0:0:0:0:
320,192,286187,128,0,286277:0:0:0:0:
64,192,286277,1,2,0:0:0:0:
448,192,286277,128,0,286548:0:0:0:0:
192,192,286458,1,0,0:0:0:0:
64,192,286548,128,0,286819:0:0:0:0:
320,192,286638,1,8,0:0:0:0:
448,192,286638,1,0,0:0:0:0:
192,192,286819,128,0,287361:0:0:0:0:
64,192,287000,1,2,0:0:0:0:
320,192,287000,1,0,0:0:0:0:
448,192,287181,1,0,0:0:0:0:
64,192,287361,1,8,0:0:0:0:
320,192,287361,1,0,0:0:0:0:
448,192,287361,1,0,0:0:0:0:
64,192,287542,128,0,287632:0:0:0:0:
192,192,287632,128,0,287723:0:0:0:0:
64,192,287723,1,2,0:0:0:0:
448,192,287723,128,0,287903:0:0:0:0:
320,192,287903,128,0,288084:0:0:0:0:
64,192,288084,1,8,0:0:0:0:
192,192,288084,128,0,288265:0:0:0:0:
448,192,288084,1,0,0:0:0:0:
64,192,288265,128,0,288807:0:0:0:0:
192,192,288446,1,2,0:0:0:0:
320,192,288446,1,0,0:0:0:0:
448,192,288626,1,0,0:0:0:0:
192,192,288807,1,8,0:0:0:0:
320,192,288807,128,0,288867:0:0:0:0:
448,192,288867,128,0,288928:0:0:0:0:
64,192,288928,128,0,288988:0:0:0:0:
192,192,288988,128,0,289048:0:0:0:0:
320,192,289048,128,0,289108:0:0:0:0:
448,192,289108,128,0,289169:0:0:0:0:
64,192,289169,1,2,0:0:0:0:
192,192,289169,128,0,289440:0:0:0:0:
448,192,289349,1,0,0:0:0:0:
320,192,289440,128,0,289711:0:0:0:0:
64,192,289530,1,8,0:0:0:0:
448,192,289530,1,0,0:0:0:0:
64,192,289711,128,0,290253:0:0:0:0:
192,192,289891,1,2,0:0:0:0:
448,192,289891,1,0,0:0:0:0:
320,192,290072,1,0,0:0:0:0:
192,192,290253,1,8,0:0:0:0:
320,192,290253,1,0,0:0:0:0:
448,192,290253,1,0,0:0:0:0:
64,192,290434,128,0,290524:0:0:0:0:
192,192,290524,128,0,290614:0:0:0:0:
64,192,290614,1,2,0:0:0:0:
320,192,290614,128,0,290885:0:0:0:0:
192,192,290795,1,0,0:0:0:0:
448,192,290885,128,0,291157:0:0:0:0:
64,192,290976,1,8,0:0:0:0:
192,192,290976,1,0,0:0:0:0:
64,192,291157,128,0,291699:0:0:0:0:
192,192,291337,1,2,0:0:0:0:
320,192,291337,1,0,0:0:0:0:
448,192,291518,1,0,0:0:0:0:
192,192,291699,1,8,0:0:0:0:
320,192,291699,1,0,0:0:0:0:
448,192,291699,1,0,0:0:0:0:
192,192,291879,128,0,291970:0:0:0:0:
320,192,291970,128,0,292060:0:0:0:0:
64,192,292060,1,2,0:0:0:0:
448,192,292060,128,0,292331:0:0:0:0:
192,192,292241,1,0,0:0:0:0:
64,192,292331,128,0,292602:0:0:0:0:
192,192,292422,1,8,0:0:0:0:
320,192,292422,1,0,0:0:0:0:
448,192,292602,128,0,293144:0:0:0:0:
192,192,292783,1,2,0:0:0:0:
320,192,292783,1,0,0:0:0:0:
64,192,292964,1,0,0:0:0:0:
64,192,293144,1,8,0:0:0:0:
192,192,293144,1,0,0:0:0:0:
320,192,293144,1,0,0:0:0:0:
64,192,293325,128,0,293416:0:0:0:0:
192,192,293416,128,0,293506:0:0:0:0:
64,192,293506,1,2,0:0:0:0:
320,192,293506,128,4,293687:0:0:0:0:
448,192,293506,1,0,0:0:0:0:
448,192,293687,128,0,293867:0:0:0:0:
64,192,293867,128,8,293958:0:0:0:0:
192,192,293867,1,0,0:0:0:0:
320,192,293867,1,0,0:0:0:0:
448,192,293958,128,0,294048:0:0:0:0:
64,192,294138,128,2,294410:0:0:0:0:
192,192,294138,1,4,0:0:0:0:
320,192,294138,1,0,0:0:0:0:
320,192,294410,128,2,294590:0:0:0:0:
448,192,294410,1,0,0:0:0:0:
64,192,294590,1,0,0:0:0:70:LR3_Snare FCSRL.wav
192,192,294590,1,0,0:0:0:0:
448,192,294590,128,0,294681:0:0:0:0:
320,192,294681,128,0,294771:0:0:0:0:
192,192,294771,128,0,294861:0:0:0:0:
64,192,294952,1,2,0:0:0:0:
320,192,294952,128,4,295223:0:0:0:0:
448,192,294952,1,0,0:0:0:0:
192,192,295132,1,0,0:0:0:0:
448,192,295223,128,0,295494:0:0:0:0:
64,192,295313,1,8,0:0:0:0:
192,192,295313,1,0,0:0:0:0:
64,192,295494,128,0,296036:0:0:0:0:
192,192,295675,1,2,0:0:0:0:
320,192,295675,1,0,0:0:0:0:
448,192,295855,1,0,0:0:0:0:
192,192,296036,1,8,0:0:0:0:
320,192,296036,1,0,0:0:0:0:
448,192,296036,1,0,0:0:0:0:
64,192,296217,128,0,296307:0:0:0:0:
192,192,296307,128,0,296397:0:0:0:0:
320,192,296397,128,2,296669:0:0:0:0:
448,192,296397,1,0,0:0:0:0:
64,192,296578,1,0,0:0:0:0:
448,192,296669,128,0,296940:0:0:0:0:
64,192,296759,1,8,0:0:0:0:
192,192,296759,1,0,0:0:0:0:
64,192,296940,128,0,297482:0:0:0:0:
192,192,297120,1,2,0:0:0:0:
320,192,297120,1,0,0:0:0:0:
448,192,297301,1,0,0:0:0:0:
192,192,297482,1,8,0:0:0:0:
320,192,297482,1,0,0:0:0:0:
448,192,297482,1,0,0:0:0:0:
192,192,297663,128,0,297753:0:0:0:0:
320,192,297753,128,0,297843:0:0:0:0:
64,192,297843,1,2,0:0:0:0:
448,192,297843,128,0,298114:0:0:0:0:
192,192,298024,1,0,0:0:0:0:
64,192,298114,128,0,298385:0:0:0:0:
192,192,298205,1,8,0:0:0:0:
320,192,298205,1,0,0:0:0:0:
320,192,298385,128,0,298928:0:0:0:0:
64,192,298566,1,2,0:0:0:0:
192,192,298566,1,0,0:0:0:0:
448,192,298747,1,0,0:0:0:0:
64,192,298928,1,8,0:0:0:0:
192,192,298928,1,0,0:0:0:0:
448,192,298928,1,0,0:0:0:0:
64,192,299108,128,0,299199:0:0:0:0:
192,192,299199,128,0,299289:0:0:0:0:
64,192,299289,1,2,0:0:0:0:
448,192,299289,128,0,299470:0:0:0:0:
320,192,299470,128,0,299650:0:0:0:0:
64,192,299650,1,8,0:0:0:0:
192,192,299650,128,0,299831:0:0:0:0:
448,192,299650,1,0,0:0:0:0:
64,192,299831,128,0,300373:0:0:0:0:
320,192,300012,1,2,0:0:0:0:
448,192,300012,1,0,0:0:0:0:
320,192,300193,1,0,0:0:0:0:
192,192,300373,128,8,300434:0:0:0:0:
448,192,300373,1,0,0:0:0:0:
320,192,300434,128,0,300494:0:0:0:0:
448,192,300494,128,0,300554:0:0:0:0:
64,192,300554,128,0,300614:0:0:0:0:
192,192,300614,128,0,300675:0:0:0:0:
320,192,300675,128,0,300735:0:0:0:0:
64,192,300735,1,2,0:0:0:0:
448,192,300735,128,4,301006:0:0:0:0:
192,192,300916,1,0,0:0:0:0:
64,192,301006,128,0,301277:0:0:0:0:
320,192,301096,1,8,0:0:0:0:
448,192,301096,1,0,0:0:0:0:
192,192,301277,128,0,301819:0:0:0:0:
64,192,301458,1,2,0:0:0:0:
320,192,301458,1,0,0:0:0:0:
448,192,301638,1,0,0:0:0:0:
64,192,301819,1,8,0:0:0:0:
320,192,301819,1,0,0:0:0:0:
448,192,301819,1,0,0:0:0:0:
64,192,302000,128,0,302090:0:0:0:0:
192,192,302090,128,0,302181:0:0:0:0:
64,192,302181,1,2,0:0:0:0:
320,192,302181,128,4,302452:0:0:0:0:
448,192,302181,1,0,0:0:0:0:
192,192,302361,1,0,0:0:0:0:
448,192,302452,128,0,302723:0:0:0:0:
64,192,302542,1,8,0:0:0:0:
192,192,302542,1,0,0:0:0:0:
64,192,302723,128,0,303265:0:0:0:0:
192,192,302903,1,2,0:0:0:0:
320,192,302903,1,0,0:0:0:0:
448,192,303084,1,0,0:0:0:0:
192,192,303265,1,8,0:0:0:0:
320,192,303265,1,0,0:0:0:0:
448,192,303265,1,0,0:0:0:0:
192,192,303446,128,0,303536:0:0:0:0:
320,192,303536,128,0,303626:0:0:0:0:
64,192,303626,1,2,0:0:0:0:
192,192,303626,1,4,0:0:0:0:
448,192,303626,1,0,0:0:0:0:
320,192,303717,1,0,0:0:0:0:
192,192,303807,1,0,0:0:0:0:
64,192,303897,1,0,0:0:0:0:
192,192,303988,1,8,0:0:0:0:
320,192,303988,1,0,0:0:0:0:
448,192,304078,1,0,0:0:0:0:
64,192,304169,1,0,0:0:0:0:
320,192,304259,1,0,0:0:0:0:
64,192,304349,1,2,0:0:0:0:
192,192,304349,1,4,0:0:0:0:
448,192,304349,1,0,0:0:0:0:
320,192,304440,1,0,0:0:0:0:
448,192,304530,1,0,0:0:0:0:
192,192,304620,1,0,0:0:0:0:
64,192,304711,1,8,0:0:0:0:
448,192,304711,1,0,0:0:0:0:
320,192,304801,1,0,0:0:0:0:
192,192,304891,1,0,0:0:0:0:
64,192,304982,1,0,0:0:0:0:
192,192,305072,1,2,0:0:0:0:
320,192,305072,1,4,0:0:0:0:
448,192,305072,128,0,305253:0:0:0:0:
64,192,305253,128,0,305434:0:0:0:0:
192,192,305434,128,0,305524:0:0:0:0:
320,192,305524,128,0,305614:0:0:0:0:
448,192,305705,128,0,305976:0:0:0:0:
64,192,305976,128,0,306157:0:0:0:0:
320,192,306157,128,0,306247:0:0:0:0:
448,192,306247,128,0,306337:0:0:0:0:
192,192,306337,128,0,306428:0:0:0:0:
64,192,306428,1,0,0:0:0:0:
192,192,306518,1,2,0:0:0:0:
320,192,306518,1,4,0:0:0:0:
448,192,306518,128,0,306608:0:0:0:0:
64,192,306608,128,0,306699:0:0:0:0:
448,192,306699,128,0,306789:0:0:0:0:
64,192,306789,128,0,306879:0:0:0:0:
448,192,306879,128,8,306970:0:0:0:0:
64,192,306970,128,0,307060:0:0:0:0:
192,192,307060,128,2,307422:0:0:0:0:
320,192,307060,1,4,0:0:0:0:
448,192,307060,1,0,0:0:0:0:
448,192,307331,1,0,0:0:0:0:
320,192,307422,1,0,0:0:0:0:
192,192,307512,1,0,0:0:0:0:
64,192,307602,128,2,310855:0:0:0:0:
320,192,307602,1,4,0:0:0:0:
448,192,307602,1,0,0:0:0:0:
448,192,309907,128,0,309974:0:0:0:0:
192,192,309974,128,0,310042:0:0:0:0:
320,192,310042,128,0,310132:0:0:0:0:
448,192,310132,128,0,310855:0:0:0:0:
