osu file format v14

[General]
AudioFilename: audio.mp3
AudioLeadIn: 0
PreviewTime: 186016
Countdown: 0
SampleSet: Normal
StackLeniency: 0.7
Mode: 2
LetterboxInBreaks: 0
WidescreenStoryboard: 1

[Editor]
Bookmarks: 93490,156648,247279
DistanceSpacing: 1.1
BeatDivisor: 4
GridSize: 32
TimelineZoom: 2.999999

[Metadata]
Title:CLICK (Soleily Remix) (Sped Up Ver.)
TitleUnicode:CLICK (Soleily Remix) (Sped Up Ver.)
Artist:ClariS
ArtistUnicode:ClariS
Creator:Zyzyx
Version:Clicking Soleily
Source:ニセコイ
Tags:Nisekoi False Love Lahphnya Fli Mrbinking
BeatmapID:1606182
BeatmapSetID:763885

[Difficulty]
HPDrainRate:6
CircleSize:4.1
OverallDifficulty:9.7
ApproachRate:9.7
SliderMultiplier:1.8
SliderTickRate:2

[Events]
//Background and Video events
0,0,"clar.jpg",0,0
//Break Periods
2,116427,125837
2,156848,166258
//Storyboard Layer 0 (Background)
//Storyboard Layer 1 (Fail)
//Storyboard Layer 2 (Pass)
//Storyboard Layer 3 (Foreground)
//Storyboard Layer 4 (Overlay)
//Storyboard Sound Samples

[TimingPoints]
16.6799450678997,315.789473684211,4,1,2,50,1,0
3802,-83.3333333333333,4,1,2,50,0,0
10121,-80,4,1,2,75,0,1
19911,-80,4,1,2,75,0,0
20227,-71.4285714285714,4,1,2,75,0,1
29069,-71.4285714285714,4,1,2,75,0,0
30332,-71.4285714285714,4,1,2,75,0,0
42174,-71.4285714285714,4,1,2,80,0,0
53069,-71.4285714285714,4,1,2,85,0,1
83385,-71.4285714285714,4,1,2,85,0,0
83700,-71.4285714285714,4,1,2,85,0,1
92227,-71.4285714285714,4,1,2,60,0,0
93490,-71.4285714285714,4,1,2,75,0,0
103595,-71.4285714285714,4,1,2,75,0,0
114964,-66.6666666666667,4,1,2,75,0,0
116227,-71.4285714285714,4,1,2,75,0,0
136437,-71.4285714285714,4,1,2,80,0,1
156648,-71.4285714285714,4,1,2,75,0,0
166757,-71.4285714285714,4,2,2,75,0,0
176227,-125,4,2,2,75,0,0
176858,-71.4285714285714,4,2,2,75,0,0
181911,-71.4285714285714,4,1,2,75,0,0
184437,-71.4285714285714,4,1,2,75,0,0
186016,-100,4,1,2,85,0,0
186964,-80,4,1,2,75,0,0
207174,-71.4285714285714,4,1,2,75,0,1
216964,-80,4,1,2,75,0,1
217279,-71.4285714285714,4,1,2,75,0,1
227385,-100,4,1,2,75,0,0
246174,-71.4285714285714,4,1,2,75,0,0
247595,-71.4285714285714,4,1,2,80,0,1
257385,-71.4285714285714,4,1,2,80,0,0
257700,-71.4285714285714,4,1,2,80,0,1
266542,-71.4285714285714,4,1,2,60,0,0
267806,-71.4285714285714,4,1,2,80,0,0
268753,-71.4285714285714,4,1,2,40,0,0
270806,-71.4285714285714,4,2,1,40,0,0

[Colours]
Combo1 : 71,15,219
Combo2 : 61,51,249

[HitObjects]
112,128,3806,6,0,P|49:222|128:240,1,215.999993408203,2|0,0:0|0:0,0:0:0:0:
256,240,4437,1,2,0:0:0:0:
32,288,4753,2,0,L|144:288,2,107.999996704102,0|0|2,0:0|0:0|0:0,0:0:0:0:
288,224,5306,1,0,0:0:0:0:
160,160,5542,1,0,0:0:0:0:
336,192,5700,1,2,0:0:0:0:
192,160,6016,5,0,0:0:0:0:
320,160,6174,1,0,0:0:0:0:
176,192,6332,2,0,P|104:264|176:304,1,215.999993408203,2|0,0:0|0:0,0:0:0:0:
336,304,6806,1,0,0:0:0:0:
176,192,6964,1,2,0:0:0:0:
336,272,7437,6,0,L|320:208,1,53.9999983520508
160,112,7595,2,0,P|80:112|48:192,2,161.999995056153,2|2|0,0:0|0:0|0:0,0:0:0:0:
352,304,8227,2,0,P|432:304|464:224,2,161.999995056153,2|2|0,0:0|0:0|0:0,0:0:0:0:
160,168,8858,5,6,0:0:0:0:
120,176,8898,1,0,0:0:0:0:
96,200,8937,1,0,0:0:0:0:
80,232,8977,1,0,0:0:0:0:
80,264,9016,1,0,0:0:0:0:
96,296,9056,1,0,0:0:0:0:
120,312,9095,1,0,0:0:0:0:
160,320,9135,1,0,0:0:0:0:
352,320,9174,5,0,0:0:0:0:
392,312,9214,1,0,0:0:0:0:
416,296,9253,1,0,0:0:0:0:
432,264,9293,1,0,0:0:0:0:
432,232,9332,1,0,0:0:0:0:
416,200,9372,1,0,0:0:0:0:
392,176,9411,1,0,0:0:0:0:
352,168,9451,1,0,0:0:0:0:
128,192,9490,5,0,0:0:0:0:
96,208,9542,1,0,0:0:0:0:
80,240,9595,1,0,0:0:0:0:
384,192,9648,5,0,0:0:0:0:
416,208,9700,1,0,0:0:0:0:
432,240,9753,1,0,0:0:0:0:
128,192,9806,2,0,L|112:128,1,53.9999983520508,8|0,0:0|0:0,0:0:0:0:
256,144,9964,2,0,L|272:80,1,53.9999983520508
448,144,10121,6,0,P|469:215|437:230,1,112.5,12|0,0:3|0:0,0:0:0:0:
368,240,10358,1,0,0:0:0:0:
224,336,10437,2,0,P|203:265|235:250,1,112.5,8|0,0:0|0:0,0:0:0:0:
304,240,10674,1,0,0:0:0:0:
128,224,10753,6,0,L|112:128,1,56.25,8|0,0:3|0:0,0:0:0:0:
208,176,10911,2,0,L|224:80,1,56.25,0|0,0:0|0:0,0:0:0:0:
80,96,11069,2,0,L|16:96,2,56.25,8|0|0,0:0|0:0|0:0,0:0:0:0:
224,96,11306,1,0,0:0:0:0:
416,192,11385,6,0,L|304:192,1,112.5,8|0,0:3|0:0,0:0:0:0:
224,192,11621,1,0,0:0:0:0:
80,272,11700,2,0,L|192:272,1,112.5,8|0,0:0|0:0,0:0:0:0:
272,272,11937,1,0,0:0:0:0:
66,217,12016,6,0,L|82:281,1,56.25,8|0,0:3|0:0,0:0:0:0:
272,272,12174,2,0,L|288:208,1,56.25,0|0,0:0|0:0,0:0:0:0:
64,224,12332,2,0,P|42:175|80:140,1,112.5,8|0,0:0|0:0,0:0:0:0:
160,128,12569,1,0,0:0:0:0:
336,160,12648,6,0,L|224:160,1,112.5,8|0,0:3|0:0,0:0:0:0:
288,160,12885,1,0,0:0:0:0:
448,224,12964,2,0,L|336:224,1,112.5,8|0,0:0|0:0,0:0:0:0:
256,224,13200,1,0,0:0:0:0:
32,224,13279,5,8,0:3:0:0:
256,224,13437,1,0,0:0:0:0:
32,224,13595,1,8,0:0:0:0:
256,192,13753,2,0,L|240:128,1,56.25,0|0,0:0|0:0,0:0:0:0:
32,192,13911,6,0,L|16:128,1,56.25,8|0,0:3|0:0,0:0:0:0:
224,192,14069,2,0,L|240:256,1,56.25,0|0,0:0|0:0,0:0:0:0:
64,224,14227,2,0,P|29:270|68:292,1,112.5,8|0,0:0|0:0,0:0:0:0:
272,352,14464,5,0,0:0:0:0:
288,304,14542,1,8,0:3:0:0:
272,256,14621,1,0,0:0:0:0:
224,224,14700,1,0,0:0:0:0:
176,224,14779,1,0,0:0:0:0:
368,240,14858,6,0,L|384:192,1,37.5,8|0,0:0|0:0,0:0:0:0:
256,192,14964,2,0,L|240:144,1,37.5,0|0,0:0|0:0,0:0:0:0:
368,240,15069,2,0,L|384:192,1,37.5,0|0,0:0|0:0,0:0:0:0:
64,144,15174,6,0,P|43:215|75:230,1,112.5,8|0,0:3|0:0,0:0:0:0:
144,240,15411,1,0,0:0:0:0:
288,288,15490,2,0,L|160:288,1,112.5,8|0,0:0|0:0,0:0:0:0:
96,288,15727,1,0,0:0:0:0:
288,240,15806,6,0,L|304:144,1,56.25,8|0,0:3|0:0,0:0:0:0:
224,160,15964,2,0,L|208:64,1,56.25,0|0,0:0|0:0,0:0:0:0:
368,160,16122,2,0,L|432:160,2,56.25,8|0|0,0:0|0:0|0:0,0:0:0:0:
224,160,16359,1,0,0:0:0:0:
64,160,16438,6,0,P|49:225|83:251,1,112.5,8|0,0:3|0:0,0:0:0:0:
160,256,16674,1,0,0:0:0:0:
336,256,16753,2,0,L|224:256,1,112.5,8|0,0:0|0:0,0:0:0:0:
192,224,16990,1,0,0:0:0:0:
352,208,17069,6,0,L|370:135,1,56.25,8|0,0:3|0:0,0:0:0:0:
448,176,17227,2,0,L|464:112,1,56.25,0|0,0:0|0:0,0:0:0:0:
256,192,17385,2,0,P|234:241|272:276,1,112.5,8|0,0:0|0:0,0:0:0:0:
352,288,17622,1,0,0:0:0:0:
112,240,17700,6,0,L|96:304,2,56.25,8|0|0,0:3|0:0|0:0,0:0:0:0:
272,256,17937,2,0,L|256:320,1,56.25,0|8,0:0|0:0,0:0:0:0:
192,336,18095,1,0,0:0:0:0:
368,320,18174,2,0,L|384:256,1,56.25,0|0,0:0|0:0,0:0:0:0:
64,160,18332,6,0,P|25:189|83:221,1,112.5,8|0,0:3|0:0,0:0:0:0:
135,241,18569,1,0,0:0:0:0:
288,336,18648,2,0,P|327:307|269:275,1,112.5,8|0,0:0|0:0,0:0:0:0:
218,250,18885,1,0,0:0:0:0:
480,192,18964,6,0,L|416:192,1,56.25,12|0,0:3|0:0,0:0:0:0:
231,195,19121,2,0,L|215:259,1,56.25,2|0,0:0|0:0,0:0:0:0:
368,192,19279,2,0,L|304:192,2,56.25,10|0|0,0:0|0:0|0:0,0:0:0:0:
192,144,19516,2,0,P|160:192|210:231,1,112.5,12|0,0:3|0:0,0:0:0:0:
368,192,19753,2,0,L|400:240,1,56.25,8|0,0:3|0:0,0:0:0:0:
256,192,19911,2,2,L|192:160,3,56.25,10|2|2|0,0:0|0:0|0:0|0:0,0:0:0:0:
448,240,20227,6,0,P|487:289|438:305,1,125.999996154785,12|0,0:3|0:0,0:0:0:0:
368,304,20464,1,0,0:0:0:0:
224,256,20542,2,0,P|185:207|234:191,1,125.999996154785,8|0,0:0|0:0,0:0:0:0:
304,192,20779,1,0,0:0:0:0:
96,192,20858,6,0,L|32:192,1,62.9999980773926,8|0,0:3|0:0,0:0:0:0:
128,176,21017,2,0,L|112:112,1,62.9999980773926,0|0,0:0|0:0,0:0:0:0:
192,128,21174,2,0,L|176:64,1,62.9999980773926,8|0,0:0|0:0,0:0:0:0:
336,64,21332,2,0,L|320:128,1,62.9999980773926,0|0,0:0|0:0,0:0:0:0:
464,192,21490,6,0,L|336:192,1,125.999996154785,8|0,0:3|0:0,0:0:0:0:
256,192,21727,1,0,0:0:0:0:
48,192,21806,2,0,L|176:192,1,125.999996154785,8|0,0:0|0:0,0:0:0:0:
256,192,22043,1,0,0:0:0:0:
448,208,22121,6,0,L|464:144,1,62.9999980773926,8|0,0:3|0:0,0:0:0:0:
288,224,22279,2,0,L|224:224,1,62.9999980773926,0|0,0:0|0:0,0:0:0:0:
320,256,22437,2,0,L|336:320,1,62.9999980773926,8|0,0:0|0:0,0:0:0:0:
176,320,22595,2,0,L|192:256,1,62.9999980773926
32,224,22753,6,0,P|33:169|96:144,1,125.999996154785,8|0,0:3|0:0,0:0:0:0:
176,160,22990,1,0,0:0:0:0:
352,160,23069,2,0,L|224:160,1,125.999996154785,8|0,0:0|0:0,0:0:0:0:
288,160,23306,1,0,0:0:0:0:
480,224,23385,5,8,0:3:0:0:
256,224,23543,1,0,0:0:0:0:
480,224,23701,1,8,0:0:0:0:
256,192,23859,2,0,L|272:128,1,62.9999980773926
480,192,24016,6,0,L|496:112,1,62.9999980773926,8|0,0:3|0:0,0:0:0:0:
288,192,24175,2,0,L|272:256,1,62.9999980773926
480,160,24332,5,8,0:0:0:0:
464,208,24411,1,0,0:0:0:0:
416,240,24490,1,0,0:0:0:0:
240,352,24569,5,0,0:0:0:0:
224,304,24648,1,8,0:3:0:0:
240,256,24727,1,0,0:0:0:0:
288,224,24806,1,0,0:0:0:0:
336,224,24885,1,0,0:0:0:0:
144,240,24964,6,0,L|128:192,1,41.9999987182618,8|0,0:0|0:0,0:0:0:0:
256,192,25070,2,0,L|272:144,1,41.9999987182618,0|0,0:0|0:0,0:0:0:0:
144,240,25175,2,0,L|128:192,1,41.9999987182618,0|0,0:0|0:0,0:0:0:0:
416,304,25279,6,0,L|272:304,1,125.999996154785,12|0,0:3|0:0,0:0:0:0:
432,288,25516,2,0,L|448:224,1,62.9999980773926,0|8,0:0|0:0,0:0:0:0:
160,192,25753,1,0,0:0:0:0:
288,192,25911,1,8,0:3:0:0:
160,192,26069,1,0,0:0:0:0:
384,192,26227,2,0,L|256:192,1,125.999996154785,8|0,0:0|0:0,0:0:0:0:
320,192,26464,1,0,0:0:0:0:
96,80,26542,6,0,L|240:80,1,125.999996154785,12|0,0:3|0:0,0:0:0:0:
80,96,26779,2,0,L|64:160,1,62.9999980773926,0|8,0:0|0:0,0:0:0:0:
352,192,27016,1,0,0:0:0:0:
224,192,27174,1,8,0:3:0:0:
352,192,27332,1,0,0:0:0:0:
128,192,27490,2,0,L|256:192,1,125.999996154785,8|0,0:0|0:0,0:0:0:0:
192,192,27727,1,0,0:0:0:0:
400,304,27806,6,0,L|464:272,1,62.9999980773926,12|0,0:3|0:0,0:0:0:0:
480,240,27964,1,0,0:0:0:0:
256,272,28042,2,0,L|192:240,1,62.9999980773926,0|8,0:0|0:0,0:0:0:0:
176,208,28200,1,0,0:0:0:0:
327,288,28279,2,0,L|311:352,1,62.9999980773926,0|0,0:0|0:0,0:0:0:0:
112,288,28437,6,0,L|96:224,1,62.9999980773926,12|0,0:3|0:0,0:0:0:0:
327,288,28595,2,0,L|343:224,1,62.9999980773926,0|0,0:0|0:0,0:0:0:0:
96,160,28753,6,0,L|224:160,1,125.999996154785,8|0,0:0|0:0,0:0:0:0:
304,160,28990,1,0,0:0:0:0:
144,64,29069,5,6,0:2:0:0:
368,64,29227,1,2,0:2:0:0:
144,112,29385,2,2,L|160:176,1,62.9999980773926,2|2,0:2|0:2,0:2:0:0:
208,208,29542,1,0,0:2:0:0:
416,192,29621,6,0,L|288:192,1,125.999996154785,2|0,0:2|0:2,0:2:0:0:
144,192,29858,1,2,0:2:0:0:
400,128,30016,6,2,L|320:128,1,62.9999980773926,2|2,0:2|0:2,0:2:0:0:
176,128,30174,2,0,L|160:64,1,62.9999980773926,2|2,0:2|0:2,0:2:0:0:
400,128,30332,6,0,P|480:208|384:288,1,251.999992309571,4|0,0:0|0:0,0:0:0:0:
144,192,30806,1,2,0:0:0:0:
256,192,30964,1,0,0:0:0:0:
368,192,31121,1,2,0:0:0:0:
144,192,31279,1,0,0:0:0:0:
368,192,31437,1,2,0:0:0:0:
113,289,31595,6,0,P|33:209|129:129,1,251.999992309571,0|0,0:0|0:0,0:0:0:0:
384,192,32069,2,0,L|256:192,1,125.999996154785,2|0,0:0|0:0,0:0:0:0:
128,192,32385,1,2,0:0:0:0:
384,192,32542,1,0,0:0:0:0:
128,192,32700,1,2,0:0:0:0:
384,160,32858,6,0,L|128:160,2,251.999992309571,0|2|0,0:0|0:0|0:0,0:0:0:0:
128,192,33806,1,2,0:0:0:0:
384,192,33964,1,2,0:0:0:0:
112,128,34121,6,0,P|32:208|128:288,1,251.999992309571,2|0,0:0|0:0,0:0:0:0:
432,112,34595,1,2,0:0:0:0:
80,112,34753,1,0,0:0:0:0:
320,160,34911,1,2,0:0:0:0:
192,160,35069,1,0,0:0:0:0:
352,160,35227,2,0,L|368:224,1,62.9999980773926,2|0,0:0|0:0,0:0:0:0:
128,192,35385,6,0,L|384:192,1,251.999992309571,0|2,0:0|0:0,0:0:0:0:
128,192,35858,1,0,0:0:0:0:
380,192,36016,2,0,L|220:192,2,125.999996154785,2|2|0,0:0|0:0|0:0,0:0:0:0:
128,192,36490,1,2,0:0:0:0:
432,240,36648,6,2,P|465:193|418:138,1,125.999996154785,0|2,0:0|0:0,0:0:0:0:
256,144,36885,1,0,0:0:0:0:
80,141,36964,2,0,P|46:190|80:240,1,125.999996154785,0|2,0:0|0:0,0:0:0:0:
320,224,37279,1,0,0:0:0:0:
192,224,37437,1,2,0:0:0:0:
432,272,37595,1,0,0:0:0:0:
80,272,37753,1,2,0:0:0:0:
384,192,37911,6,0,L|128:192,1,251.999992309571,2|0,0:0|0:0,0:0:0:0:
256,192,38464,1,0,0:0:0:0:
96,224,38542,2,0,L|224:224,1,125.999996154785,2|0,0:0|0:0,0:0:0:0:
352,224,38858,1,2,0:0:0:0:
96,224,39016,1,2,0:0:0:0:
352,144,39174,6,0,P|432:208|352:304,1,251.999992309571,0|2,0:0|0:0,0:0:0:0:
96,304,39648,1,0,0:0:0:0:
352,160,39806,6,0,L|368:288,1,125.999996154785,2|0,0:0|0:0,0:0:0:0:
144,288,40121,1,8,0:0:0:0:
367,285,40279,1,0,0:0:0:0:
112,240,40437,6,0,P|80:176|123:143,1,125.999996154785,12|0,0:0|0:0,0:0:0:0:
320,144,40674,2,0,L|192:144,1,125.999996154785,8|0,0:0|0:0,0:0:0:0:
400,144,40911,2,0,P|480:224|398:307,1,251.999992309571,8|0,0:0|0:0,0:0:0:0:
160,320,41385,1,10,0:0:0:0:
112,320,41464,1,0,0:0:0:0:
352,320,41542,1,0,0:0:0:0:
400,320,41621,1,0,0:0:0:0:
128,288,41700,6,0,L|336:288,2,188.999994232178,12|2|8,0:0|0:0|0:0,0:0:0:0:
400,288,42332,1,0,0:0:0:0:
176,192,42490,1,0,0:0:0:0:
288,192,42648,1,8,0:0:0:0:
64,192,42806,1,0,0:0:0:0:
288,224,42964,6,0,L|160:224,1,125.999996154785,12|0,0:3|0:0,0:0:0:0:
384,224,43200,2,0,P|416:288|384:352,1,125.999996154785,8|0,0:0|0:0,0:0:0:0:
96,288,43437,2,0,L|288:288,1,188.999994232178,8|0,0:0|0:0,0:0:0:0:
464,288,43753,1,2,0:0:0:0:
176,288,43911,1,8,0:0:0:0:
416,288,44069,2,0,P|494:205|415:123,1,251.999992309571,12|0,0:3|0:0,0:0:0:0:
128,304,44542,5,10,0:0:0:0:
208,304,44621,1,0,0:0:0:0:
288,304,44700,2,0,P|288:224|192:192,1,188.999994232178,12|0,0:3|0:0,0:0:0:0:
32,192,45016,1,2,0:0:0:0:
256,192,45174,1,8,0:0:0:0:
32,192,45332,1,0,0:0:0:0:
400,144,45490,6,0,P|432:208|389:241,1,125.999996154785,12|0,0:0|0:0,0:0:0:0:
192,240,45727,2,0,L|320:240,1,125.999996154785,8|0,0:0|0:0,0:0:0:0:
112,240,45964,2,0,P|32:160|114:77,1,251.999992309571,8|0,0:0|0:0,0:0:0:0:
352,64,46438,1,10,0:0:0:0:
400,64,46516,1,0,0:0:0:0:
160,64,46595,1,0,0:0:0:0:
112,64,46674,1,0,0:0:0:0:
336,192,46753,6,0,P|400:192|464:160,1,125.999996154785,12|0,0:0|0:0,0:0:0:0:
176,192,46990,2,0,P|112:192|48:160,1,125.999996154785,8|0,0:0|0:0,0:0:0:0:
336,192,47227,2,0,P|424:264|326:336,1,251.999992309571,8|0,0:3|0:0,0:0:0:0:
96,336,47700,1,8,0:3:0:0:
352,288,47858,2,0,L|144:288,1,188.999994232178,12|0,0:0|0:3,0:3:0:0:
416,192,48174,5,0,0:0:0:0:
192,224,48332,1,10,0:0:0:0:
320,224,48490,1,0,0:0:0:0:
96,192,48648,1,8,0:3:0:0:
224,192,48806,1,0,0:0:0:0:
96,192,48964,1,10,0:0:0:0:
400,192,49121,1,0,0:0:0:0:
80,224,49279,5,12,0:3:0:0:
304,224,49437,1,0,0:0:0:0:
176,224,49595,1,10,0:0:0:0:
400,224,49753,1,0,0:0:0:0:
336,224,49832,1,0,0:0:0:0:
272,224,49911,1,8,0:3:0:0:
496,224,50069,1,0,0:0:0:0:
368,224,50227,1,8,0:0:0:0:
496,224,50385,1,0,0:0:0:0:
192,48,50542,5,12,0:3:0:0:
320,48,50700,1,8,0:3:0:0:
96,80,50858,1,8,0:0:0:0:
416,80,51016,1,8,0:0:0:0:
192,128,51174,5,12,0:3:0:0:
320,144,51332,1,8,0:3:0:0:
64,192,51490,1,8,0:0:0:0:
448,192,51648,1,8,0:0:0:0:
224,32,51806,6,0,L|208:112,1,62.9999980773926,12|0,0:3|0:0,0:0:0:0:
288,80,51964,2,0,L|304:160,1,62.9999980773926
192,160,52121,2,0,L|176:224,1,62.9999980773926
320,224,52279,2,0,L|336:288,1,62.9999980773926
144,288,52437,2,0,L|64:288,1,62.9999980773926
368,288,52595,2,0,L|448:288,1,62.9999980773926
81,288,52753,5,0,0:0:0:0:
65,256,52806,1,0,0:0:0:0:
65,224,52858,1,0,0:0:0:0:
81,192,52911,1,0,0:0:0:0:
113,176,52964,1,0,0:0:0:0:
320,160,53069,6,0,L|320:288,1,125.999996154785,12|0,0:3|0:0,0:0:0:0:
192,160,53385,2,0,L|192:288,1,125.999996154785,8|0,0:0|0:0,0:0:0:0:
320,286,53700,1,8,0:3:0:0:
192,286,53858,1,0,0:0:0:0:
416,192,54016,1,8,0:0:0:0:
96,192,54174,1,0,0:0:0:0:
416,192,54332,6,0,P|448:256|400:288,1,125.999996154785,8|0,0:3|0:0,0:0:0:0:
336,304,54569,1,0,0:0:0:0:
96,240,54648,2,0,L|224:240,2,125.999996154785,8|0|8,0:0|0:0|0:3,0:0:0:0:
320,240,55121,1,0,0:0:0:0:
96,240,55279,1,8,0:0:0:0:
320,240,55437,6,0,L|336:304,1,62.9999980773926
160,304,55595,2,0,L|32:304,1,125.999996154785,8|0,0:3|0:0,0:0:0:0:
96,304,55832,2,0,L|160:304,1,62.9999980773926,0|8,0:0|0:0,0:0:0:0:
32,256,56069,1,0,0:0:0:0:
352,192,56227,6,0,L|368:320,1,125.999996154785,8|0,0:3|0:0,0:0:0:0:
145,317,56542,1,8,0:0:0:0:
367,317,56700,1,0,0:0:0:0:
96,32,56858,6,0,L|224:32,1,125.999996154785,8|0,0:3|0:0,0:0:0:0:
288,32,57095,1,0,0:0:0:0:
96,64,57174,2,0,P|96:128|160:160,1,125.999996154785,8|0,0:0|0:0,0:0:0:0:
224,160,57411,1,0,0:0:0:0:
416,224,57490,6,0,L|288:224,1,125.999996154785,8|0,0:3|0:0,0:0:0:0:
208,224,57727,1,0,0:0:0:0:
416,256,57806,2,0,P|416:320|352:352,1,125.999996154785,8|0,0:0|0:0,0:0:0:0:
288,352,58043,1,0,0:0:0:0:
128,352,58121,6,0,L|256:352,1,125.999996154785,8|0,0:3|0:0,0:0:0:0:
380,352,58437,2,0,L|252:352,1,125.999996154785,8|0,0:0|0:0,0:0:0:0:
32,192,58753,2,0,L|160:192,1,125.999996154785,8|0,0:3|0:0,0:0:0:0:
384,128,59069,1,8,0:0:0:0:
128,128,59227,1,0,0:0:0:0:
384,128,59385,6,0,P|418:187|381:223,1,125.999996154785,8|0,0:3|0:0,0:0:0:0:
304,224,59621,1,0,0:0:0:0:
160,288,59700,2,0,L|288:288,1,125.999996154785,8|0,0:0|0:0,0:0:0:0:
368,288,59937,1,0,0:0:0:0:
128,288,60016,2,0,P|76:251|144:160,1,188.999994232178,8|0,0:3|0:0,0:0:0:0:
384,160,60332,1,8,0:0:0:0:
127,159,60490,1,0,0:0:0:0:
352,80,60648,6,0,L|480:80,1,125.999996154785,8|0,0:3|0:0,0:0:0:0:
416,80,60885,2,0,L|352:80,1,62.9999980773926,0|8,0:0|0:0,0:0:0:0:
480,128,61122,1,0,0:0:0:0:
160,192,61279,6,0,L|144:304,3,62.9999980773926,8|0|0|0,0:3|0:0|0:0|0:0,0:0:0:0:
352,192,61595,2,0,L|368:304,3,62.9999980773926,8|0|0|0,0:0|0:0|0:0|0:0,0:0:0:0:
80,128,61911,6,0,P|64:192|80:272,1,125.999996154785,12|0,0:0|0:0,0:0:0:0:
320,256,62148,2,0,L|192:256,1,125.999996154785,8|0,0:0|0:0,0:0:0:0:
440,250,62385,2,0,P|447:188|432:128,1,125.999996154785,8|0,0:0|0:0,0:0:0:0:
192,128,62621,1,0,0:0:0:0:
256,128,62700,1,8,0:3:0:0:
320,128,62779,1,0,0:0:0:0:
96,160,62858,6,0,L|80:224,1,62.9999980773926,8|0,0:0|0:0,0:0:0:0:
416,160,63016,2,0,L|432:224,1,62.9999980773926
256,192,63174,6,0,L|128:192,1,125.999996154785,12|0,0:3|0:0,0:0:0:0:
256,192,63490,2,0,L|384:192,1,125.999996154785,8|0,0:0|0:0,0:0:0:0:
95,159,63806,2,0,L|79:287,1,125.999996154785,8|0,0:3|0:0,0:0:0:0:
336,288,64121,1,8,0:0:0:0:
79,284,64279,2,0,L|143:284,1,62.9999980773926
288,192,64437,6,0,P|288:256|240:288,1,125.999996154785,8|0,0:3|0:0,0:0:0:0:
160,304,64674,1,0,0:0:0:0:
416,160,64753,2,0,L|288:160,2,125.999996154785,8|0|8,0:0|0:0|0:3,0:0:0:0:
192,240,65226,1,0,0:0:0:0:
416,240,65384,1,8,0:0:0:0:
192,192,65542,6,0,L|176:128,1,62.9999980773926
336,192,65700,2,0,P|368:240|320:304,1,125.999996154785,10|0,0:3|0:0,0:0:0:0:
256,304,65937,1,0,0:0:0:0:
432,320,66016,2,0,L|448:208,1,62.9999980773926,8|0,0:0|0:0,0:0:0:0:
256,240,66174,2,0,L|240:128,1,62.9999980773926
96,128,66332,6,0,P|39:197|112:256,1,188.999994232178,8|0,0:3|0:0,0:0:0:0:
320,256,66648,1,10,0:0:0:0:
96,256,66806,1,2,0:0:0:0:
368,80,66964,6,0,L|240:80,1,125.999996154785,8|0,0:3|0:0,0:0:0:0:
304,96,67201,1,0,0:0:0:0:
480,64,67280,2,0,P|480:128|416:160,1,125.999996154785,8|0,0:0|0:0,0:0:0:0:
288,160,67517,1,0,0:0:0:0:
144,304,67595,6,0,L|272:304,1,125.999996154785,8|0,0:3|0:0,0:0:0:0:
208,288,67832,1,0,0:0:0:0:
32,320,67911,2,0,P|32:256|96:224,1,125.999996154785,8|0,0:0|0:0,0:0:0:0:
224,224,68148,1,0,0:0:0:0:
448,112,68227,6,0,L|320:112,1,125.999996154785,8|0,0:3|0:0,0:0:0:0:
192,112,68542,2,0,L|64:112,1,125.999996154785,8|0,0:0|0:0,0:0:0:0:
320,160,68858,2,0,L|464:160,1,125.999996154785,8|0,0:3|0:0,0:0:0:0:
128,224,69174,1,8,0:0:0:0:
384,224,69332,1,2,0:0:0:0:
128,256,69490,6,0,P|94:197|131:161,1,125.999996154785,8|0,0:3|0:0,0:0:0:0:
208,160,69726,1,0,0:0:0:0:
352,96,69806,2,0,L|224:96,1,125.999996154785,8|0,0:0|0:0,0:0:0:0:
144,96,70042,1,0,0:0:0:0:
384,96,70121,2,0,P|436:133|368:224,1,188.999994232178,8|0,0:3|0:0,0:0:0:0:
128,224,70437,1,8,0:0:0:0:
385,225,70595,1,0,0:0:0:0:
80,224,70753,6,0,P|37:184|93:161,1,125.999996154785,12|0,0:0|0:0,0:0:0:0:
320,160,70990,2,0,L|176:160,1,125.999996154785,8|0,0:0|0:0,0:0:0:0:
433,154,71227,2,0,P|475:190|432:224,1,125.999996154785,12|0,0:0|0:0,0:0:0:0:
128,256,71464,2,0,L|128:192,1,62.9999980773926,0|8,0:0|0:3,0:0:0:0:
208,160,71621,1,0,0:0:0:0:
384,160,71700,6,0,P|384:230|336:240,1,125.999996154785,8|0,0:0|0:0,0:0:0:0:
256,240,71937,1,0,0:0:0:0:
48,192,72016,6,0,L|32:256,2,62.9999980773926,2|0|0,0:0|0:0|0:0,0:0:0:0:
255,192,72253,2,0,L|319:192,2,62.9999980773926,2|0|0,0:0|0:0|0:0,0:0:0:0:
112,192,72490,2,0,L|48:192,1,62.9999980773926,2|0,0:0|0:0,0:0:0:0:
464,192,72648,6,0,L|480:256,2,62.9999980773926,2|0|0,0:0|0:0|0:0,0:0:0:0:
257,192,72885,2,0,L|193:192,2,62.9999980773926,2|0|0,0:0|0:0|0:0,0:0:0:0:
400,192,73122,2,0,L|464:192,1,62.9999980773926,2|0,0:0|0:0,0:0:0:0:
96,192,73279,6,0,P|49:207|116:293,1,188.999994232178,4|0,0:0|0:0,0:0:0:0:
320,304,73595,2,0,L|192:304,1,125.999996154785,8|0,0:0|0:0,0:0:0:0:
416,304,73911,6,0,P|463:289|396:203,1,188.999994232178
128,192,74227,1,8,0:0:0:0:
384,192,74385,1,0,0:0:0:0:
128,192,74542,6,0,L|112:320,1,125.999996154785
288,320,74779,2,0,L|368:320,2,62.9999980773926,0|8|0,0:0|0:0|0:0,0:0:0:0:
112,317,75016,1,0,0:0:0:0:
351,320,75174,1,2,0:0:0:0:
112,317,75332,1,0,0:0:0:0:
351,320,75490,1,8,0:0:0:0:
112,288,75648,2,0,L|128:224,1,62.9999980773926
304,224,75806,6,0,P|364:186|304:112,1,188.999994232178
96,112,76121,2,0,L|160:112,1,62.9999980773926,8|0,0:0|0:0,0:0:0:0:
305,111,76279,2,0,L|368:112,1,62.9999980773926,2|0,0:0|0:0,0:0:0:0:
176,144,76437,6,0,P|144:176|192:240,1,125.999996154785
256,240,76674,1,0,0:0:0:0:
336,240,76753,1,8,0:0:0:0:
96,240,76911,1,0,0:0:0:0:
320,224,77069,6,0,L|192:224,1,125.999996154785
160,192,77306,1,0,0:0:0:0:
320,192,77385,2,0,L|448:192,1,125.999996154785,8|0,0:0|0:0,0:0:0:0:
464,160,77621,1,0,0:0:0:0:
128,96,77700,2,0,L|256:96,1,125.999996154785,2|0,0:0|0:0,0:0:0:0:
384,96,78016,1,10,0:0:0:0:
128,96,78174,1,0,0:0:0:0:
416,192,78332,6,0,P|463:177|396:91,1,188.999994232178
192,80,78648,2,0,L|320:80,1,125.999996154785,8|0,0:0|0:0,0:0:0:0:
96,80,78964,6,0,P|49:95|116:181,1,188.999994232178
384,192,79280,1,8,0:0:0:0:
128,192,79438,1,0,0:0:0:0:
384,192,79595,6,0,L|400:320,1,125.999996154785
128,192,79832,2,0,L|112:256,2,62.9999980773926,0|8|0,0:0|0:0|0:0,0:0:0:0:
384,192,80069,1,0,0:0:0:0:
128,192,80227,2,0,P|67:133|129:76,1,188.999994232178
384,76,80542,1,8,0:0:0:0:
128,76,80700,1,0,0:0:0:0:
384,160,80858,6,0,L|256:160,1,125.999996154785,2|0,0:0|0:0,0:0:0:0:
320,160,81095,2,0,L|400:160,1,62.9999980773926,2|8,0:0|0:0,0:0:0:0:
160,160,81332,1,2,0:0:0:0:
480,160,81490,2,0,L|464:224,1,62.9999980773926,2|0,0:0|0:0,0:0:0:0:
288,224,81648,2,0,L|224:224,1,62.9999980773926
80,224,81806,2,0,P|26:198|34:135,1,125.999996154785,8|0,0:0|0:0,0:0:0:0:
112,128,82042,1,0,0:0:0:0:
432,160,82121,6,0,P|475:200|419:223,1,125.999996154785,12|0,0:0|0:0,0:0:0:0:
192,224,82358,2,0,L|336:224,1,125.999996154785,8|0,0:0|0:0,0:0:0:0:
78,229,82595,2,0,P|36:193|80:160,1,125.999996154785,8|0,0:0|0:0,0:0:0:0:
368,128,82911,2,0,L|352:192,1,62.9999980773926,8|0,0:3|0:0,0:0:0:0:
256,192,83069,2,0,L|192:192,1,62.9999980773926,8|0,0:0|0:0,0:0:0:0:
256,192,83227,2,0,L|320:192,1,62.9999980773926
96,160,83385,6,0,P|34:172|111:203,1,188.999994232178
416,224,83700,2,0,P|485:194|418:160,1,188.999994232178,12|0,0:0|0:0,0:0:0:0:
192,160,84016,2,0,L|320:160,1,125.999996154785
97,224,84332,1,8,0:0:0:0:
416,224,84490,1,0,0:0:0:0:
96,224,84648,6,0,L|80:304,2,62.9999980773926
288,288,84885,2,0,L|224:288,1,62.9999980773926,0|8,0:0|0:0,0:0:0:0:
448,288,85121,1,0,0:0:0:0:
192,224,85279,2,0,L|320:224,2,125.999996154785,0|0|8,0:0|0:0|0:0,0:0:0:0:
432,224,85753,2,0,L|352:224,1,62.9999980773926
160,160,85911,6,0,L|304:160,1,125.999996154785
224,160,86148,1,0,0:0:0:0:
48,160,86227,2,0,L|32:224,1,62.9999980773926,10|0,0:0|0:0,0:0:0:0:
240,240,86385,2,0,L|256:336,1,62.9999980773926,2|0,0:0|0:0,0:0:0:0:
432,336,86542,2,0,P|483:261|416:192,1,188.999994232178,2|0,0:0|0:0,0:0:0:0:
208,192,86858,1,10,0:0:0:0:
428,194,87016,1,0,0:0:0:0:
192,128,87174,6,0,L|176:240,1,62.9999980773926
256,192,87332,2,0,L|272:304,1,62.9999980773926
96,192,87490,2,0,L|112:272,1,62.9999980773926,8|0,0:0|0:0,0:0:0:0:
160,304,87648,2,0,L|224:320,1,62.9999980773926
416,240,87806,5,2,0:0:0:0:
288,240,87964,1,0,0:0:0:0:
416,240,88121,1,10,0:0:0:0:
160,240,88279,1,0,0:0:0:0:
414,224,88437,6,0,P|483:194|416:160,1,188.999994232178
95,160,88753,2,0,P|26:193|96:224,1,188.999994232178,8|0,0:0|0:0,0:0:0:0:
320,224,89069,2,0,L|192:224,1,125.999996154785
415,160,89385,1,8,0:0:0:0:
96,160,89543,1,0,0:0:0:0:
416,192,89700,6,0,P|448:256|416:288,1,125.999996154785
336,288,89937,1,0,0:0:0:0:
160,224,90016,2,0,L|96:224,1,62.9999980773926,10|0,0:0|0:0,0:0:0:0:
288,224,90174,2,0,L|352:224,1,62.9999980773926,2|0,0:0|0:0,0:0:0:0:
96,192,90332,6,0,P|64:128|96:96,1,125.999996154785,2|0,0:0|0:0,0:0:0:0:
176,96,90569,1,0,0:0:0:0:
415,160,90648,2,0,L|352:160,1,62.9999980773926,8|0,0:0|0:0,0:0:0:0:
161,160,90806,2,0,L|224:160,1,62.9999980773926
480,160,90964,6,0,P|479:227|432:272,1,125.999996154785,14|0,0:0|0:0,0:0:0:0:
192,272,91200,2,0,L|320:272,1,125.999996154785,10|0,0:0|0:0,0:0:0:0:
32,160,91437,2,0,P|33:227|80:272,1,125.999996154785,14|0,0:0|0:0,0:0:0:0:
318,272,91674,6,0,L|254:272,1,62.9999980773926
192,272,91832,1,0,0:0:0:0:
480,160,91911,2,0,L|464:240,1,62.9999980773926,8|0,0:0|0:0,0:0:0:0:
400,272,92069,2,0,L|336:288,1,62.9999980773926
96,160,92227,6,0,P|64:224|112:272,1,125.999996154785,2|0,0:2|0:2,0:2:0:0:
192,336,92464,2,0,P|219:282|186:232,1,125.999996154785,2|0,0:2|0:2,0:2:0:0:
96,160,92700,1,2,0:2:0:0:
416,224,92858,2,0,P|448:160|400:112,1,125.999996154785,2|0,0:2|0:2,0:2:0:0:
320,48,93095,2,0,P|293:102|326:152,1,125.999996154785,2|0,0:2|0:2,0:2:0:0:
416,224,93331,1,2,0:2:0:0:
192,192,93490,6,0,L|64:192,1,125.999996154785,4|0,2:0|0:0,0:0:0:0:
192,224,93806,2,0,L|320:224,1,125.999996154785,0|0,2:0|0:0,0:0:0:0:
96,224,94121,1,0,2:0:0:0:
208,256,94279,1,0,0:0:0:0:
320,288,94437,1,0,2:0:0:0:
96,224,94595,1,0,0:0:0:0:
320,192,94753,6,0,L|192:192,2,125.999996154785,0|0|0,2:0|0:0|2:0,0:0:0:0:
96,192,95227,1,0,0:0:0:0:
320,224,95385,2,0,L|192:224,1,125.999996154785,0|0,2:0|0:0,0:0:0:0:
416,192,95700,1,0,2:0:0:0:
96,192,95858,1,0,0:0:0:0:
384,192,96016,6,0,L|400:320,1,125.999996154785,0|0,2:0|0:0,0:0:0:0:
256,256,96332,2,0,L|272:128,1,125.999996154785,0|0,2:0|0:0,0:0:0:0:
128,192,96648,2,0,L|112:320,1,125.999996154785,0|0,2:0|0:0,0:0:0:0:
384,336,96964,1,0,2:0:0:0:
128,336,97121,1,0,0:0:0:0:
352,160,97279,2,0,L|224:160,2,125.999996154785,0|0|0,2:0|0:0|2:2,0:0:0:0:
32,224,97753,6,0,L|160:224,1,125.999996154785,0|0,0:0|2:0,0:0:0:0:
384,224,98069,2,0,L|256:224,1,125.999996154785,0|0,0:0|2:0,0:0:0:0:
480,224,98385,2,0,L|464:288,1,62.9999980773926
288,192,98542,6,0,L|432:192,1,125.999996154785,0|0,2:0|0:0,0:0:0:0:
288,256,98858,2,0,L|144:256,1,125.999996154785,0|0,2:2|0:0,2:2:0:0:
416,256,99174,5,0,2:0:0:0:
256,304,99332,1,0,0:0:0:0:
384,304,99490,1,0,2:0:0:0:
192,240,99648,1,0,0:0:0:0:
304,240,99806,1,0,2:2:0:0:
416,240,99964,1,0,0:0:0:0:
288,208,100121,1,0,2:0:0:0:
432,208,100279,1,0,0:0:0:0:
192,96,100437,5,0,2:0:0:0:
320,96,100595,1,0,0:0:0:0:
96,160,100753,1,0,2:2:0:0:
416,160,100911,1,0,0:0:0:0:
144,192,101069,2,0,L|128:320,1,125.999996154785,0|0,2:0|0:0,0:0:0:0:
352,317,101385,5,0,2:0:0:0:
480,320,101542,1,0,0:0:0:0:
224,272,101700,1,0,2:0:0:0:
352,272,101858,1,0,0:0:0:0:
96,272,102016,2,0,L|80:144,1,125.999996154785,0|0,2:0|0:0,0:0:0:0:
256,208,102332,2,0,L|272:80,1,125.999996154785,4|0,2:0|0:0,0:0:0:0:
32,192,102648,6,0,L|48:256,1,62.9999980773926,0|0,2:0|0:0,0:0:0:0:
144,256,102806,2,0,L|160:320,1,62.9999980773926
320,320,102964,2,0,L|384:320,1,62.9999980773926,0|0,2:0|0:0,0:0:0:0:
320,288,103121,2,0,L|256:288,1,62.9999980773926
80,288,103279,1,8,0:0:0:0:
320,256,103437,1,8,0:3:0:0:
78,231,103595,6,0,P|36:194|80:160,1,125.999996154785,4|0,0:0|0:0,0:0:0:0:
256,192,103832,1,0,0:0:0:0:
321,189,103911,1,8,0:0:0:0:
377,165,103990,1,0,0:0:0:0:
160,160,104069,2,0,P|94:158|32:128,1,125.999996154785,0|8,0:0|0:3,0:0:0:0:
320,96,104385,1,0,0:0:0:0:
192,96,104542,1,8,0:0:0:0:
416,192,104700,1,0,0:0:0:0:
160,224,104858,6,0,L|288:224,1,125.999996154785,8|0,0:3|0:0,0:0:0:0:
224,192,105095,1,0,0:0:0:0:
160,176,105174,1,8,0:0:0:0:
384,224,105332,1,0,0:0:0:0:
160,160,105490,1,8,0:3:0:0:
288,160,105648,1,0,0:0:0:0:
64,256,105806,6,2,L|48:208,1,41.9999987182618,10|2,0:0|0:0,0:0:0:0:
128,208,105911,2,2,L|112:160,1,41.9999987182618
192,160,106016,2,2,L|176:112,1,41.9999987182618
336,80,106121,6,0,P|375:130|336:144,1,125.999996154785,8|0,0:3|0:0,0:0:0:0:
192,160,106358,1,0,0:0:0:0:
160,192,106437,1,8,0:0:0:0:
144,240,106516,1,0,0:0:0:0:
352,256,106595,2,0,L|480:256,1,125.999996154785,0|8,0:0|0:3,0:0:0:0:
256,256,106911,2,0,L|240:192,1,62.9999980773926
96,192,107069,6,0,P|96:272|144:288,1,125.999996154785,8|0,0:0|0:0,0:0:0:0:
208,288,107306,1,0,0:0:0:0:
304,288,107385,1,8,0:3:0:0:
208,288,107464,1,0,0:0:0:0:
112,256,107542,2,0,L|240:256,1,125.999996154785,0|8,0:0|0:0,0:0:0:0:
368,192,107858,1,0,0:0:0:0:
144,192,108016,1,8,0:3:0:0:
416,160,108174,6,0,L|288:160,2,125.999996154785,0|8|0,0:0|0:0|0:0,0:0:0:0:
160,224,108648,6,0,L|288:224,1,125.999996154785,12|0,0:3|0:0,0:0:0:0:
144,176,108885,1,0,0:0:0:0:
112,144,108964,1,8,0:0:0:0:
96,96,109042,1,0,0:0:0:0:
256,80,109121,2,0,L|400:80,2,125.999996154785,0|8|0,0:0|0:3|0:0,0:0:0:0:
480,112,109595,1,8,0:0:0:0:
256,112,109753,1,0,0:0:0:0:
384,112,109911,6,0,P|384:176|336:208,1,125.999996154785,8|0,0:3|0:0,0:0:0:0:
176,272,110148,1,0,0:0:0:0:
208,240,110227,1,8,0:0:0:0:
256,224,110306,1,0,0:0:0:0:
48,272,110385,5,0,0:0:0:0:
176,320,110542,1,8,0:3:0:0:
464,272,110700,1,0,0:0:0:0:
192,256,110858,1,8,0:0:0:0:
320,256,111016,2,0,L|336:192,1,62.9999980773926
176,192,111174,5,12,0:3:0:0:
416,192,111332,1,0,0:0:0:0:
288,144,111490,1,8,0:0:0:0:
416,128,111648,1,0,0:0:0:0:
192,80,111806,2,0,L|320:80,1,125.999996154785,8|0,0:3|0:0,0:0:0:0:
448,80,112121,1,8,0:0:0:0:
320,112,112279,2,0,L|304:192,1,62.9999980773926
448,256,112437,5,12,0:3:0:0:
224,272,112595,2,0,L|352:272,2,125.999996154785,0|8|0,0:0|0:0|0:0,0:0:0:0:
448,272,113069,1,8,0:3:0:0:
304,192,113227,1,0,0:0:0:0:
448,272,113385,1,8,0:0:0:0:
208,192,113542,2,0,L|224:256,1,62.9999980773926
384,112,113700,5,12,0:3:0:0:
256,112,113858,1,8,0:3:0:0:
480,160,114016,1,8,0:0:0:0:
160,160,114174,1,0,0:3:0:0:
288,160,114332,1,12,0:3:0:0:
64,192,114490,1,8,0:3:0:0:
368,160,114648,1,8,0:0:0:0:
144,160,114806,1,8,0:3:0:0:
368,160,114964,6,0,B|368:352|144:352|144:160|144:160|259:83|259:83|368:160|368:160|253:81,1,810.000030899049,12|2,0:3|0:0,0:0:0:0:
32,112,116227,5,4,0:0:0:0:
256,192,126332,12,0,131227,0:0:0:0:
80,160,131385,6,0,L|96:224,1,62.9999980773926
256,304,131542,2,0,L|320:336,1,62.9999980773926
464,224,131700,2,0,L|480:160,1,62.9999980773926
256,96,131858,2,0,L|176:64,1,62.9999980773926
416,208,132016,6,0,L|400:272,1,62.9999980773926
224,272,132174,2,0,L|176:224,1,62.9999980773926
368,208,132332,2,0,L|320:160,1,62.9999980773926
128,128,132490,2,0,L|192:144,1,62.9999980773926
400,288,132648,6,0,L|464:288,1,62.9999980773926
368,288,132806,2,0,L|352:224,1,62.9999980773926
256,224,132964,1,0,0:0:0:0:
240,176,133042,1,0,0:0:0:0:
256,128,133121,1,0,0:0:0:0:
304,112,133200,1,0,0:0:0:0:
480,160,133279,6,0,L|464:224,1,62.9999980773926
304,208,133437,2,0,L|288:272,1,62.9999980773926
192,272,133595,2,0,L|176:336,1,62.9999980773926
336,336,133753,2,0,L|400:336,1,62.9999980773926
192,192,133911,5,12,0:3:0:0:
320,192,134069,1,8,0:3:0:0:
96,192,134227,2,0,L|112:256,1,62.9999980773926,8|0,0:0|0:0,0:0:0:0:
288,256,134385,2,0,L|304:320,1,62.9999980773926,8|0,0:3|0:0,0:0:0:0:
160,288,134542,5,12,0:3:0:0:
288,288,134700,1,8,0:3:0:0:
64,256,134858,6,0,L|128:256,1,62.9999980773926,8|0,0:0|0:0,0:0:0:0:
272,256,135016,2,0,L|288:192,1,62.9999980773926
80,160,135174,6,0,L|112:48,1,62.9999980773926,4|0,0:0|0:0,0:0:0:0:
256,112,135332,2,0,L|224:224,1,62.9999980773926
96,224,135490,2,0,L|32:224,1,62.9999980773926,4|0,0:0|0:0,0:0:0:0:
224,224,135648,2,0,L|240:272,2,41.9999987182618
80,224,135806,6,0,L|64:144,1,62.9999980773926,2|0,0:0|0:0,0:0:0:0:
160,96,135964,2,0,L|160:176,1,62.9999980773926
256,160,136121,2,0,L|272:224,1,62.9999980773926,2|0,0:0|0:0,0:0:0:0:
80,240,136279,2,0,L|32:288,1,62.9999980773926
224,304,136437,6,0,P|290:305|304:256,1,125.999996154785,12|0,0:3|0:0,0:0:0:0:
240,240,136674,1,0,0:0:0:0:
32,192,136753,1,8,0:0:0:0:
160,192,136911,2,0,L|176:128,1,62.9999980773926
352,128,137069,1,8,0:3:0:0:
224,128,137227,1,0,0:0:0:0:
448,128,137385,6,0,P|448:192|400:224,1,125.999996154785,8|0,0:0|0:0,0:0:0:0:
320,240,137621,1,0,0:0:0:0:
128,288,137700,1,8,0:3:0:0:
256,288,137858,1,0,0:0:0:0:
32,288,138016,2,0,L|16:224,2,62.9999980773926,8|0|0,0:0|0:0|0:0,0:0:0:0:
288,224,138332,6,0,L|160:224,1,125.999996154785,8|0,0:3|0:0,0:0:0:0:
224,192,138569,1,0,0:0:0:0:
384,272,138648,1,8,0:0:0:0:
256,272,138806,2,0,L|240:336,1,62.9999980773926
448,320,138964,5,8,0:3:0:0:
336,336,139121,1,0,0:0:0:0:
224,320,139279,1,8,0:0:0:0:
464,272,139437,1,0,0:0:0:0:
208,272,139595,1,8,0:3:0:0:
320,272,139753,6,0,L|256:256,1,62.9999980773926
112,240,139911,2,0,L|96:176,1,62.9999980773926,8|0,0:0|0:0,0:0:0:0:
192,160,140069,2,0,L|208:96,1,62.9999980773926
384,96,140227,6,0,P|384:160|336:192,1,125.999996154785,8|0,0:3|0:0,0:0:0:0:
256,192,140464,1,0,0:0:0:0:
176,192,140542,1,8,0:0:0:0:
400,192,140700,2,0,L|416:256,1,62.9999980773926
256,272,140858,5,8,0:3:0:0:
384,272,141016,1,0,0:0:0:0:
160,224,141174,1,8,0:0:0:0:
288,224,141332,1,0,0:0:0:0:
48,160,141490,6,0,L|176:160,1,125.999996154785,8|0,0:3|0:0,0:0:0:0:
256,160,141727,1,0,0:0:0:0:
464,160,141806,2,0,L|320:160,1,125.999996154785,8|0,0:0|0:0,0:0:0:0:
256,160,142042,1,0,0:0:0:0:
480,192,142121,6,0,P|480:256|432:288,1,125.999996154785,8|0,0:3|0:0,0:0:0:0:
352,288,142358,1,0,0:0:0:0:
192,224,142437,1,8,0:0:0:0:
320,224,142595,2,0,L|336:160,1,62.9999980773926
160,160,142753,5,8,0:3:0:0:
288,160,142911,2,0,L|256:96,1,62.9999980773926
48,160,143069,5,8,0:0:0:0:
160,192,143227,2,0,L|192:256,1,62.9999980773926
336,256,143385,5,8,0:3:0:0:
208,256,143542,2,0,L|224:192,1,62.9999980773926
400,192,143700,5,8,0:0:0:0:
288,176,143858,2,0,L|320:112,1,62.9999980773926
480,160,144016,6,0,P|480:224|416:256,1,125.999996154785,8|0,0:3|0:0,0:0:0:0:
352,256,144253,1,0,0:0:0:0:
192,176,144332,2,0,P|192:240|256:272,1,125.999996154785,8|0,0:0|0:0,0:0:0:0:
320,272,144569,1,0,0:0:0:0:
32,160,144648,6,0,P|32:96|96:64,1,125.999996154785,8|0,0:3|0:0,0:0:0:0:
160,64,144885,1,0,0:0:0:0:
320,320,144964,2,0,P|256:320|224:256,1,125.999996154785,8|0,0:0|0:0,0:0:0:0:
304,240,145201,1,0,0:0:0:0:
480,160,145279,5,8,0:3:0:0:
256,160,145437,1,0,0:0:0:0:
384,160,145595,1,8,0:0:0:0:
144,160,145753,1,0,0:0:0:0:
368,192,145911,6,0,P|368:256|320:288,1,125.999996154785,8|0,0:3|0:0,0:0:0:0:
160,256,146227,2,0,L|112:208,1,62.9999980773926,10|0,0:0|0:0,0:0:0:0:
336,192,146385,2,0,L|288:144,1,62.9999980773926,2|0,0:0|0:0,0:0:0:0:
80,96,146542,6,0,L|208:96,1,125.999996154785,12|0,0:3|0:0,0:0:0:0:
288,96,146779,1,0,0:0:0:0:
480,96,146858,1,8,0:0:0:0:
352,144,147016,2,0,L|336:208,1,62.9999980773926
160,240,147174,5,8,0:3:0:0:
288,336,147332,1,0,0:0:0:0:
32,336,147490,1,8,0:0:0:0:
160,240,147648,1,0,0:0:0:0:
384,160,147806,6,0,L|256:160,1,125.999996154785,8|0,0:3|0:0,0:0:0:0:
480,160,148121,1,8,0:0:0:0:
224,192,148279,1,0,0:0:0:0:
480,192,148437,6,8,P|480:256|416:288,1,125.999996154785,8|0,0:3|0:3,0:3:0:0:
352,288,148674,1,0,0:0:0:0:
176,288,148753,1,8,0:0:0:0:
304,288,148911,2,0,L|320:208,1,62.9999980773926
176,160,149069,5,8,0:3:0:0:
304,160,149227,1,0,0:0:0:0:
80,112,149385,1,8,0:0:0:0:
208,112,149542,1,0,0:0:0:0:
336,112,149700,1,8,0:3:0:0:
48,160,149858,6,0,L|32:224,1,62.9999980773926
176,240,150016,2,0,L|272:240,1,62.9999980773926,8|0,0:0|0:0,0:0:0:0:
176,208,150174,2,0,L|96:208,1,62.9999980773926
304,240,150332,5,8,0:3:0:0:
240,160,150490,1,0,0:0:0:0:
144,128,150648,1,8,0:0:0:0:
48,160,150806,1,0,0:0:0:0:
288,192,150964,5,8,0:3:0:0:
160,192,151121,1,0,0:0:0:0:
384,112,151279,1,8,0:0:0:0:
256,112,151437,1,0,0:0:0:0:
480,112,151595,6,0,L|496:176,1,62.9999980773926,12|0,0:3|0:0,0:0:0:0:
416,192,151753,2,0,L|416:256,1,62.9999980773926
336,256,151911,2,0,L|320:336,1,62.9999980773926,8|0,0:0|0:0,0:0:0:0:
416,336,152069,2,0,L|496:320,1,62.9999980773926
256,224,152227,6,0,L|240:160,1,62.9999980773926,8|0,0:3|0:0,0:0:0:0:
160,144,152385,2,0,L|224:144,1,62.9999980773926
288,144,152542,2,0,L|352:144,1,62.9999980773926,8|0,0:0|0:0,0:0:0:0:
240,256,152700,2,0,L|225:195,1,62.9999980773926
416,256,152858,6,0,L|480:240,1,62.9999980773926,12|0,0:3|0:0,0:0:0:0:
320,208,153016,2,0,L|304:144,1,62.9999980773926
384,144,153174,2,0,L|368:80,1,62.9999980773926,8|0,0:0|0:0,0:0:0:0:
288,80,153332,2,0,L|224:80,1,62.9999980773926
48,80,153490,6,0,L|32:144,1,62.9999980773926,8|0,0:3|0:0,0:0:0:0:
192,160,153648,2,0,L|208:224,1,62.9999980773926
288,240,153806,2,0,L|352:240,1,62.9999980773926,8|0,0:0|0:0,0:0:0:0:
208,240,153964,2,0,L|192:304,1,62.9999980773926,8|0,0:3|0:0,0:0:0:0:
400,304,154121,5,12,0:3:0:0:
256,304,154279,1,8,0:3:0:0:
368,272,154437,1,8,0:0:0:0:
144,272,154595,1,8,0:3:0:0:
304,144,154753,5,12,0:3:0:0:
192,144,154911,1,8,0:3:0:0:
464,192,155069,1,8,0:0:0:0:
208,192,155227,1,8,0:3:0:0:
448,176,155385,6,0,P|448:240|400:272,1,125.999996154785,2|0,0:0|0:0,0:0:0:0:
64,176,155621,2,0,P|64:240|112:272,1,125.999996154785,2|0,0:0|0:0,0:0:0:0:
320,224,155858,2,0,P|384:224|432:176,1,125.999996154785,2|0,0:0|0:0,0:0:0:0:
208,176,156095,2,0,P|144:176|96:128,1,125.999996154785,2|0,0:0|0:0,0:0:0:0:
320,128,156332,1,2,0:0:0:0:
192,96,156490,1,10,0:3:0:0:
432,192,156648,5,2,0:0:0:0:
112,96,166753,6,0,P|48:224|128:272,1,251.999992309571,2|0,0:0|0:0,0:0:0:0:
256,288,167385,1,0,0:0:0:0:
111,181,167700,2,0,L|367:181,1,251.999992309571
256,128,168253,1,0,0:0:0:0:
400,96,168490,2,0,L|272:96,1,125.999996154785
224,160,169121,5,0,0:0:0:0:
352,112,169279,2,0,L|160:112,2,188.999994232178,2|0|0,0:0|0:0|0:0,0:0:0:0:
160,160,169911,1,0,0:0:0:0:
288,192,170227,1,2,0:0:0:0:
128,192,170385,1,2,0:0:0:0:
256,256,170542,2,0,L|448:256,2,188.999994232178,2|0|0,0:0|0:0|0:0,0:0:0:0:
400,224,171174,2,0,P|388:125|240:128,1,251.999992309571
144,160,171806,6,0,B|129:148|81:148|33:196|33:196|65:244|128:256|177:244,1,251.999992309571,2|0,0:0|0:0,0:0:0:0:
288,256,172437,1,0,0:0:0:0:
144,256,172753,6,0,P|144:128|256:64,1,251.999992309571,0|2,0:0|0:0,0:0:0:0:
384,128,173306,2,0,B|314:86|314:86|304:160|208:144,1,188.999994232178
384,128,173700,1,0,0:0:0:0:
224,160,174016,5,0,0:0:0:0:
352,224,174174,1,0,0:0:0:0:
176,224,174332,2,0,P|81:224|67:303,2,188.999994232178,2|0|0,0:0|0:0|0:0,0:0:0:0:
352,352,174964,1,0,0:0:0:0:
160,160,175437,5,0,0:0:0:0:
336,160,175595,2,0,P|431:160|445:81,2,188.999994232178,2|0|0,0:0|0:0|0:0,0:0:0:0:
160,32,176227,2,0,P|112:160|160:288,1,270
192,288,176858,6,0,L|336:288,1,125.999996154785,2|0,3:2|0:0,0:0:0:0:
160,256,177174,2,0,P|144:192|160:128,1,125.999996154785,0|0,3:0|0:0,0:0:0:0:
320,144,177490,2,0,L|192:128,1,125.999996154785,0|0,3:0|0:0,0:0:0:0:
336,224,177806,2,0,L|464:240,1,125.999996154785,0|0,3:0|0:0,0:0:0:0:
176,192,178121,6,0,P|176:256|240:288,1,125.999996154785,2|0,3:2|0:0,0:0:0:0:
352,320,178437,2,0,L|480:336,1,125.999996154785,0|0,3:0|0:0,0:0:0:0:
144,288,178753,2,0,P|80:272|48:208,1,125.999996154785,0|0,3:0|0:0,0:0:0:0:
192,224,179069,2,0,P|256:208|288:144,1,125.999996154785,0|0,3:0|0:0,0:0:0:0:
48,144,179385,6,0,P|45:211|80:272,1,125.999996154785,2|0,3:2|0:0,0:0:0:0:
224,288,179700,1,0,3:0:0:0:
70,262,179858,1,0,0:0:0:0:
288,288,180016,2,0,L|416:272,1,125.999996154785,0|0,3:0|0:0,0:0:0:0:
256,224,180332,2,2,L|128:208,1,125.999996154785,2|2,3:2|0:0,0:0:0:0:
480,192,180648,5,2,3:2:0:0:
320,144,180806,1,0,0:0:0:0:
432,208,180964,1,0,3:0:0:0:
304,208,181121,1,0,0:0:0:0:
480,224,181279,6,0,P|480:288|416:320,1,125.999996154785,2|0,3:2|0:0,0:0:0:0:
256,320,181595,2,0,P|301:269|370:271,1,125.999996154785,2|0,3:2|0:0,0:0:0:0:
224,272,181911,6,0,L|208:208,1,62.9999980773926,2|0,0:0|0:0,0:0:0:0:
288,192,182069,2,0,L|304:128,1,62.9999980773926
224,112,182227,2,0,L|160:112,1,62.9999980773926,2|0,0:0|0:0,0:0:0:0:
256,112,182385,2,0,L|272:48,1,62.9999980773926
80,128,182543,6,0,L|64:192,1,62.9999980773926,2|0,0:0|0:0,0:0:0:0:
144,192,182701,2,0,L|128:256,1,62.9999980773926
304,288,182859,2,0,L|320:224,1,62.9999980773926,2|0,0:0|0:0,0:0:0:0:
240,208,183016,2,0,L|224:144,1,62.9999980773926
48,192,183174,6,0,L|32:128,1,62.9999980773926,2|0,0:0|0:0,0:0:0:0:
112,112,183332,1,0,0:0:0:0:
256,112,183411,2,0,L|320:112,2,62.9999980773926,2|0|0,0:0|0:0|0:0,0:0:0:0:
112,160,183648,2,0,L|96:240,1,62.9999980773926,2|0,0:0|0:0,0:0:0:0:
256,240,183806,6,0,L|272:304,1,62.9999980773926,2|0,0:0|0:0,0:0:0:0:
352,304,183964,2,0,L|432:304,1,62.9999980773926
226,176,184122,2,0,L|162:160,1,62.9999980773926,2|0,0:0|0:0,0:0:0:0:
226,176,184279,2,0,L|290:192,1,62.9999980773926,2|0,0:0|0:0,0:0:0:0:
112,160,184437,6,0,L|128:224,1,62.9999980773926,2|0,0:0|0:0,0:0:0:0:
224,240,184595,2,0,L|288:240,1,62.9999980773926,0|2,0:0|0:0,0:0:0:0:
400,224,184753,2,0,L|384:160,1,62.9999980773926
112,160,184911,2,0,L|96:96,1,62.9999980773926,2|0,0:0|0:0,0:0:0:0:
288,176,185069,6,0,L|304:240,1,62.9999980773926,2|0,0:0|0:0,0:0:0:0:
208,240,185227,2,0,L|192:304,1,62.9999980773926
336,336,185385,2,0,L|416:336,1,62.9999980773926
176,352,185542,2,0,L|96:352,1,62.9999980773926
336,336,185700,5,4,0:0:0:0:
192,288,186016,5,0,0:0:0:0:
320,288,186332,1,0,0:0:0:0:
48,160,186648,6,0,P|52:259|96:288,1,157.5,8|0,0:0|0:0,0:0:0:0:
128,288,186964,6,0,L|240:288,1,112.5,12|0,1:3|0:0,0:0:0:0:
94,287,187279,2,0,P|41:238|43:172,1,112.5,2|0,3:3|0:0,0:0:0:0:
176,192,187595,2,0,L|288:192,1,112.5,2|0,3:0|0:0,0:0:0:0:
96,192,187911,2,0,P|43:241|45:307,1,112.5,2|0,3:3|0:0,0:0:0:0:
288,288,188227,6,0,L|400:288,1,112.5,12|0,1:3|0:0,0:0:0:0:
240,240,188542,2,0,L|368:240,2,112.5,0|0|0,3:0|0:0|3:0,0:0:0:0:
480,240,189016,1,0,0:0:0:0:
176,208,189174,6,2,L|160:160,1,37.5,2|2,3:1|0:0,0:0:0:0:
288,176,189279,2,2,L|304:128,1,37.5
112,256,189385,2,2,L|96:320,1,37.5
320,224,189490,6,0,P|336:288|288:304,1,112.5,12|0,1:3|0:0,0:0:0:0:
144,320,189806,2,0,L|272:320,1,112.5,0|0,3:0|0:0,0:0:0:0:
112,272,190121,1,0,3:0:0:0:
256,240,190279,2,0,L|272:128,1,112.5,0|0,0:0|3:0,0:0:0:0:
32,192,190595,6,0,L|144:192,1,112.5,12|0,0:3|3:0,0:0:0:0:
368,192,190911,2,0,P|384:256|352:272,1,112.5,0|0,0:0|3:0,0:0:0:0:
176,272,191227,2,0,L|288:272,2,112.5,0|0|0,0:0|3:0|0:0,0:0:0:0:
464,160,191700,2,0,P|460:259|368:288,1,196.875,2|0,3:0|0:0,0:0:0:0:
351,288,192016,6,0,L|207:288,1,112.5,12|0,1:3|0:0,0:0:0:0:
96,288,192332,1,0,3:0:0:0:
239,288,192490,1,0,0:0:0:0:
128,272,192648,1,0,3:0:0:0:
96,160,192806,1,0,0:0:0:0:
320,96,192964,1,0,3:0:0:0:
192,96,193121,1,0,0:0:0:0:
320,96,193279,5,12,3:0:0:0:
80,144,193437,1,0,0:0:0:0:
80,176,193516,1,0,0:0:0:0:
96,208,193595,1,0,3:0:0:0:
320,224,193753,1,0,0:0:0:0:
48,192,193911,6,0,P|48:272|128:320,1,168.75,0|0,3:0|0:0,0:0:0:0:
320,320,194227,1,0,3:0:0:0:
192,320,194385,1,0,0:0:0:0:
416,272,194542,6,0,L|432:160,1,112.5,12|0,1:3|0:0,0:0:0:0:
256,160,194779,1,0,0:0:0:0:
240,192,194858,1,0,3:0:0:0:
256,224,194937,1,0,0:0:0:0:
431,160,195016,5,0,0:0:0:0:
304,160,195174,2,0,L|288:272,1,112.5,0|0,3:0|0:0,0:0:0:0:
128,320,195490,2,0,P|112:256|128:208,1,112.5,0|12,3:0|0:3,0:0:0:0:
288,192,195806,5,0,3:0:0:0:
160,160,195963,1,0,0:0:0:0:
208,144,196042,1,0,0:0:0:0:
256,160,196121,1,0,3:0:0:0:
128,192,196279,1,0,0:0:0:0:
256,192,196437,2,0,P|288:256|272:304,1,112.5,0|0,3:0|0:0,0:0:0:0:
144,320,196753,1,0,0:0:0:0:
80,336,196832,1,0,0:0:0:0:
144,320,196911,1,0,0:0:0:0:
208,304,196990,1,0,0:0:0:0:
464,288,197069,6,0,P|464:224|416:192,1,112.5,12|0,0:3|0:0,0:0:0:0:
208,192,197385,2,0,L|320:192,1,112.5,8|0,0:3|0:0,0:0:0:0:
96,160,197700,1,8,0:3:0:0:
224,160,197858,1,0,0:0:0:0:
448,192,198016,1,8,0:3:0:0:
304,192,198174,2,0,L|288:256,1,56.25
112,272,198332,6,0,P|112:213|160:192,1,112.5,12|0,0:3|0:0,0:0:0:0:
304,192,198569,1,0,0:0:0:0:
320,224,198648,1,8,0:3:0:0:
304,256,198727,1,0,0:0:0:0:
144,288,198806,1,0,0:0:0:0:
256,304,198964,5,8,0:3:0:0:
32,224,199121,1,0,0:0:0:0:
256,224,199279,2,0,L|192:208,1,56.25,8|0,0:3|0:0,0:0:0:0:
32,192,199437,2,0,L|16:128,1,56.25
208,96,199595,6,0,P|208:160|160:192,1,112.5,12|8,0:3|0:0,0:0:0:0:
352,304,199832,1,0,0:0:0:0:
256,304,199911,1,8,0:3:0:0:
272,256,199990,1,0,0:0:0:0:
176,256,200069,1,8,0:0:0:0:
400,256,200227,2,0,P|438:224|400:192,1,112.5,8|8,0:3|0:0,0:0:0:0:
160,160,200542,5,8,0:3:0:0:
288,160,200700,1,8,0:0:0:0:
144,208,200858,5,12,0:3:0:0:
128,256,200937,1,0,0:0:0:0:
144,304,201016,1,8,0:0:0:0:
288,304,201095,1,0,0:0:0:0:
256,272,201174,1,8,0:3:0:0:
208,272,201253,1,0,0:0:0:0:
400,256,201332,1,8,0:0:0:0:
256,224,201490,2,0,P|240:176|256:112,1,112.5,8|8,0:3|0:0,0:0:0:0:
384,112,201806,1,8,0:3:0:0:
128,192,201964,1,8,0:3:0:0:
352,240,202121,5,12,0:3:0:0:
464,240,202279,1,8,0:3:0:0:
336,192,202437,1,8,0:3:0:0:
480,192,202595,1,8,0:3:0:0:
160,144,202753,5,12,0:3:0:0:
48,144,202911,1,8,0:3:0:0:
176,192,203069,1,8,0:3:0:0:
32,192,203227,1,8,0:3:0:0:
320,192,203385,5,12,0:3:0:0:
192,192,203542,1,8,0:3:0:0:
416,240,203700,1,8,0:3:0:0:
96,240,203858,1,8,0:3:0:0:
368,192,204016,5,12,0:3:0:0:
144,192,204173,1,8,0:3:0:0:
480,240,204331,1,8,0:3:0:0:
32,240,204489,1,8,0:3:0:0:
256,240,204648,6,0,L|320:224,1,56.25,0|0,0:3|0:3,0:3:0:0:
464,208,204806,2,0,L|480:144,1,56.25,0|0,0:3|0:3,0:3:0:0:
288,160,204964,2,0,L|224:144,1,56.25,0|0,0:3|0:3,0:3:0:0:
432,160,205121,2,0,L|448:96,1,56.25,0|0,0:3|0:3,0:3:0:0:
288,96,205279,6,0,L|224:80,1,56.25,0|0,0:3|0:3,0:3:0:0:
48,160,205437,2,0,L|32:224,1,56.25,0|0,0:3|0:3,0:3:0:0:
256,224,205595,2,0,L|256:288,1,56.25,0|0,0:3|0:3,0:3:0:0:
464,288,205753,2,0,L|480:352,1,56.25,0|0,0:3|0:3,0:3:0:0:
150,334,205911,6,0,L|182:286,1,56.25,4|0,0:0|0:0,0:0:0:0:
360,221,206069,2,0,L|376:125,1,56.25
120,126,206227,2,0,L|88:78,1,56.25
274,59,206385,2,0,L|354:27,1,56.25
464,160,206542,2,0,L|480:224,1,56.25
216,153,206700,2,0,L|152:121,1,56.25
408,187,206858,2,0,P|410:282|344:331,1,168.75,8|0,0:0|0:0,0:0:0:0:
145,310,207174,6,0,L|17:310,1,125.999996154785,12|0,0:3|0:0,0:0:0:0:
256,224,207490,1,8,0:0:0:0:
128,224,207648,1,0,0:0:0:0:
352,192,207806,2,0,L|480:192,1,125.999996154785,8|0,0:3|0:0,0:0:0:0:
256,128,208122,1,8,0:0:0:0:
480,128,208280,1,0,0:0:0:0:
256,304,208437,6,0,P|320:272|352:208,1,125.999996154785,8|0,0:3|0:0,0:0:0:0:
176,240,208674,1,0,0:0:0:0:
144,192,208753,1,8,0:0:0:0:
128,144,208832,1,0,0:0:0:0:
288,128,208911,1,0,0:0:0:0:
64,192,209069,2,0,P|32:128|80:96,1,125.999996154785,8|0,0:3|0:0,0:0:0:0:
288,96,209385,2,0,L|296:160,1,62.9999980773926,8|0,0:0|0:0,0:0:0:0:
128,224,209542,2,0,L|48:224,1,62.9999980773926
208,288,209700,6,0,P|272:256|304:208,1,125.999996154785,8|0,0:3|0:0,0:0:0:0:
96,144,209937,2,0,L|80:80,1,62.9999980773926,0|8,0:0|0:0,0:0:0:0:
320,80,210174,1,0,0:0:0:0:
80,160,210332,2,0,L|112:288,1,125.999996154785,8|0,0:3|0:0,0:0:0:0:
352,272,210648,1,8,0:0:0:0:
224,272,210806,1,0,0:0:0:0:
464,224,210964,6,0,L|480:96,1,125.999996154785,8|0,0:3|0:0,0:0:0:0:
256,96,211200,2,0,L|240:160,1,62.9999980773926,0|8,0:0|0:0,0:0:0:0:
479,98,211437,1,0,0:0:0:0:
256,224,211595,2,0,P|192:256|160:304,1,125.999996154785,8|0,0:3|0:0,0:0:0:0:
320,320,211911,2,0,L|464:320,1,125.999996154785,8|0,0:0|0:0,0:0:0:0:
160,240,212227,6,0,L|144:112,1,125.999996154785,8|0,0:3|0:0,0:0:0:0:
416,112,212542,2,0,L|272:112,1,125.999996154785,8|0,0:0|0:0,0:0:0:0:
64,144,212858,1,8,0:3:0:0:
288,144,213016,1,0,0:0:0:0:
32,224,213174,1,8,0:0:0:0:
176,224,213332,2,0,L|112:224,1,62.9999980773926
256,224,213490,6,0,P|304:272|320:336,1,125.999996154785,8|0,0:3|0:0,0:0:0:0:
112,352,213727,2,0,L|96:288,1,62.9999980773926,0|8,0:0|0:0,0:0:0:0:
320,352,213964,1,0,0:0:0:0:
48,192,214121,2,0,L|192:192,1,125.999996154785,8|0,0:3|0:0,0:0:0:0:
448,192,214437,1,8,0:0:0:0:
224,192,214595,1,0,0:0:0:0:
448,304,214753,5,8,0:3:0:0:
432,256,214832,1,0,0:0:0:0:
400,224,214911,1,0,0:0:0:0:
224,208,214990,5,0,0:3:0:0:
240,160,215069,1,8,0:0:0:0:
272,128,215148,1,0,0:0:0:0:
464,192,215227,1,0,0:0:0:0:
240,272,215385,2,0,P|192:240|160:176,1,125.999996154785,8|0,0:3|0:0,0:0:0:0:
384,192,215700,2,0,P|432:160|464:96,1,125.999996154785,8|0,0:0|0:0,0:0:0:0:
160,240,216016,6,0,P|96:240|48:192,1,125.999996154785,12|0,0:0|0:0,0:0:0:0:
192,128,216253,2,0,L|352:128,1,125.999996154785,12|0,0:0|0:0,0:0:0:0:
144,192,216490,2,0,L|80:192,1,62.9999980773926,12|0,0:0|0:0,0:0:0:0:
288,192,216648,6,0,P|331:226|282:257,1,125.999996154785,0|8,0:0|0:3,0:0:0:0:
144,192,216964,6,2,L|128:144,1,37.5,10|2,0:0|0:0,0:0:0:0:
256,160,217069,2,2,L|272:112,1,37.5
80,80,217175,2,2,L|64:144,1,37.5
224,192,217279,6,0,P|304:192|304:240,1,125.999996154785,12|0,0:3|0:0,0:0:0:0:
160,256,217595,2,0,L|32:256,1,125.999996154785,8|0,0:0|0:0,0:0:0:0:
256,224,217911,1,8,0:3:0:0:
32,224,218069,1,0,0:0:0:0:
320,288,218227,1,8,0:0:0:0:
193,224,218385,2,0,L|257:224,1,62.9999980773926
416,224,218542,6,0,P|432:160|384:144,1,125.999996154785,8|0,0:3|0:0,0:0:0:0:
224,160,218779,1,0,0:0:0:0:
256,160,218858,1,8,0:0:0:0:
336,160,218937,1,0,0:0:0:0:
128,160,219016,1,0,0:0:0:0:
256,208,219174,2,0,P|322:207|334:265,1,125.999996154785,8|0,0:3|0:0,0:0:0:0:
176,256,219490,1,8,0:0:0:0:
400,304,219648,1,0,0:0:0:0:
128,160,219806,6,0,P|128:224|176:256,1,125.999996154785,8|0,0:3|0:0,0:0:0:0:
320,256,220042,2,0,L|336:192,1,62.9999980773926,0|8,0:0|0:0,0:0:0:0:
176,192,220200,1,0,0:0:0:0:
16,192,220279,1,0,0:0:0:0:
240,144,220437,2,0,L|384:144,1,125.999996154785,8|0,0:3|0:0,0:0:0:0:
128,240,220753,1,8,0:0:0:0:
384,240,220911,1,0,0:0:0:0:
128,240,221069,6,0,L|304:240,1,125.999996154785,8|0,0:3|0:0,0:0:0:0:
288,208,221306,1,0,0:0:0:0:
256,176,221385,2,0,L|128:176,1,125.999996154785,8|0,0:0|0:0,0:0:0:0:
384,192,221700,2,0,P|436:193|464:256,1,125.999996154785,8|0,0:3|0:0,0:0:0:0:
288,272,222016,1,8,0:0:0:0:
208,210,222174,1,0,0:0:0:0:
432,192,222332,6,0,L|304:192,1,125.999996154785,8|0,0:3|0:0,0:0:0:0:
160,112,222648,2,0,L|288:112,1,125.999996154785,8|0,0:0|0:0,0:0:0:0:
64,112,222964,2,0,P|48:176|64:240,1,125.999996154785,8|0,0:3|0:0,0:0:0:0:
320,192,223279,1,8,0:0:0:0:
192,240,223437,2,0,L|176:304,1,62.9999980773926
400,352,223595,6,0,P|432:288|400:272,1,125.999996154785,8|0,0:3|0:0,0:0:0:0:
256,224,223832,1,0,0:0:0:0:
176,192,223911,2,0,L|304:192,1,125.999996154785,8|0,0:0|0:0,0:0:0:0:
48,192,224227,2,0,P|32:128|96:112,1,125.999996154785,8|0,0:3|0:0,0:0:0:0:
320,160,224542,2,0,L|384:160,1,62.9999980773926,8|0,0:0|0:0,0:0:0:0:
191,159,224700,2,0,L|176:96,1,62.9999980773926
384,192,224858,6,0,P|384:272|352:288,1,125.999996154785,12|0,0:3|0:0,0:0:0:0:
207,221,225095,2,0,L|191:157,2,62.9999980773926,0|12|0,0:0|0:0|0:0,0:0:0:0:
351,288,225332,1,8,0:3:0:0:
128,352,225490,2,0,P|71:211|144:160,1,251.999992309571,8|8,0:3|0:0,0:0:0:0:
382,162,225964,2,0,L|366:226,1,62.9999980773926,8|0,0:3|0:0,0:0:0:0:
160,240,226121,6,0,L|144:176,1,62.9999980773926,2|0,0:0|0:0,0:0:0:0:
224,144,226279,1,0,0:0:0:0:
368,144,226358,2,0,L|448:144,2,62.9999980773926,2|0|0,0:0|0:0|0:0,0:0:0:0:
160,192,226595,2,0,L|144:270,1,62.9999980773926,2|0,0:0|0:0,0:0:0:0:
352,304,226753,6,0,L|368:240,1,62.9999980773926,2|0,0:0|0:0,0:0:0:0:
288,224,226911,1,0,0:0:0:0:
96,224,226990,2,0,L|80:288,2,62.9999980773926,2|0|0,0:0|0:0|0:0,0:0:0:0:
256,320,227227,2,0,L|320:320,1,62.9999980773926,2|0,0:0|0:0,0:0:0:0:
48,224,227385,6,0,P|62:149|112:128,1,135,12|0,0:3|0:0,0:0:0:0:
320,128,227700,2,0,L|176:128,1,135,8|0,0:0|0:0,0:0:0:0:
464,161,228016,2,0,P|458:225|401:256,1,135,8|0,0:3|0:0,0:0:0:0:
192,256,228332,2,0,L|336:256,1,135,8|0,0:0|0:0,0:0:0:0:
32,224,228648,6,0,P|32:279|112:304,1,135,8|0,0:3|0:0,0:0:0:0:
288,272,228964,2,0,P|285:208|224:192,1,135,8|0,0:0|0:0,0:0:0:0:
32,160,229279,2,0,L|192:160,1,135,8|0,0:3|0:0,0:0:0:0:
352,224,229595,2,0,L|208:224,1,135,10|0,0:0|0:0,0:0:0:0:
480,224,229911,6,0,P|480:288|432:336,1,135,8|0,0:3|0:0,0:0:0:0:
256,320,230227,2,0,P|256:258|320:240,1,135,8|0,0:0|0:0,0:0:0:0:
480,192,230542,2,0,L|336:192,1,135,8|0,0:3|0:0,0:0:0:0:
160,160,230858,2,0,L|304:160,1,135,8|0,0:0|0:0,0:0:0:0:
96,192,231174,6,0,P|95:266|160:288,1,135,8|0,0:3|0:0,0:0:0:0:
336,256,231490,2,0,P|337:330|272:352,1,135,8|0,0:0|0:0,0:0:0:0:
123,225,231806,2,0,L|267:225,1,135,8|0,0:3|0:0,0:0:0:0:
32,160,232121,2,0,L|112:160,1,45,10|0,0:0|0:0,0:0:0:0:
117,161,232279,2,0,L|165:161,1,45
336,336,232437,6,0,P|272:336|240:272,1,135,8|0,0:3|0:0,0:0:0:0:
480,256,232753,2,0,P|416:256|384:192,1,135,10|0,0:0|0:0,0:0:0:0:
192,192,233069,2,0,P|256:192|288:128,1,135,8|0,0:3|0:0,0:0:0:0:
48,112,233385,2,0,P|112:112|144:48,1,135,10|0,0:0|0:0,0:0:0:0:
352,176,233700,6,0,P|416:160|480:96,1,135,8|0,0:3|0:0,0:0:0:0:
224,224,234016,2,0,P|160:208|96:144,1,135,10|0,0:0|0:0,0:0:0:0:
352,176,234332,2,0,P|416:160|480:96,1,135,8|0,0:3|0:0,0:0:0:0:
192,224,234648,2,0,L|336:224,1,135,10|0,0:0|0:0,0:0:0:0:
64,224,234964,6,0,P|32:288|80:336,1,135,8|0,0:3|0:0,0:0:0:0:
320,336,235279,2,0,L|176:336,1,135,8|0,0:0|0:0,0:0:0:0:
448,304,235595,2,0,P|480:240|432:192,1,135,8|0,0:3|0:0,0:0:0:0:
192,160,235911,2,0,L|336:160,1,135,8|0,0:0|0:0,0:0:0:0:
176,240,236227,6,0,L|80:224,1,90,10|0,0:0|0:0,0:0:0:0:
304,288,236464,2,0,L|432:304,1,90,10|0,0:0|0:0,0:0:0:0:
176,240,236700,1,10,0:0:0:0:
393,299,236858,1,8,0:3:0:0:
87,225,237016,1,0,0:0:0:0:
320,192,237174,6,2,L|336:240,1,30,10|2,0:0|0:0,0:0:0:0:
208,256,237279,2,2,L|192:304,1,30
320,192,237385,2,2,L|336:240,1,30
176,192,237490,6,0,P|176:126|240:96,1,135,12|0,0:3|0:0,0:0:0:0:
400,96,237806,2,0,L|352:96,1,45,8|0,0:0|0:0,0:0:0:0:
304,96,237964,2,0,L|240:96,1,45
480,96,238121,2,0,P|480:162|416:192,1,135,8|0,0:3|0:0,0:0:0:0:
256,192,238437,1,8,0:0:0:0:
384,224,238595,1,0,0:0:0:0:
160,192,238753,6,0,P|91:191|48:144,1,135,8|0,0:3|0:0,0:0:0:0:
256,112,239069,2,0,L|304:112,1,45,8|0,0:0|0:0,0:0:0:0:
144,64,239227,2,0,L|96:64,1,45
400,192,239385,2,0,L|256:192,1,135,8|0,0:3|0:0,0:0:0:0:
112,240,239700,2,0,L|272:240,1,135,8|0,0:0|0:0,0:0:0:0:
32,208,240016,6,0,P|32:128|80:80,1,135,8|0,0:3|0:0,0:0:0:0:
256,96,240332,1,8,0:0:0:0:
112,96,240490,1,0,0:0:0:0:
352,192,240648,2,0,P|421:193|464:240,1,135,8|0,0:3|0:0,0:0:0:0:
256,272,240964,2,0,L|208:272,1,45,8|0,0:0|0:0,0:0:0:0:
368,320,241122,2,0,L|416:320,1,45
160,160,241279,6,0,L|16:144,1,135,8|0,0:3|0:0,0:0:0:0:
192,192,241595,2,0,L|208:240,1,45,8|0,0:0|0:0,0:0:0:0:
112,256,241753,2,0,L|128:304,1,45
304,336,241911,2,0,P|276:254|224:240,1,135,8|0,0:3|0:0,0:0:0:0:
32,224,242227,1,8,0:0:0:0:
160,224,242385,1,0,0:0:0:0:
416,224,242542,6,0,P|416:304|368:320,1,135,6|0,0:0|0:0,0:0:0:0:
176,320,242858,2,0,L|320:320,1,135,8|0,0:0|0:0,0:0:0:0:
80,304,243174,2,0,P|79:247|160:240,1,135,12|0,0:3|0:0,0:0:0:0:
208,256,243490,1,8,0:0:0:0:
144,228,243569,1,0,0:0:0:0:
352,288,243648,6,0,P|352:208|304:176,1,135,12|0,0:3|0:0,0:0:0:0:
160,192,243964,2,0,P|91:191|48:144,1,135,12|0,0:3|0:0,0:0:0:0:
288,112,244279,2,0,L|352:112,1,45,12|0,0:3|0:0,0:0:0:0:
144,112,244437,2,0,L|48:112,1,90,8|0,0:3|0:0,0:0:0:0:
256,192,244674,2,0,L|352:192,1,90,12|0,0:3|0:0,0:0:0:0:
112,192,244911,1,2,0:0:0:0:
145,192,246174,6,0,L|209:192,1,62.9999980773926,2|0,0:0|0:0,0:0:0:0:
352,160,246332,2,0,P|352:224|304:272,1,125.999996154785,6|0,0:0|0:0,0:0:0:0:
176,240,246569,2,0,P|176:304|224:352,1,125.999996154785,2|0,0:0|0:0,0:0:0:0:
352,160,246806,1,2,0:0:0:0:
224,160,246964,1,2,0:0:0:0:
352,160,247200,1,0,0:0:0:0:
192,192,247279,6,0,L|176:240,1,41.9999987182618,10|0,0:0|0:0,0:0:0:0:
304,240,247385,2,0,L|320:288,1,41.9999987182618
128,304,247490,2,0,L|112:256,1,41.9999987182618
318,192,247595,6,0,B|384:192|384:192|320:192,1,125.999996154785,12|0,0:3|0:0,0:0:0:0:
224,192,247832,1,0,0:0:0:0:
64,192,247911,1,8,0:0:0:0:
288,192,248069,1,0,0:0:0:0:
160,192,248227,6,0,L|144:256,1,62.9999980773926,8|0,0:3|0:0,0:0:0:0:
336,288,248385,2,0,L|400:288,1,62.9999980773926
238,323,248542,2,0,P|179:304|142:243,1,125.999996154785,8|0,0:0|0:0,0:0:0:0:
224,224,248779,1,0,0:0:0:0:
464,160,248858,6,0,P|461:227|400:256,1,125.999996154785,8|0,0:3|0:0,0:0:0:0:
336,256,249095,1,0,0:0:0:0:
128,256,249174,1,8,0:0:0:0:
256,256,249332,1,0,0:0:0:0:
32,256,249490,6,0,L|16:192,1,62.9999980773926,8|0,0:3|0:0,0:0:0:0:
112,176,249648,2,0,L|128:112,1,62.9999980773926
304,128,249806,2,0,P|304:192|256:224,1,125.999996154785,8|0,0:0|0:0,0:0:0:0:
176,224,250042,1,0,0:0:0:0:
32,304,250121,6,0,L|160:304,1,125.999996154785,8|0,0:3|0:0,0:0:0:0:
240,304,250358,1,0,0:0:0:0:
432,304,250437,1,8,0:0:0:0:
208,240,250595,6,0,B|144:240|144:240|208:240,1,125.999996154785,0|8,0:0|0:3,0:0:0:0:
288,240,250832,1,0,0:0:0:0:
432,240,250911,2,0,L|448:304,1,62.9999980773926
240,335,251069,2,0,P|240:271|288:239,1,125.999996154785,8|0,0:0|0:0,0:0:0:0:
368,239,251306,1,0,0:0:0:0:
176,256,251385,6,0,L|160:192,1,62.9999980773926,8|0,0:3|0:0,0:0:0:0:
304,192,251542,2,0,L|288:128,1,62.9999980773926
128,96,251700,1,8,0:0:0:0:
256,96,251858,1,0,0:0:0:0:
32,192,252016,1,8,0:3:0:0:
176,192,252174,1,0,0:0:0:0:
48,208,252332,2,0,L|64:272,1,62.9999980773926,8|0,0:0|0:0,0:0:0:0:
240,336,252490,2,2,L|256:288,2,41.9999987182618
63,269,252648,6,0,P|96:192|128:192,1,125.999996154785,8|0,0:3|0:0,0:0:0:0:
208,208,252885,1,0,0:0:0:0:
352,256,252964,1,8,0:0:0:0:
126,191,253121,1,0,0:0:0:0:
256,192,253279,2,0,L|240:128,1,62.9999980773926,8|0,0:3|0:0,0:0:0:0:
48,144,253437,2,0,L|32:80,1,62.9999980773926
240,130,253595,2,0,P|240:192|176:224,1,125.999996154785,8|0,0:0|0:0,0:0:0:0:
112,240,253832,1,0,0:0:0:0:
352,336,253911,6,0,P|367:278|304:256,1,125.999996154785,8|0,0:3|0:0,0:0:0:0:
112,240,254148,1,0,0:0:0:0:
32,240,254227,2,0,P|26:196|96:144,1,125.999996154785,8|0,0:0|0:0,0:0:0:0:
160,144,254464,1,0,0:0:0:0:
320,128,254542,2,0,L|336:208,1,62.9999980773926,8|0,0:3|0:0,0:0:0:0:
256,208,254700,2,0,L|240:272,1,62.9999980773926
448,352,254858,2,0,P|448:288|400:256,1,125.999996154785,8|0,0:0|0:0,0:0:0:0:
320,256,255095,1,0,0:0:0:0:
160,192,255174,6,0,L|288:192,1,125.999996154785,8|0,0:3|0:0,0:0:0:0:
144,128,255411,1,0,0:0:0:0:
64,96,255490,2,0,L|192:96,1,125.999996154785,8|0,0:0|0:0,0:0:0:0:
272,96,255727,1,0,0:0:0:0:
32,144,255806,2,0,L|48:208,1,62.9999980773926,8|0,0:3|0:0,0:0:0:0:
128,240,255964,2,0,L|176:288,1,62.9999980773926
352,320,256121,2,0,P|352:256|304:224,1,125.999996154785,8|0,0:0|0:0,0:0:0:0:
224,224,256358,1,0,0:0:0:0:
464,192,256437,6,0,L|400:192,1,62.9999980773926,12|0,0:3|0:0,0:0:0:0:
256,192,256595,2,0,L|240:128,1,62.9999980773926,2|0,0:0|0:0,0:0:0:0:
416,144,256753,2,0,L|432:80,1,62.9999980773926,10|0,0:0|0:0,0:0:0:0:
352,64,256911,1,0,0:0:0:0:
192,160,256990,2,0,L|336:160,1,125.999996154785,12|0,0:3|0:0,0:0:0:0:
480,160,257227,1,8,0:3:0:0:
256,208,257385,2,2,L|192:208,1,62.9999980773926,10|2,0:0|0:0,0:0:0:0:
272,240,257542,2,0,L|208:240,1,62.9999980773926,2|0,0:0|0:0,0:0:0:0:
416,256,257700,6,0,P|455:305|406:321,1,125.999996154785,12|0,0:3|0:0,0:0:0:0:
336,320,257937,1,0,0:0:0:0:
96,336,258016,2,0,P|57:287|106:271,1,125.999996154785,8|0,0:0|0:0,0:0:0:0:
176,272,258253,1,0,0:0:0:0:
320,240,258332,6,0,L|400:240,1,62.9999980773926,8|0,0:3|0:0,0:0:0:0:
304,208,258490,2,0,L|288:144,1,62.9999980773926
80,144,258648,2,0,P|78:210|144:224,1,125.999996154785,8|0,0:0|0:0,0:0:0:0:
208,224,258885,1,0,0:0:0:0:
48,288,258963,6,0,L|176:288,1,125.999996154785,8|0,0:3|0:0,0:0:0:0:
256,288,259200,1,0,0:0:0:0:
464,288,259279,2,0,L|336:288,1,125.999996154785,8|0,0:0|0:0,0:0:0:0:
256,288,259516,1,0,0:0:0:0:
448,208,259595,6,0,L|464:144,1,62.9999980773926,8|0,0:3|0:0,0:0:0:0:
288,224,259753,2,0,L|224:224,1,62.9999980773926
432,240,259911,2,0,P|434:174|368:160,1,125.999996154785,8|0,0:0|0:0,0:0:0:0:
304,160,260148,1,0,0:0:0:0:
144,160,260227,6,0,P|108:213|176:240,1,125.999996154785,8|0,0:3|0:0,0:0:0:0:
352,256,260464,1,0,0:0:0:0:
432,224,260543,2,0,P|432:160|368:144,1,125.999996154785,8|0,0:0|0:0,0:0:0:0:
304,160,260779,1,0,0:0:0:0:
112,192,260858,5,8,0:3:0:0:
256,224,261016,1,0,0:0:0:0:
32,176,261174,1,8,0:0:0:0:
160,192,261332,2,0,L|176:128,1,62.9999980773926
384,256,261490,6,0,L|400:320,1,62.9999980773926,8|0,0:3|0:0,0:0:0:0:
304,288,261648,2,0,L|320:352,1,62.9999980773926
464,224,261806,2,0,L|480:160,1,62.9999980773926,8|0,0:0|0:0,0:0:0:0:
256,272,261963,5,0,0:0:0:0:
208,240,262042,1,0,0:0:0:0:
192,192,262121,1,8,0:3:0:0:
208,144,262200,1,0,0:0:0:0:
256,112,262279,1,0,0:0:0:0:
304,112,262358,1,0,0:0:0:0:
144,240,262437,6,2,L|128:192,1,41.9999987182618,10|2,0:0|0:0,0:0:0:0:
256,192,262543,2,2,L|272:144,1,41.9999987182618
64,144,262648,2,2,L|48:192,1,41.9999987182618
288,224,262753,6,0,P|272:304|224:304,1,125.999996154785,12|0,0:3|0:0,0:0:0:0:
416,320,262990,2,0,L|432:256,1,62.9999980773926,0|8,0:0|0:0,0:0:0:0:
128,240,263226,1,0,0:0:0:0:
256,240,263385,1,8,0:3:0:0:
32,240,263542,1,0,0:0:0:0:
320,160,263700,2,0,L|192:160,1,125.999996154785,8|0,0:0|0:0,0:0:0:0:
112,160,263937,1,0,0:0:0:0:
256,240,264016,6,0,P|320:240|368:304,1,125.999996154785,12|0,0:3|0:0,0:0:0:0:
144,288,264253,2,0,L|128:352,1,62.9999980773926,0|8,0:0|0:0,0:0:0:0:
384,352,264489,1,0,0:0:0:0:
128,349,264647,1,8,0:3:0:0:
256,349,264805,1,0,0:0:0:0:
32,240,264963,2,0,L|176:240,1,125.999996154785,8|0,0:0|0:0,0:0:0:0:
240,240,265200,1,0,0:0:0:0:
48,192,265279,6,0,L|32:128,1,62.9999980773926,12|0,0:3|0:0,0:0:0:0:
128,112,265437,1,0,0:0:0:0:
288,112,265516,2,0,L|272:176,1,62.9999980773926,0|8,0:0|0:0,0:0:0:0:
192,208,265673,1,0,0:0:0:0:
368,208,265753,2,0,L|432:208,1,62.9999980773926
176,352,265911,6,0,L|160:288,1,62.9999980773926,12|0,0:3|0:0,0:0:0:0:
327,288,266069,2,0,L|343:224,1,62.9999980773926
128,160,266227,6,0,P|130:228|192:256,1,125.999996154785,8|0,0:0|0:0,0:0:0:0:
256,256,266463,1,0,0:0:0:0:
416,160,266542,5,6,0:2:0:0:
288,160,266700,1,2,0:2:0:0:
432,192,266858,2,2,L|448:256,1,62.9999980773926,2|2,0:2|0:2,0:2:0:0:
432,192,267015,1,0,0:2:0:0:
224,288,267095,6,0,P|224:224|288:192,1,125.999996154785,2|0,0:2|0:2,0:2:0:0:
464,192,267331,1,2,0:2:0:0:
224,192,267490,2,2,L|208:256,1,62.9999980773926,2|2,0:2|0:2,0:2:0:0:
288,272,267648,2,2,L|304:336,1,62.9999980773926,2|2,0:2|0:2,0:2:0:0:
144,352,267806,6,0,B|-16:352|-16:160|160:160,1,314.999990386963,2|0,0:0|0:0,0:0:0:0:
368,240,268279,2,0,B|528:240|528:48|352:48,1,314.999990386963,2|0,0:0|0:0,0:0:0:0:
121,163,268753,1,6,0:0:0:0:
256,192,268832,12,0,270648,0:0:0:0:
96,192,270806,5,0,0:0:0:0:
144,192,270884,1,0,0:0:0:0:
288,192,270963,1,0,0:0:0:0:
