osu file format v14

[General]
AudioFilename: click.mp3
AudioLeadIn: 0
PreviewTime: 67825
Countdown: 0
SampleSet: Soft
StackLeniency: 0.3
Mode: 0
LetterboxInBreaks: 0
WidescreenStoryboard: 0

[Editor]
Bookmarks: 31825,112715,247140
DistanceSpacing: 1.6
BeatDivisor: 4
GridSize: 4
TimelineZoom: 1.6

[Metadata]
Title:CLICK (Asterisk DnB Remix)
TitleUnicode:CLICK (Asterisk DnB Remix)
Artist:ClariS
ArtistUnicode:ClariS
Creator:Strategas
Version:xChorse's Insane
Source:ニセコイ
Tags:Nisekoi opening op xchorse electronic japanese drum and & bass asterisk works 2
BeatmapID:1773232
BeatmapSetID:445454

[Difficulty]
HPDrainRate:5.5
CircleSize:4
OverallDifficulty:7.5
ApproachRate:9
SliderMultiplier:1.3
SliderTickRate:1

[Events]
//Background and Video events
0,0,"m91lNpX.jpg",0,0
//Break Periods
2,181486,191658
//Storyboard Layer 0 (Background)
//Storyboard Layer 1 (Fail)
//Storyboard Layer 2 (Pass)
//Storyboard Layer 3 (Foreground)
//Storyboard Layer 4 (Overlay)
//Storyboard Sound Samples

[TimingPoints]
258,342.857142857143,4,2,24,40,1,0
9858,-66.6666666666667,4,2,24,70,0,0
10028,-66.6666666666667,4,2,25,55,0,0
10200,-100,4,2,25,55,0,0
10371,-100,4,2,25,55,0,0
10542,-100,4,2,25,55,0,0
11228,-100,4,2,26,20,0,0
12599,-100,4,2,26,25,0,0
13971,-100,4,2,26,35,0,0
15342,-100,4,2,26,40,0,0
16715,-66.6666666666667,4,2,26,50,0,0
18085,-66.6666666666667,4,2,26,60,0,0
19457,-66.6666666666667,4,2,26,70,0,0
20142,-66.6666666666667,4,2,26,75,0,0
20829,-100,4,2,26,75,0,0
21514,-100,4,2,25,40,0,0
21857,-100,4,2,24,60,0,0
22199,-100,4,1,24,70,0,0
32142,-100,4,1,25,70,0,0
32657,-100,4,1,24,70,0,0
40372,-100,4,1,24,70,0,0
41399,-100,4,1,24,75,0,0
42771,-100,4,1,25,75,0,0
43458,-100,4,1,24,75,0,0
44057,-100,4,2,24,5,0,0
44142,-100,4,2,24,60,0,0
53742,-100,4,2,24,50,0,0
54085,-100,4,2,25,50,0,0
55115,-66.6666666666667,4,2,25,60,0,0
55371,-66.6666666666667,4,2,25,70,0,0
55628,-66.6666666666667,4,2,25,80,0,0
55800,-100,4,2,24,60,0,0
56486,-66.6666666666667,4,2,24,60,0,0
57171,-100,4,2,24,60,0,0
57858,-66.6666666666667,4,2,25,60,0,0
58114,-66.6666666666667,4,2,25,70,0,0
58371,-66.6666666666667,4,2,25,80,0,0
58542,-66.6666666666667,4,2,24,60,0,0
58543,-100,4,2,24,60,0,0
60600,-66.6666666666667,4,2,25,60,0,0
60856,-66.6666666666667,4,2,25,70,0,0
61113,-66.6666666666667,4,2,25,80,0,0
61285,-100,4,2,24,60,0,0
65915,-133.333333333333,4,2,24,60,0,0
67799,-133.333333333333,4,2,24,30,0,0
68828,-100,4,2,24,60,0,0
78771,-100,4,2,25,60,0,0
78943,-100,4,2,24,60,0,0
89399,-100,4,2,25,65,0,0
90088,-100,4,2,24,38,0,0
90171,-100,4,2,24,42,0,0
90257,-100,4,2,24,46,0,0
90342,-100,4,2,24,50,0,0
90428,-100,4,2,24,54,0,0
90599,-100,4,2,24,62,0,0
90685,-100,4,2,24,66,0,0
90771,-100,4,1,24,80,0,0
90857,-100,4,1,24,75,0,0
91799,-100,4,1,24,75,0,0
93514,-100,4,1,24,80,0,0
93771,-100,4,1,24,80,0,0
94028,-100,4,1,24,80,0,0
94199,-100,4,1,24,75,0,0
94542,-100,4,1,24,80,0,0
94885,-100,4,1,24,75,0,0
95228,-100,4,1,24,75,0,0
95399,-100,4,1,24,75,0,0
95571,-100,4,1,24,75,0,0
96599,-100,4,1,24,80,0,0
96942,-100,4,1,24,75,0,0
98828,-100,4,1,24,75,0,0
98999,-100,4,1,24,75,0,0
102770,-100,4,1,24,75,0,0
104485,-100,4,1,24,80,0,0
104913,-100,4,2,24,5,0,0
104999,-100,4,1,24,80,0,0
105170,-100,4,1,24,75,0,0
105514,-100,4,1,24,80,0,0
105857,-100,4,1,24,75,0,0
107570,-100,4,1,24,80,0,0
107913,-100,4,1,24,75,0,0
111342,-100,4,1,25,75,0,0
112028,-100,4,1,24,75,0,0
112628,-100,4,2,25,5,0,0
112714,-100,4,2,24,60,0,0
122314,-100,4,2,24,50,0,0
122657,-100,4,2,25,50,0,0
123686,-66.6666666666667,4,2,25,60,0,0
123942,-66.6666666666667,4,2,25,70,0,0
124199,-66.6666666666667,4,2,25,80,0,0
124371,-100,4,2,24,60,0,0
125057,-66.6666666666667,4,2,24,60,0,0
125742,-100,4,2,24,60,0,0
126429,-66.6666666666667,4,2,25,60,0,0
126685,-66.6666666666667,4,2,25,70,0,0
126942,-66.6666666666667,4,2,25,80,0,0
127114,-100,4,2,24,60,0,0
129171,-66.6666666666667,4,2,25,60,0,0
129428,-66.6666666666667,4,2,25,70,0,0
129685,-66.6666666666667,4,2,25,80,0,0
129858,-100,4,2,24,60,0,0
134486,-125,4,2,24,60,0,0
136372,-125,4,2,24,30,0,0
137399,-100,4,2,24,60,0,0
147342,-100,4,2,25,60,0,0
147770,-100,4,2,24,60,0,0
157971,-100,4,2,25,65,0,0
158657,-100,4,2,24,60,0,0
159342,-100,4,2,24,50,0,0
168942,-100,4,2,24,60,0,0
169285,-100,4,2,25,60,0,0
169714,-100,4,2,24,60,0,0
181286,-133.333333333333,4,2,24,50,0,0
192257,-100,4,2,24,40,0,0
197742,-133.333333333333,4,2,24,45,0,0
199114,-100,4,2,24,50,0,0
200485,-100,4,2,24,55,0,0
202199,-100,4,2,25,55,0,0
202542,-100,4,2,24,60,0,0
203228,-100,4,1,24,80,0,0
203314,-100,4,1,24,75,0,0
204128,-100,4,2,24,5,0,0
204257,-100,4,1,24,75,0,0
205285,-100,4,1,24,75,0,0
205971,-100,4,1,24,80,0,0
206999,-100,4,1,24,80,0,0
207342,-100,4,1,24,75,0,0
209057,-100,4,1,24,80,0,0
209399,-100,4,1,24,75,0,0
216942,-100,4,1,24,80,0,0
217628,-100,4,1,24,75,0,0
217971,-100,4,1,24,80,0,0
218314,-100,4,1,24,75,0,0
220028,-100,4,1,24,80,0,0
220371,-100,4,1,24,75,0,0
223799,-100,4,1,25,75,0,0
224485,-100,4,1,24,75,0,0
225171,-100,4,2,24,50,0,0
234771,-100,4,2,24,60,0,0
235114,-100,4,2,25,60,0,0
235542,-100,4,2,24,60,0,0
236142,-100,4,2,24,50,0,0
249858,-111.111111111111,4,2,24,50,0,0
251229,-125,4,2,24,50,0,0
252600,-142.857142857143,4,2,24,50,0,0
253972,-166.666666666667,4,2,24,50,0,0
255343,-200,4,2,24,50,0,0
256715,-250,4,2,24,50,0,0

[Colours]
Combo1 : 105,162,224
Combo2 : 240,85,85
Combo3 : 77,236,244
Combo4 : 211,48,48

[HitObjects]
125,95,258,5,6,0:0:0:0:
121,114,429,1,2,0:0:0:0:
117,133,600,2,0,L|113:211,1,65,2|2,0:0|0:0,0:0:0:0:
178,262,943,2,0,P|220:272|253:298,3,65,2|2|2|2,0:0|0:0|0:0|0:0,0:0:0:0:
319,324,1629,6,0,L|315:245,1,65,2|2,0:0|0:0,0:0:0:0:
400,224,1971,2,0,L|403:145,1,65,2|2,0:0|0:0,0:0:0:0:
342,90,2315,2,0,P|300:80|267:54,3,65,2|2|2|2,0:0|0:0|0:0|0:0,0:0:0:0:
190,66,3000,5,2,0:0:0:0:
186,85,3171,1,2,0:0:0:0:
182,104,3343,2,0,L|178:182,1,65,2|2,0:0|0:0,0:0:0:0:
122,240,3686,2,0,P|93:224|61:218,3,65,2|2|2|2,0:0|0:0|0:0|0:0,0:0:0:0:
52,309,4372,5,2,0:0:0:0:
71,313,4543,1,2,0:0:0:0:
90,317,4714,2,0,L|168:320,1,65,2|2,0:0|0:0,0:0:0:0:
225,262,5057,2,0,P|230:230|246:201,3,65,2|2|2|2,0:0|0:0|0:0|0:0,0:0:0:0:
314,140,5743,5,2,0:0:0:0:
318,121,5914,1,2,0:0:0:0:
322,102,6086,2,0,P|327:65|343:28,1,65,2|2,0:0|0:0,0:0:0:0:
212,87,6429,2,0,P|207:50|191:13,1,65,2|2,0:0|0:0,0:0:0:0:
348,74,6772,2,0,P|362:39|387:7,1,65,2|2,0:0|0:0,0:0:0:0:
446,93,7115,5,2,0:0:0:0:
450,112,7286,1,2,0:0:0:0:
454,131,7458,2,0,P|459:168|475:205,1,65,2|2,0:0|0:0,0:0:0:0:
344,146,7801,2,0,P|339:183|323:220,1,65,2|2,0:0|0:0,0:0:0:0:
482,159,8144,2,0,P|496:193|521:225,1,65,2|2,0:0|0:0,0:0:0:0:
466,295,8486,5,2,0:0:0:0:
447,299,8657,1,2,0:0:0:0:
428,303,8829,2,0,L|349:306,1,65,2|2,0:0|0:0,0:0:0:0:
265,206,9172,2,0,L|343:209,1,65,2|2,0:0|0:0,0:0:0:0:
405,324,9515,2,0,L|326:327,1,65,2|2,0:0|0:0,0:0:0:0:
195,267,9858,6,0,P|172:197|207:133,1,146.250005578995,6|0,0:0|0:0,0:0:0:0:
218,128,10200,1,10,0:0:0:0:
150,34,10372,1,10,0:0:0:0:
150,34,10543,2,0,P|184:30|231:44,1,65,10|0,0:0|0:0,0:0:0:0:
297,117,10886,2,0,P|265:129|216:128,1,65,2|0,0:0|0:0,0:0:0:0:
154,221,11229,5,14,0:0:0:0:
154,221,11315,1,8,0:0:0:0:
154,221,11400,1,10,0:0:0:0:
154,221,11486,1,8,0:0:0:0:
154,221,11572,2,0,P|157:254|152:272,3,32.5,10|8|10|8,0:0|0:0|0:0|0:0,0:0:0:0:
230,280,11915,2,0,P|227:313|232:331,3,32.5,10|8|10|8,0:0|0:0|0:0|0:0,0:0:0:0:
302,253,12258,2,0,P|302:236|298:220,3,32.5,10|8|10|8,0:0|0:0|0:0|0:0,0:0:0:0:
382,309,12600,5,10,0:0:0:0:
382,309,12686,1,8,0:0:0:0:
382,309,12771,1,10,0:0:0:0:
382,309,12857,1,8,0:0:0:0:
382,309,12943,2,0,P|415:306|433:311,3,32.5,10|8|10|8,0:0|0:0|0:0|0:0,0:0:0:0:
441,233,13286,2,0,P|474:236|492:231,3,32.5,10|8|10|8,0:0|0:0|0:0|0:0,0:0:0:0:
414,161,13629,2,0,P|397:160|381:164,3,32.5,10|8|10|8,0:0|0:0|0:0|0:0,0:0:0:0:
463,100,13972,5,14,0:0:0:0:
450,79,14057,1,8,0:0:0:0:
433,62,14143,1,10,0:0:0:0:
411,50,14229,1,8,0:0:0:0:
388,45,14315,2,0,L|361:78,3,32.5,10|8|10|8,0:0|0:0|0:0|0:0,0:0:0:0:
294,49,14658,2,0,L|287:91,3,32.5,10|8|10|8,0:0|0:0|0:0|0:0,0:0:0:0:
214,99,15000,2,0,L|229:138,3,32.5,10|8|10|8,0:0|0:0|0:0|0:0,0:0:0:0:
136,84,15343,5,10,0:0:0:0:
124,104,15428,1,8,0:0:0:0:
118,127,15514,1,10,0:0:0:0:
119,152,15600,1,8,0:0:0:0:
125,176,15686,2,0,L|167:182,3,32.5,10|8|10|8,0:0|0:0|0:0|0:0,0:0:0:0:
176,255,16029,2,0,L|215:239,3,32.5,10|8|10|8,0:0|0:0|0:0|0:0,0:0:0:0:
259,300,16372,2,0,L|286:267,3,32.5,10|8|10|8,0:0|0:0|0:0|0:0,0:0:0:0:
353,243,16715,6,0,L|364:178,3,48.750001859665,14|8|10|8,0:0|0:0|0:0|0:0,0:0:0:0:
301,137,17058,2,0,L|290:72,3,48.750001859665,10|8|10|8,0:0|0:0|0:0|0:0,0:0:0:0:
225,42,17400,2,0,P|199:47|149:33,3,48.750001859665,10|8|10|8,0:0|0:0|0:0|0:0,0:0:0:0:
137,106,17743,1,10,0:0:0:0:
155,137,17828,1,8,0:0:0:0:
160,173,17914,1,10,0:0:0:0:
150,208,18000,1,8,0:0:0:0:
128,237,18086,6,0,L|73:228,1,48.750001859665,14|8,0:0|0:0,0:0:0:0:
186,306,18258,1,10,0:0:0:0:
218,287,18343,1,8,0:0:0:0:
254,282,18429,1,10,0:0:0:0:
289,292,18515,1,8,0:0:0:0:
317,315,18601,2,0,L|308:369,1,48.750001859665,10|8,0:0|0:0,0:0:0:0:
388,262,18772,2,0,L|380:213,3,48.750001859665,10|8|10|8,0:0|0:0|0:0|0:0,0:0:0:0:
321,156,19115,6,0,L|272:148,1,48.750001859665,10|8,0:0|0:0,0:0:0:0:
202,50,19286,2,0,L|250:42,1,48.750001859665,10|8,0:0|0:0,0:0:0:0:
393,58,19458,6,0,L|385:106,3,48.750001859665,14|8|10|8,0:0|0:0|0:0|0:0,0:0:0:0:
321,156,19800,1,10,0:0:0:0:
302,188,19885,1,8,0:0:0:0:
297,224,19971,1,10,0:0:0:0:
307,259,20057,1,8,0:0:0:0:
330,287,20143,2,0,L|384:278,3,48.750001859665,14|8|10|8,0:0|0:0|0:0|0:0,0:0:0:0:
269,342,20486,1,10,0:0:0:0:
237,361,20571,1,8,0:0:0:0:
201,366,20657,1,10,0:0:0:0:
166,356,20743,1,8,0:0:0:0:
138,333,20829,6,0,B|126:288|162:243|162:243|138:222|138:222|154:189|154:189|120:155|145:77,1,260,14|10,0:0|0:0,0:0:0:0:
209,22,21686,1,10,0:0:0:0:
277,107,21858,1,10,0:0:0:0:
280,139,21943,1,2,0:0:0:0:
280,171,22029,1,2,0:0:0:0:
279,204,22115,1,2,0:0:0:0:
276,236,22200,6,0,P|247:272|215:283,1,65,4|0,0:0|0:0,0:0:0:0:
180,173,22543,1,8,0:0:0:0:
345,264,22715,2,0,P|308:317|253:350,1,130,0|2,0:0|0:3,0:0:0:0:
98,295,23229,2,0,B|115:266|109:232|109:232|87:204|91:170,1,130,8|2,0:0|0:3,0:0:0:0:
144,73,23743,5,0,0:0:0:0:
180,173,23915,1,8,0:0:0:0:
65,86,24086,1,0,0:0:0:0:
184,177,24258,1,2,0:2:0:0:
204,17,24429,1,2,0:3:0:0:
188,181,24600,2,0,L|194:258,1,65,8|0,0:0|0:0,0:0:0:0:
370,289,24943,6,0,P|406:260|417:228,1,65,2|0,0:3|0:0,0:0:0:0:
307,193,25286,1,8,0:0:0:0:
398,358,25458,2,0,P|450:320|483:265,1,130,0|2,0:0|0:3,0:0:0:0:
504,81,25972,2,0,P|475:96|443:100,1,65,8|0,0:0|0:0,0:0:0:0:
307,193,26315,6,0,L|256:204,1,32.5,2|0,0:3|2:0,0:0:0:0:
382,241,26486,2,0,P|395:210|395:178,1,65,0|8,0:0|0:0,0:0:0:0:
200,151,26829,2,0,P|187:182|224:273,1,130,0|2,0:0|0:3,0:0:0:0:
363,346,27343,2,0,P|342:319|314:303,1,65,8|0,0:0|0:0,0:0:0:0:
138,331,27686,6,0,P|75:344|20:313,1,130,2|8,0:3|0:0,0:0:0:0:
7,168,28200,1,0,0:0:0:0:
90,253,28372,1,2,0:2:0:0:
60,89,28543,1,2,0:3:0:0:
94,257,28715,2,0,L|158:251,1,65,8|0,0:0|0:0,0:0:0:0:
308,177,29058,6,0,P|321:146|284:55,1,130,2|8,0:3|0:0,0:0:0:0:
159,24,29572,1,0,0:0:0:0:
238,127,29743,2,0,L|226:166,1,32.5,2|0,0:2|2:0,0:0:0:0:
135,191,29915,1,2,0:3:0:0:
260,252,30086,2,0,P|291:265|323:265,1,65,8|0,0:0|0:0,0:0:0:0:
403,106,30429,6,0,P|342:123|308:177,1,130,2|8,0:3|0:0,0:0:0:0:
324,328,30943,1,0,0:0:0:0:
400,203,31115,1,2,0:2:0:0:
260,252,31286,1,2,0:3:0:0:
404,199,31458,2,0,L|468:193,1,65,8|0,0:0|0:0,0:0:0:0:
260,252,31800,6,0,P|198:235|164:181,1,130,4|8,0:0|0:2,0:0:0:0:
194,64,32315,1,8,0:2:0:0:
317,66,32486,1,10,0:2:0:0:
317,66,32572,1,8,0:2:0:0:
317,66,32658,1,2,0:3:0:0:
179,44,32829,1,8,0:0:0:0:
255,160,33000,1,8,0:0:0:0:
145,242,33172,6,0,P|152:287|174:313,1,65,4|0,0:2|0:0,0:0:0:0:
255,160,33515,1,8,0:0:0:0:
71,231,33687,2,0,P|76:295|107:351,1,130,0|2,0:0|0:3,0:0:0:0:
260,254,34200,2,0,B|292:272|333:249|333:249|368:243|405:271,1,130,8|2,0:0|0:3,0:0:0:0:
433,327,34715,5,0,0:0:0:0:
405,173,34887,1,8,0:0:0:0:
511,293,35058,1,0,0:0:0:0:
401,169,35230,1,2,0:2:0:0:
351,329,35401,1,2,0:3:0:0:
397,165,35572,2,0,L|391:88,1,65,8|0,0:0|0:0,0:0:0:0:
244,100,35915,6,0,P|215:136|183:147,1,65,4|0,0:0|0:0,0:0:0:0:
148,37,36258,1,8,0:0:0:0:
313,128,36430,2,0,P|275:180|220:213,1,130,0|2,0:0|0:3,0:0:0:0:
84,308,36944,2,0,P|99:279|103:247,1,65,8|0,0:0|0:0,0:0:0:0:
146,99,37287,6,0,L|114:105,1,32.5,2|0,0:3|2:0,0:0:0:0:
221,146,37458,2,0,P|233:116|234:84,1,65,0|8,0:0|0:0,0:0:0:0:
38,56,37801,2,0,P|24:118|55:173,1,130,0|2,0:0|0:3,0:0:0:0:
201,252,38315,2,0,P|181:226|153:209,1,65,8|0,0:0|0:0,0:0:0:0:
194,339,38658,6,0,P|254:320|286:265,1,130,4|0,0:2|0:0,0:0:0:0:
262,132,39172,1,0,0:0:0:0:
366,302,39343,2,0,L|504:289,1,130,8|2,0:0|0:2,0:0:0:0:
362,173,39858,1,2,0:3:0:0:
287,266,40029,1,2,0:2:0:0:
473,188,40200,6,0,P|473:149|449:100,1,65,2|0,0:3|0:0,0:0:0:0:
350,49,40543,1,2,0:3:0:0:
350,49,40629,1,2,0:3:0:0:
350,49,40715,1,8,0:0:0:0:
251,144,40886,2,0,P|253:175|250:188,2,32.5,2|8|2,0:2|0:0|0:3,0:0:0:0:
166,62,41229,1,8,0:0:0:0:
166,62,41314,1,2,0:3:0:0:
166,62,41400,6,0,P|130:70|91:67,1,65,8|2,0:0|0:3,0:0:0:0:
14,209,41743,2,0,P|46:209|78:217,1,65,8|2,0:0|0:3,0:0:0:0:
251,144,42086,1,8,0:0:0:0:
131,158,42258,1,2,0:3:0:0:
181,63,42429,1,8,0:0:0:0:
208,249,42600,1,2,0:3:0:0:
208,249,42686,1,2,0:3:0:0:
208,249,42772,6,0,P|256:259|311:240,2,97.5,8|8|8,0:2|0:2|0:2,0:0:0:0:
131,158,43458,1,2,0:3:0:0:
128,135,43543,1,2,0:3:0:0:
128,113,43629,1,2,0:3:0:0:
129,90,43715,1,2,0:3:0:0:
131,67,43800,2,0,P|157:50|215:41,1,65,8|0,0:0|0:0,0:0:0:0:
297,167,44143,6,0,P|360:169|421:123,1,130,4|8,0:0|0:0,0:0:0:0:
420,3,44658,1,0,0:0:0:0:
334,71,44829,1,2,0:0:0:0:
233,13,45000,1,2,0:3:0:0:
332,59,45172,1,8,0:0:0:0:
297,167,45343,6,0,L|288:305,1,130,2|0,0:0|0:0,0:0:0:0:
167,318,45858,1,8,0:0:0:0:
205,225,46029,1,0,0:0:0:0:
69,281,46200,1,2,0:0:0:0:
100,160,46372,1,2,0:3:0:0:
171,322,46543,1,8,0:0:0:0:
96,156,46715,6,0,L|104:26,1,130,2|0,0:0|0:0,0:0:0:0:
221,18,47229,2,0,P|256:56|286:69,1,65,8|0,0:0|0:0,0:0:0:0:
248,164,47572,2,0,P|197:175|171:194,1,65,2|2,0:0|0:3,0:0:0:0:
135,287,47915,1,8,0:0:0:0:
320,243,48086,6,0,L|449:251,1,130,2|0,0:0|0:0,0:0:0:0:
426,67,48600,1,8,0:0:0:0:
512,168,48772,1,0,0:0:0:0:
315,125,48943,1,2,0:0:0:0:
449,251,49115,1,2,0:3:0:0:
426,67,49286,1,8,0:0:0:0:
320,243,49458,1,2,0:0:0:0:
320,243,49543,1,2,0:0:0:0:
320,243,49629,6,0,L|227:259,1,65,2|0,0:3|0:0,0:0:0:0:
160,119,49972,2,0,L|171:183,1,65,8|0,0:0|0:0,0:0:0:0:
147,296,50315,1,2,0:0:0:0:
253,173,50486,1,2,0:3:0:0:
159,322,50658,1,8,0:0:0:0:
85,194,50829,6,0,B|103:132|56:131|89:64,1,130,2|0,0:0|0:0,0:0:0:0:
233,92,51343,2,0,L|143:107,1,65,8|0,0:0|0:0,0:0:0:0:
85,194,51686,1,2,0:0:0:0:
158,26,51858,1,2,0:3:0:0:
192,197,52029,1,8,0:0:0:0:
25,132,52200,6,0,P|0:197|26:257,1,130,2|0,0:0|0:0,0:0:0:0:
150,337,52715,2,0,P|118:288|94:277,1,65,8|0,0:0|0:0,0:0:0:0:
204,179,53058,2,0,P|262:175|283:160,1,65,2|2,0:0|0:3,0:0:0:0:
368,102,53400,1,8,0:0:0:0:
284,72,53572,1,0,0:0:0:0:
356,193,53743,6,0,L|347:340,1,130,4|10,0:0|0:0,0:0:0:0:
255,353,54258,1,8,0:0:0:0:
173,294,54429,2,0,L|166:249,2,32.5,10|0|8,0:0|0:0|0:0,0:0:0:0:
272,255,54772,1,2,0:0:0:0:
291,223,54857,1,2,0:0:0:0:
296,187,54943,1,2,0:0:0:0:
286,152,55029,1,2,0:0:0:0:
263,124,55115,6,0,B|242:147|213:155|213:155|185:110|207:69,2,146.250005578995,12|12|12,0:0|0:0|0:0,0:0:0:0:
337,64,55800,1,8,0:0:0:0:
265,4,55972,1,0,0:0:0:0:
263,124,56143,1,2,0:0:0:0:
406,129,56315,1,8,0:3:0:0:
406,129,56400,1,8,0:3:0:0:
406,129,56486,6,0,B|444:117|483:136|483:136|496:176|470:209,1,146.250005578995,12|0,0:3|0:0,0:0:0:0:
465,204,56829,1,8,0:0:0:0:
395,279,57000,1,0,0:0:0:0:
304,220,57172,2,0,L|297:252,3,32.5,2|0|2|0,0:0|0:0|0:3|0:0,0:0:0:0:
301,188,57515,1,10,0:0:0:0:
269,193,57600,1,2,0:0:0:0:
237,186,57686,1,2,0:0:0:0:
211,167,57772,1,2,0:0:0:0:
185,136,57858,6,0,B|164:159|135:167|135:167|107:122|129:81,2,146.250005578995,12|12|12,0:0|0:0|0:0,0:0:0:0:
265,97,58543,1,8,0:2:0:0:
204,227,58715,1,0,0:0:0:0:
127,84,58886,1,2,0:0:0:0:
208,231,59058,1,8,0:3:0:0:
208,231,59143,1,8,0:3:0:0:
212,235,59229,6,0,B|243:234|266:209|266:209|304:240|355:233,1,130,12|8,0:3|0:0,0:0:0:0:
434,167,59743,1,0,0:0:0:0:
306,106,59915,2,0,L|274:98,3,32.5,2|0|2|0,0:0|0:0|0:3|0:0,0:0:0:0:
335,119,60258,1,10,0:0:0:0:
352,146,60343,1,2,0:0:0:0:
357,178,60429,1,2,0:0:0:0:
348,209,60515,1,2,0:0:0:0:
328,234,60600,6,0,B|290:213|245:241|245:241|253:270|276:291,2,146.250005578995,12|12|12,0:0|0:0|0:0,0:0:0:0:
362,311,61286,1,8,0:0:0:0:
431,191,61458,1,2,0:3:0:0:
275,290,61629,2,0,P|223:280|161:280,1,97.5,2|0,0:0|0:0,0:0:0:0:
114,321,61972,6,0,B|136:277|136:277|115:229,1,97.5,4|0,0:0|0:0,0:0:0:0:
105,213,62315,1,8,0:0:0:0:
173,129,62486,2,0,L|264:120,1,65,0|2,0:0|0:0,0:0:0:0:
252,135,62743,1,2,0:0:0:0:
273,147,62828,1,2,0:3:0:0:
296,151,62914,1,2,0:0:0:0:
320,148,63000,1,10,0:0:0:0:
340,135,63086,1,2,0:0:0:0:
353,115,63172,6,0,L|340:268,1,130,4|2,0:0|0:3,0:0:0:0:
277,326,63686,1,0,0:0:0:0:
221,237,63858,1,2,0:3:0:0:
150,313,64029,2,0,P|124:332|67:343,1,65,2|0,0:3|0:0,0:0:0:0:
21,266,64372,1,8,0:0:0:0:
221,237,64543,6,0,P|251:177|223:113,1,130,4|2,0:0|0:3,0:0:0:0:
136,75,65058,1,2,0:0:0:0:
167,173,65229,1,2,0:3:0:0:
213,44,65400,1,2,0:3:0:0:
85,151,65572,1,8,0:3:0:0:
85,151,65657,1,8,0:3:0:0:
85,151,65743,1,8,0:3:0:0:
85,151,65829,1,8,0:3:0:0:
85,151,65915,6,0,B|4:155|8:265|93:295|137:238|137:203|137:203|156:204|177:216|177:216|204:181|216:146|216:146|227:179|269:197,1,438.750016736985,4|0,0:0|0:0,0:0:0:0:
267,196,67800,6,0,P|274:168|269:134,1,48.750001859665,2|0,0:0|0:0,0:0:0:0:
339,39,68143,2,0,P|359:60|390:72,1,48.750001859665,2|2,0:0|0:3,0:0:0:0:
437,180,68486,2,0,P|409:187|382:208,1,48.750001859665,8|0,0:0|0:0,0:0:0:0:
267,196,68829,6,0,P|213:179|144:172,1,97.5,4|0,0:0|0:0,0:0:0:0:
166,183,69172,2,0,P|165:215|152:244,1,65,8|0,0:0|0:0,0:0:0:0:
50,158,69515,2,0,P|61:100|80:79,1,65,2|2,0:0|0:3,0:0:0:0:
193,106,69858,1,8,0:0:0:0:
165,5,70029,1,0,0:0:0:0:
296,68,70200,6,0,B|317:63|339:46|339:46|367:58|415:67,1,97.5,2|0,0:3|0:0,0:0:0:0:
405,64,70543,1,8,0:0:0:0:
316,165,70715,1,0,0:0:0:0:
186,119,70886,2,0,P|175:149|170:181,1,65,2|2,0:0|0:3,0:0:0:0:
247,286,71229,1,8,0:0:0:0:
281,181,71400,1,0,0:0:0:0:
145,280,71572,6,0,P|105:293|42:274,1,97.5,2|0,0:3|0:0,0:0:0:0:
43,266,71915,1,8,0:0:0:0:
158,176,72086,1,0,0:0:0:0:
281,239,72258,2,0,P|291:208|297:176,1,65,2|2,0:0|0:3,0:0:0:0:
263,50,72600,1,8,0:0:0:0:
202,144,72772,1,0,0:0:0:0:
375,88,72943,6,0,P|421:103|469:112,2,97.5,2|0|0,0:3|0:0|0:0,0:0:0:0:
202,144,73629,2,0,P|169:143|140:130,1,65,2|2,0:0|0:3,0:0:0:0:
40,185,73972,2,0,P|53:214|53:246,1,65,8|0,0:0|0:0,0:0:0:0:
168,260,74315,6,0,P|185:206|192:137,1,97.5,2|0,0:3|0:0,0:0:0:0:
202,144,74658,2,0,P|234:144|263:157,1,65,8|0,0:0|0:0,0:0:0:0:
335,294,75001,2,0,P|335:261|348:232,1,65,2|2,0:0|0:3,0:0:0:0:
433,134,75343,1,8,0:0:0:0:
330,115,75515,1,0,0:0:0:0:
447,231,75686,6,0,B|452:252|469:274|469:274|457:302|454:320,1,97.5,2|0,0:3|0:0,0:0:0:0:
456,332,76029,1,8,0:0:0:0:
512,153,76200,1,0,0:0:0:0:
330,115,76372,2,0,P|298:109|267:99,1,65,2|2,0:0|0:3,0:0:0:0:
163,43,76715,1,8,0:0:0:0:
104,143,76886,1,0,0:0:0:0:
173,33,77058,6,0,P|219:19|277:24,1,97.5,2|0,0:3|0:0,0:0:0:0:
277,32,77400,1,8,0:0:0:0:
253,142,77572,1,0,0:0:0:0:
104,143,77744,2,0,P|110:174|120:205,1,65,2|2,0:0|0:3,0:0:0:0:
176,307,78086,1,8,0:0:0:0:
285,264,78257,1,0,0:0:0:0:
94,204,78429,6,0,P|78:157|69:109,2,97.5,4|0|8,0:0|0:0|0:0,0:0:0:0:
176,307,79115,1,8,0:0:0:0:
176,307,79200,1,8,0:0:0:0:
176,307,79286,1,2,0:3:0:0:
253,142,79458,1,8,0:0:0:0:
295,278,79629,1,8,0:0:0:0:
244,133,79800,6,0,P|227:79|220:10,1,97.5,4|0,0:0|0:0,0:0:0:0:
231,31,80143,2,0,P|263:30|292:17,1,65,8|0,0:0|0:0,0:0:0:0:
129,28,80486,2,0,P|71:39|50:58,1,65,2|2,0:0|0:3,0:0:0:0:
76,191,80829,1,8,0:0:0:0:
0,127,81000,1,0,0:0:0:0:
171,149,81171,6,0,B|192:144|214:127|214:127|242:139|290:148,1,97.5,2|0,0:3|0:0,0:0:0:0:
281,142,81515,1,8,0:0:0:0:
138,71,81686,1,0,0:0:0:0:
67,214,81857,2,0,P|56:244|51:276,1,65,2|2,0:0|0:3,0:0:0:0:
167,357,82200,1,8,0:0:0:0:
145,262,82371,1,0,0:0:0:0:
259,338,82543,6,0,P|299:351|362:332,1,97.5,4|0,0:0|0:0,0:0:0:0:
364,325,82886,1,8,0:0:0:0:
376,199,83058,1,0,0:0:0:0:
243,199,83229,2,0,P|212:209|180:215,1,65,2|2,0:0|0:3,0:0:0:0:
117,35,83571,1,8,0:0:0:0:
88,140,83743,1,0,0:0:0:0:
227,39,83914,6,0,P|273:54|321:63,2,97.5,2|0|0,0:3|0:0|0:0,0:0:0:0:
88,140,84600,2,0,P|55:139|26:126,1,65,2|2,0:0|0:3,0:0:0:0:
227,39,84943,2,0,P|213:68|214:100,1,65,8|0,0:0|0:0,0:0:0:0:
148,203,85286,6,0,P|163:249|170:297,1,97.5,4|0,0:0|0:0,0:0:0:0:
184,309,85629,2,0,P|216:308|245:295,1,65,2|2,0:0|0:3,0:0:0:0:
314,141,85972,2,0,P|300:170|300:202,1,65,8|0,0:0|0:0,0:0:0:0:
372,325,86314,1,2,0:0:0:0:
408,227,86486,1,2,0:3:0:0:
300,202,86657,6,0,B|281:199|253:187|253:187|231:204|210:209,2,97.5,4|0|2,0:0|0:0|0:3,0:0:0:0:
305,207,87258,1,2,0:3:0:0:
310,212,87343,2,0,L|420:222,1,97.5,8|8,0:0|0:0,0:0:0:0:
411,224,87686,1,2,0:3:0:0:
487,157,87858,1,8,0:0:0:0:
487,157,87943,1,2,0:3:0:0:
487,157,88029,5,8,0:0:0:0:
458,307,88200,1,2,0:3:0:0:
403,132,88372,5,8,0:0:0:0:
336,269,88543,1,2,0:3:0:0:
269,132,88715,5,8,0:0:0:0:
214,307,88887,1,2,0:3:0:0:
147,170,89058,5,8,0:0:0:0:
53,252,89229,1,2,0:3:0:0:
53,252,89315,1,2,0:3:0:0:
53,252,89400,6,0,P|37:298|28:346,2,97.5,12|8|8,0:0|0:0|0:0,0:0:0:0:
147,170,90086,1,2,0:3:0:0:
150,147,90171,1,2,0:3:0:0:
150,125,90257,1,2,0:3:0:0:
149,102,90343,1,2,0:3:0:0:
148,80,90428,2,0,P|187:86|230:73,1,65,10|2,0:0|0:0,0:0:0:0:
229,71,90686,1,2,0:0:0:0:
229,71,90772,6,0,P|232:105|246:133,1,65,4|0,0:0|0:0,0:0:0:0:
330,74,91115,1,8,0:0:0:0:
409,136,91286,2,0,P|431:76|408:8,1,130,0|2,0:0|0:3,0:0:0:0:
330,74,91800,2,0,L|323:150,1,65,8|0,0:0|0:0,0:0:0:0:
240,239,92143,6,0,L|234:174,1,65,2|0,0:3|0:0,0:0:0:0:
157,67,92487,1,8,0:0:0:0:
71,164,92658,1,0,0:0:0:0:
157,61,92830,1,2,0:2:0:0:
234,174,93001,1,2,0:3:0:0:
234,174,93086,1,0,0:0:0:0:
234,174,93172,2,0,L|298:168,1,65,8|0,0:0|0:0,0:0:0:0:
392,259,93515,6,0,P|389:291|375:320,1,65,2|0,0:2|0:0,0:0:0:0:
368,324,93772,1,0,0:0:0:0:
361,326,93858,1,8,0:0:0:0:
212,325,94029,2,0,P|191:268|212:202,1,130,2|2,0:2|0:3,0:0:0:0:
291,262,94543,2,0,L|296:326,1,65,8|0,0:0|0:0,0:0:0:0:
298,130,94887,6,0,L|247:141,1,32.5,2|0,0:3|2:0,0:0:0:0:
373,178,95058,2,0,P|386:147|386:115,1,65,0|8,0:0|0:0,0:0:0:0:
191,88,95401,2,0,P|178:119|215:210,1,130,0|2,0:0|0:3,0:0:0:0:
318,276,95915,2,0,P|313:242|297:214,1,65,8|0,0:0|0:0,0:0:0:0:
147,267,96258,6,0,P|84:280|29:249,1,130,2|8,0:3|0:0,0:0:0:0:
7,120,96772,1,0,0:0:0:0:
96,184,96944,1,2,0:2:0:0:
142,84,97115,1,2,0:3:0:0:
231,148,97287,2,0,L|295:142,1,65,8|0,0:0|0:0,0:0:0:0:
386,206,97630,6,0,P|417:261|403:323,1,130,2|8,0:3|0:0,0:0:0:0:
299,332,98143,2,0,P|298:348|301:365,2,32.5,0|0|2,0:0|0:0|0:2,0:0:0:0:
202,314,98486,1,2,0:3:0:0:
202,314,98572,1,0,0:0:0:0:
202,314,98658,2,0,P|198:269|181:221,1,65,8|0,0:0|0:0,0:0:0:0:
135,170,99001,5,2,0:3:0:0:
167,167,99086,1,0,0:0:0:0:
196,152,99172,1,0,0:0:0:0:
218,129,99258,1,0,0:0:0:0:
229,99,99343,2,0,L|306:82,1,65,8|0,0:0|0:0,0:0:0:0:
378,134,99687,1,0,0:0:0:0:
425,27,99858,1,2,0:3:0:0:
464,164,100030,2,0,L|468:215,2,32.5,8|0|0,0:0|0:0|0:0,0:0:0:0:
292,85,100372,6,0,P|242:96|196:127,2,97.5,2|0|2,0:3|0:0|0:3,0:0:0:0:
464,164,101058,1,2,0:2:0:0:
464,164,101144,1,8,0:0:0:0:
464,164,101230,1,2,0:3:0:0:
412,33,101401,1,8,0:0:0:0:
341,194,101572,1,8,0:0:0:0:
203,119,101743,6,0,P|171:122|142:136,1,65,4|0,0:0|0:0,0:0:0:0:
200,220,102086,1,8,0:0:0:0:
137,299,102257,2,0,P|194:320|260:299,1,130,0|2,0:0|0:3,0:0:0:0:
200,220,102771,2,0,L|135:214,1,65,8|2,0:0|0:2,0:0:0:0:
291,131,103115,6,0,L|355:125,1,65,2|0,0:3|0:0,0:0:0:0:
448,146,103459,1,8,0:0:0:0:
369,249,103630,1,2,0:2:0:0:
452,142,103800,1,2,0:2:0:0:
472,289,103973,1,2,0:3:0:0:
472,289,104058,1,0,0:0:0:0:
472,289,104143,2,0,L|466:353,1,65,8|0,0:0|0:0,0:0:0:0:
316,345,104486,6,0,P|284:342|255:328,1,65,2|0,0:2|0:0,0:0:0:0:
252,326,104743,1,2,0:2:0:0:
249,324,104829,1,8,0:0:0:0:
250,165,105000,2,0,P|307:144|373:165,1,130,2|2,0:2|0:3,0:0:0:0:
313,244,105514,2,0,L|248:249,1,65,8|0,0:0|0:0,0:0:0:0:
142,122,105859,6,0,L|174:116,1,32.5,2|0,0:3|2:0,0:0:0:0:
67,75,106030,2,0,P|55:105|54:137,1,65,0|8,0:0|0:0,0:0:0:0:
250,165,106373,2,0,P|264:103|233:48,1,130,2|2,0:2|0:3,0:0:0:0:
148,204,106887,2,0,P|175:220|195:246,1,65,8|0,0:0|0:0,0:0:0:0:
188,333,107230,6,0,P|248:314|280:259,1,130,2|2,0:3|0:2,0:0:0:0:
307,137,107744,1,2,0:3:0:0:
148,204,107915,2,0,L|70:211,1,65,8|0,0:0|0:0,0:0:0:0:
280,258,108258,2,0,L|344:264,1,65,2|2,0:2|0:3,0:0:0:0:
436,154,108600,6,0,P|436:115|409:66,1,65,4|2,0:0|0:3,0:0:0:0:
344,7,108943,1,0,0:0:0:0:
255,84,109115,1,2,0:3:0:0:
255,84,109201,1,2,0:3:0:0:
255,84,109287,1,8,0:0:0:0:
297,192,109458,2,0,P|299:223|296:236,2,32.5,2|8|2,0:2|0:0|0:3,0:0:0:0:
187,150,109801,1,8,0:0:0:0:
187,150,109886,1,2,0:3:0:0:
187,150,109972,5,8,0:0:0:0:
131,275,110143,1,2,0:3:0:0:
23,139,110315,5,8,0:0:0:0:
134,283,110486,1,2,0:3:0:0:
165,53,110658,5,8,0:0:0:0:
229,247,110830,1,2,0:3:0:0:
309,58,111001,5,8,0:0:0:0:
419,146,111172,1,2,0:3:0:0:
419,146,111258,1,2,0:3:0:0:
419,146,111344,6,0,P|467:156|522:137,2,97.5,8|8|8,0:2|0:2|0:2,0:0:0:0:
309,58,112030,1,2,0:3:0:0:
286,55,112115,1,2,0:3:0:0:
264,55,112201,1,2,0:3:0:0:
241,56,112287,1,2,0:3:0:0:
218,58,112372,2,0,P|201:84|192:142,1,65,8|0,0:0|0:0,0:0:0:0:
246,288,112715,6,0,P|191:317|135:289,1,130,4|8,0:0|0:0,0:0:0:0:
51,151,113230,1,0,0:0:0:0:
0,253,113401,1,2,0:0:0:0:
55,130,113572,1,2,0:3:0:0:
164,219,113744,1,8,0:0:0:0:
269,128,113915,6,0,B|257:109|227:101|227:101|149:118,1,130,2|0,0:0|0:0,0:0:0:0:
164,219,114430,1,8,0:0:0:0:
191,318,114601,1,0,0:0:0:0:
72,262,114772,1,2,0:0:0:0:
99,361,114943,1,2,0:3:0:0:
168,231,115115,1,8,0:0:0:0:
295,314,115287,6,0,P|354:324|416:285,1,130,2|0,0:0|0:0,0:0:0:0:
374,147,115801,2,0,P|365:176|378:222,1,65,8|0,0:0|0:0,0:0:0:0:
512,248,116143,2,0,P|491:225|445:213,1,65,2|2,0:0|0:3,0:0:0:0:
412,289,116487,1,8,0:0:0:0:
374,147,116658,6,0,P|319:113|256:122,1,130,2|0,0:0|0:0,0:0:0:0:
152,240,117172,1,8,0:0:0:0:
46,189,117344,1,0,0:0:0:0:
138,117,117515,1,2,0:0:0:0:
38,193,117687,1,2,0:3:0:0:
160,244,117858,1,8,0:0:0:0:
138,117,118030,1,2,0:0:0:0:
138,117,118115,1,2,0:0:0:0:
138,117,118201,6,0,L|132:21,1,65,2|0,0:3|0:0,0:0:0:0:
250,12,118543,2,0,L|245:76,1,65,8|0,0:0|0:0,0:0:0:0:
319,153,118887,1,2,0:0:0:0:
240,208,119058,1,2,0:3:0:0:
363,257,119230,1,8,0:0:0:0:
410,149,119400,6,0,P|395:100|318:69,1,130,2|0,0:0|0:0,0:0:0:0:
254,163,119915,2,0,L|344:148,1,65,8|0,0:0|0:0,0:0:0:0:
363,257,120258,1,2,0:0:0:0:
410,149,120430,1,2,0:3:0:0:
444,301,120601,1,8,0:0:0:0:
318,152,120772,6,0,L|180:129,1,130,2|0,0:0|0:0,0:0:0:0:
54,179,121287,2,0,P|76:202|106:215,1,65,8|0,0:0|0:0,0:0:0:0:
236,230,121629,2,0,P|206:242|183:266,1,65,2|2,0:0|0:3,0:0:0:0:
229,374,121972,1,8,0:0:0:0:
91,326,122144,1,0,0:0:0:0:
229,374,122315,6,0,L|376:365,1,130,4|8,0:0|0:0,0:0:0:0:
406,268,122830,1,8,0:0:0:0:
480,335,123001,2,0,L|512:339,2,32.5,2|0|8,0:0|0:0|0:0,0:0:0:0:
321,285,123344,1,2,0:0:0:0:
302,253,123429,1,0,0:0:0:0:
297,217,123515,1,8,0:0:0:0:
307,182,123601,1,2,0:0:0:0:
330,154,123686,6,0,B|413:177|413:177|448:162|452:96,2,146.250005578995,12|12|12,0:0|0:0|0:0,0:0:0:0:
259,72,124372,1,8,0:0:0:0:
195,128,124544,1,0,0:0:0:0:
128,22,124715,1,2,0:0:0:0:
38,136,124887,1,8,0:3:0:0:
38,136,124972,1,8,0:3:0:0:
38,136,125058,6,0,B|13:147|-4:171|-4:171|-16:121|14:56,1,146.250005578995,14|0,0:3|0:0,0:0:0:0:
10,69,125400,1,8,0:0:0:0:
128,22,125572,1,0,0:0:0:0:
195,128,125744,2,0,L|227:135,3,32.5,2|0|0|0,0:0|0:0|0:0|0:0,0:0:0:0:
163,131,126087,1,10,0:0:0:0:
168,163,126172,1,2,0:0:0:0:
161,195,126258,1,2,0:0:0:0:
142,221,126344,1,2,0:0:0:0:
111,247,126429,6,0,B|80:318|80:318|91:360|145:369,2,146.250005578995,12|12|12,0:0|0:0|0:0,0:0:0:0:
170,134,127115,1,8,0:0:0:0:
111,247,127287,1,0,0:0:0:0:
161,120,127458,1,2,0:0:0:0:
272,196,127630,1,8,0:3:0:0:
272,196,127715,1,8,0:3:0:0:
272,196,127801,6,0,B|288:170|326:170|326:170|364:201|415:194,1,130,12|8,0:3|0:0,0:0:0:0:
393,95,128315,1,0,0:0:0:0:
459,245,128487,2,0,L|502:253,3,32.5,2|0|2|0,0:0|0:0|0:3|0:0,0:0:0:0:
446,216,128830,1,10,0:0:0:0:
419,199,128915,1,2,0:0:0:0:
387,194,129001,1,2,0:0:0:0:
356,203,129087,1,2,0:0:0:0:
331,223,129172,6,0,B|324:306|324:306|303:338|253:328,2,146.250005578995,12|12|12,0:0|0:0|0:0,0:0:0:0:
198,152,129858,1,8,0:0:0:0:
295,100,130030,1,2,0:3:0:0:
186,156,130201,2,0,B|160:143|139:148|139:148|132:150|132:159|132:159|114:153|72:160,1,97.5,2|0,0:0|0:0,0:0:0:0:
88,163,130544,6,0,B|69:207|69:207|91:251,1,97.5,4|0,0:0|0:0,0:0:0:0:
98,261,130887,1,8,0:0:0:0:
194,334,131058,2,0,L|285:343,1,65,2|2,0:0|0:0,0:0:0:0:
273,328,131315,1,2,0:0:0:0:
294,316,131400,1,2,0:3:0:0:
317,312,131486,1,2,0:0:0:0:
341,315,131572,1,10,0:0:0:0:
361,328,131658,1,2,0:0:0:0:
374,348,131744,6,0,L|361:195,1,130,4|2,0:0|0:3,0:0:0:0:
421,142,132258,1,2,0:0:0:0:
275,174,132430,1,2,0:3:0:0:
339,64,132601,2,0,P|365:45|422:34,1,65,2|0,0:3|0:0,0:0:0:0:
270,184,132944,1,8,0:0:0:0:
135,130,133115,6,0,P|88:88|85:25,1,130,4|2,0:0|0:3,0:0:0:0:
308,67,133630,1,2,0:0:0:0:
184,47,133801,1,2,0:3:0:0:
320,59,133972,1,2,0:3:0:0:
270,184,134144,1,8,0:3:0:0:
270,184,134229,1,8,0:3:0:0:
270,184,134315,1,8,0:3:0:0:
270,184,134401,1,8,0:3:0:0:
270,184,134486,6,0,B|237:200|200:184|200:184|186:224|195:256|195:256|162:246|134:202|134:202|159:265|92:349|-21:261|35:197,1,468,4|0,0:0|0:0,0:0:0:0:
30,203,136372,6,0,P|39:171|34:132,1,52,2|0,0:0|0:0,0:0:0:0:
51,54,136715,2,0,P|72:74|103:86,1,52,2|2,0:0|0:3,0:0:0:0:
169,146,137058,2,0,P|141:154|115:175,1,52,8|0,0:0|0:0,0:0:0:0:
225,273,137401,6,0,P|242:219|249:150,1,97.5,4|0,0:0|0:0,0:0:0:0:
230,160,137744,2,0,P|198:159|169:146,1,65,8|0,0:0|0:0,0:0:0:0:
298,96,138087,2,0,P|356:107|377:126,1,65,2|2,0:0|0:3,0:0:0:0:
376,209,138430,1,8,0:0:0:0:
452,92,138601,1,0,0:0:0:0:
465,233,138772,6,0,B|460:254|443:276|443:276|455:304|464:352,1,97.5,2|0,0:3|0:0,0:0:0:0:
459,340,139115,1,8,0:0:0:0:
364,302,139286,1,0,0:0:0:0:
282,357,139458,2,0,P|249:352|219:340,1,65,2|2,0:0|0:3,0:0:0:0:
171,258,139801,1,8,0:0:0:0:
92,323,139972,1,0,0:0:0:0:
180,247,140144,6,0,P|193:207|174:144,1,97.5,2|0,0:3|0:0,0:0:0:0:
159,149,140486,1,8,0:0:0:0:
180,49,140658,1,0,0:0:0:0:
285,133,140830,2,0,P|316:143|348:149,1,65,2|2,0:0|0:3,0:0:0:0:
427,74,141172,1,8,0:0:0:0:
509,141,141344,1,0,0:0:0:0:
432,214,141515,6,0,P|417:260|408:308,2,97.5,2|0|0,0:3|0:0|0:0,0:0:0:0:
291,316,142201,2,0,P|258:315|229:302,1,65,2|2,0:0|0:3,0:0:0:0:
152,225,142544,2,0,P|181:212|213:212,1,65,8|0,0:0|0:0,0:0:0:0:
369,153,142887,6,0,P|315:136|246:129,1,97.5,2|0,0:3|0:0,0:0:0:0:
253,119,143230,2,0,P|253:87|266:58,1,65,8|0,0:0|0:0,0:0:0:0:
140,0,143572,2,0,P|153:29|153:61,1,65,2|2,0:0|0:3,0:0:0:0:
20,164,143915,1,8,0:0:0:0:
54,71,144087,1,0,0:0:0:0:
126,212,144258,6,0,B|147:217|169:234|169:234|197:222|215:219,1,97.5,2|0,0:3|0:0,0:0:0:0:
227,215,144600,1,8,0:0:0:0:
221,319,144772,1,0,0:0:0:0:
332,267,144944,2,0,P|338:235|348:204,1,65,2|2,0:0|0:3,0:0:0:0:
296,125,145287,1,8,0:0:0:0:
447,148,145458,1,0,0:0:0:0:
370,49,145630,6,0,P|330:36|267:55,1,97.5,2|0,0:3|0:0,0:0:0:0:
265,54,145972,1,8,0:0:0:0:
199,147,146143,1,0,0:0:0:0:
135,31,146316,2,0,P|104:37|73:47,1,65,2|2,0:0|0:3,0:0:0:0:
69,184,146658,1,8,0:0:0:0:
0,111,146829,1,0,0:0:0:0:
79,197,147001,6,0,P|76:246|54:292,2,97.5,4|0|8,0:0|0:0|0:0,0:0:0:0:
191,133,147687,1,2,0:0:0:0:
191,133,147772,1,8,0:0:0:0:
191,133,147858,1,2,0:3:0:0:
322,211,148030,1,8,0:0:0:0:
140,267,148201,1,8,0:0:0:0:
333,198,148372,6,0,P|387:181|456:174,1,97.5,4|0,0:0|0:0,0:0:0:0:
439,176,148715,2,0,P|440:208|453:237,1,65,8|0,0:0|0:0,0:0:0:0:
512,108,149058,2,0,P|501:50|482:29,1,65,2|2,0:0|0:3,0:0:0:0:
331,59,149401,1,8,0:0:0:0:
413,0,149572,1,0,0:0:0:0:
242,0,149743,6,0,B|221:5|199:22|199:22|171:10|123:1,1,97.5,2|0,0:3|0:0,0:0:0:0:
132,16,150086,1,8,0:0:0:0:
264,90,150258,1,0,0:0:0:0:
113,139,150429,2,0,P|102:169|97:201,1,65,2|2,0:0|0:3,0:0:0:0:
130,301,150772,1,8,0:0:0:0:
211,248,150943,1,0,0:0:0:0:
296,317,151115,6,0,P|336:330|399:311,1,97.5,4|0,0:0|0:0,0:0:0:0:
393,294,151458,1,8,0:0:0:0:
465,373,151629,1,0,0:0:0:0:
497,256,151801,2,0,P|506:225|512:193,1,65,2|2,0:0|0:3,0:0:0:0:
430,102,152143,1,8,0:0:0:0:
342,183,152315,1,0,0:0:0:0:
430,95,152486,6,0,P|421:47|405:0,2,97.5,2|0|0,0:3|0:0|0:0,0:0:0:0:
342,183,153172,2,0,P|313:169|281:169,1,65,2|2,0:0|0:3,0:0:0:0:
216,242,153515,2,0,P|216:274|229:303,1,65,8|0,0:0|0:0,0:0:0:0:
346,305,153858,6,0,P|392:290|440:283,1,97.5,4|0,0:0|0:0,0:0:0:0:
461,272,154201,2,0,P|460:240|447:211,1,65,2|2,0:0|0:3,0:0:0:0:
387,139,154544,2,0,P|358:153|326:153,1,65,8|0,0:0|0:0,0:0:0:0:
236,209,154886,1,0,0:0:0:0:
231,103,155058,1,2,0:3:0:0:
150,230,155229,6,0,B|155:251|172:273|172:273|160:301|157:320,2,97.5,4|0|0,0:0|0:0|0:0,0:0:0:0:
148,215,155829,1,2,0:3:0:0:
152,201,155915,2,0,L|42:191,1,97.5,8|8,0:0|0:0,0:0:0:0:
38,205,156258,1,2,0:3:0:0:
71,92,156430,1,8,0:0:0:0:
71,92,156515,1,2,0:3:0:0:
71,92,156601,5,8,0:0:0:0:
35,221,156772,1,2,0:3:0:0:
164,106,156944,5,8,0:0:0:0:
185,224,157115,1,2,0:3:0:0:
298,55,157286,5,8,0:0:0:0:
285,188,157458,1,2,0:3:0:0:
395,116,157629,5,8,0:0:0:0:
419,242,157801,1,2,0:3:0:0:
419,242,157887,1,2,0:3:0:0:
419,242,157972,6,0,P|465:258|513:267,2,97.5,8|8|8,0:0|0:0|0:0,0:0:0:0:
285,188,158658,1,2,0:3:0:0:
282,165,158743,1,2,0:3:0:0:
282,143,158829,1,2,0:3:0:0:
283,120,158915,1,2,0:3:0:0:
285,97,159000,2,0,P|324:103|367:90,1,65,8|0,0:0|0:0,0:0:0:0:
427,141,159343,6,0,P|437:69|388:19,1,130,4|8,0:0|0:0,0:0:0:0:
285,97,159858,1,0,0:0:0:0:
230,185,160029,1,2,0:0:0:0:
165,101,160200,1,2,0:3:0:0:
230,199,160372,2,0,P|268:218|293:220,1,65,8|0,0:0|0:0,0:0:0:0:
377,199,160715,6,0,B|387:236|365:273|365:273|360:301|370:324,2,130,2|8|2,0:3|0:0|0:0,0:0:0:0:
423,108,161572,1,2,0:3:0:0:
317,112,161743,2,0,P|279:131|254:133,1,65,8|0,0:0|0:0,0:0:0:0:
166,96,162086,6,0,P|154:126|152:242,1,130,2|8,0:3|0:0,0:0:0:0:
218,290,162600,1,0,0:0:0:0:
262,202,162772,1,2,0:0:0:0:
214,308,162943,1,2,0:3:0:0:
97,292,163115,2,0,P|32:292|23:294,1,65,8|0,0:0|0:0,0:0:0:0:
214,308,163458,6,0,P|269:339|334:343,2,130,2|8|2,0:3|0:0|0:0,0:0:0:0:
184,214,164315,1,2,0:3:0:0:
97,292,164486,1,8,0:0:0:0:
190,198,164658,6,0,L|177:58,1,130,2|0,0:0|0:0,0:0:0:0:
251,4,165172,1,8,0:0:0:0:
322,69,165343,2,0,P|354:70|386:63,1,65,0|2,0:0|0:0,0:0:0:0:
478,15,165686,1,2,0:3:0:0:
449,115,165858,1,8,0:0:0:0:
482,19,166029,1,0,0:0:0:0:
453,119,166200,6,0,B|452:147|440:174|440:174|456:196|456:196|444:230|450:264,2,130,2|8|2,0:3|0:0|0:0,0:0:0:0:
400,43,167058,1,2,0:3:0:0:
340,111,167229,1,8,0:0:0:0:
276,46,167400,1,0,0:0:0:0:
199,96,167572,6,0,P|137:122|119:122,1,65,2|0,0:3|0:0,0:0:0:0:
237,191,167915,2,0,P|228:222|229:254,1,65,8|0,0:0|0:0,0:0:0:0:
291,322,168258,1,2,0:0:0:0:
350,253,168429,1,2,0:3:0:0:
433,289,168600,2,0,L|516:277,1,65,8|0,0:0|0:0,0:0:0:0:
371,167,168943,6,0,L|288:155,1,65,4|0,0:0|0:0,0:0:0:0:
231,209,169286,1,8,0:0:0:0:
164,146,169458,1,8,0:0:0:0:
80,181,169629,2,0,L|60:219,2,32.5,10|8|2,0:0|0:0|0:3,0:0:0:0:
169,123,169972,1,8,0:0:0:0:
137,277,170143,1,8,0:0:0:0:
177,112,170315,6,0,L|333:96,2,130,4|8|2,0:0|0:0|0:0,0:0:0:0:
108,172,171172,1,2,0:3:0:0:
185,218,171343,1,8,0:0:0:0:
106,265,171515,1,0,0:0:0:0:
183,312,171686,6,0,B|216:327|248:312|248:312|285:296|328:321,2,130,2|8|2,0:3|0:0|0:0,0:0:0:0:
106,265,172543,1,2,0:3:0:0:
185,218,172714,2,0,P|201:189|206:158,1,65,8|0,0:0|0:0,0:0:0:0:
149,72,173057,6,0,P|214:72|276:54,1,130,4|8,0:0|0:0,0:0:0:0:
364,28,173571,1,0,0:0:0:0:
335,114,173743,1,2,0:0:0:0:
392,184,173914,1,2,0:3:0:0:
335,256,174086,2,0,P|270:256|261:258,1,65,8|0,0:0|0:0,0:0:0:0:
193,305,174429,6,0,P|188:240|157:184,2,130,2|8|2,0:3|0:0|0:0,0:0:0:0:
125,365,175286,1,2,0:3:0:0:
193,305,175457,1,8,0:0:0:0:
273,347,175629,1,0,0:0:0:0:
341,287,175800,1,4,0:0:0:0:
341,287,176315,1,2,0:0:0:0:
341,287,176486,2,0,L|357:198,1,65,8|0,0:0|0:0,0:0:0:0:
241,165,176829,2,0,L|252:228,1,65,2|0,0:0|0:0,0:0:0:0:
193,305,177171,6,0,B|170:304|149:294|149:294|131:307|131:307|104:297|77:302,2,97.5,2|2|2,0:3|0:3|0:3,0:0:0:0:
252,228,177858,2,0,P|274:154|196:186,1,195,8|0,0:0|0:0,0:0:0:0:
105,183,178543,6,0,P|43:209|25:209,1,65,2|0,0:3|0:0,0:0:0:0:
85,343,178886,2,0,P|83:310|92:279,1,65,2|0,0:3|0:0,0:0:0:0:
197,180,179229,2,0,P|259:206|277:206,1,65,2|0,0:3|0:0,0:0:0:0:
217,340,179572,2,0,P|218:307|209:276,1,65,2|0,0:3|0:0,0:0:0:0:
329,164,179914,6,0,L|393:173,1,65,2|2,0:3|0:3,0:0:0:0:
429,257,180257,1,2,0:3:0:0:
482,183,180429,1,2,0:3:0:0:
451,97,180600,1,2,0:3:0:0:
436,77,180685,1,2,0:3:0:0:
417,62,180771,1,2,0:3:0:0:
395,52,180857,1,2,0:3:0:0:
371,48,180943,2,0,L|306:57,1,65,8|0,0:0|0:0,0:0:0:0:
257,133,181286,5,4,0:0:0:0:
242,172,192258,5,6,0:0:0:0:
242,172,195000,5,6,0:0:0:0:
242,172,197743,6,0,P|248:225|226:289,1,97.50000371933,4|0,0:0|0:0,0:0:0:0:
345,183,198429,2,0,P|338:134|349:87,1,97.50000371933,2|0,0:3|0:0,0:0:0:0:
252,30,199115,6,0,L|105:45,1,130,4|0,0:0|0:0,0:0:0:0:
75,159,199800,2,0,L|204:145,1,130,2|0,0:3|0:0,0:0:0:0:
310,231,200486,6,0,P|318:274|310:316,1,65,4|0,0:0|0:0,0:0:0:0:
354,171,200829,2,0,P|390:195|414:231,1,65,2|0,0:3|0:0,0:0:0:0:
342,97,201172,2,0,P|384:88|426:96,1,65,2|0,0:3|0:0,0:0:0:0:
281,53,201515,2,0,P|305:16|341:-7,1,65,2|0,0:3|0:0,0:0:0:0:
209,73,201858,5,2,0:3:0:0:
257,149,202029,1,2,0:3:0:0:
202,221,202200,1,8,0:0:0:0:
253,296,202372,1,8,0:0:0:0:
188,359,202543,1,2,0:3:0:0:
166,360,202628,1,2,0:3:0:0:
144,361,202714,1,2,0:3:0:0:
123,363,202800,1,2,0:3:0:0:
101,364,202886,2,0,P|78:332|76:274,1,65,10|0,0:0|0:0,0:0:0:0:
159,148,203229,6,0,P|130:184|98:195,1,65,4|0,0:0|0:0,0:0:0:0:
64,85,203572,1,8,0:0:0:0:
208,43,203744,2,0,P|235:101|236:165,1,130,0|2,0:0|0:3,0:0:0:0:
30,231,204258,1,8,0:0:0:0:
64,85,204429,1,2,0:2:0:0:
236,165,204600,6,0,P|271:165|335:139,1,65,2|0,0:3|0:0,0:0:0:0:
410,178,204944,1,8,0:0:0:0:
317,64,205115,1,0,0:0:0:0:
463,39,205287,1,2,0:2:0:0:
418,186,205458,1,2,0:3:0:0:
418,186,205543,1,2,0:2:0:0:
418,186,205629,2,0,L|424:263,1,65,8|0,0:0|0:0,0:0:0:0:
269,224,205972,6,0,P|233:253|222:285,1,65,2|0,0:2|0:0,0:0:0:0:
226,281,206229,1,0,0:0:0:0:
229,293,206315,1,8,0:0:0:0:
346,156,206487,2,0,P|287:129|222:128,1,130,0|2,0:0|0:3,0:0:0:0:
395,248,207001,2,0,P|421:227|437:200,1,65,8|0,0:0|0:0,0:0:0:0:
361,66,207344,6,0,L|367:34,2,32.5,2|0|0,0:3|0:0|0:0,0:0:0:0:
269,224,207686,1,8,0:0:0:0:
346,156,207858,1,2,0:2:0:0:
188,151,208029,2,0,L|115:144,1,65,2|2,0:2|0:3,0:0:0:0:
11,287,208372,2,0,L|84:280,1,65,8|0,0:0|0:0,0:0:0:0:
269,224,208715,6,0,P|299:157|277:98,1,130,2|8,0:3|0:0,0:0:0:0:
179,13,209229,1,0,0:0:0:0:
188,151,209401,1,2,0:2:0:0:
310,4,209572,1,2,0:3:0:0:
192,155,209744,2,0,L|186:219,1,65,8|0,0:0|0:0,0:0:0:0:
298,336,210087,6,0,P|329:349|420:312,1,130,2|8,0:3|0:0,0:0:0:0:
512,206,210600,2,0,P|456:174|394:188,1,130,2|2,0:2|0:3,0:0:0:0:
385,202,211029,1,2,0:3:0:0:
377,217,211115,2,0,P|346:230|314:230,1,65,8|2,0:0|0:2,0:0:0:0:
202,72,211458,5,2,0:3:0:0:
169,74,211543,1,0,0:0:0:0:
140,89,211629,1,2,0:2:0:0:
118,112,211715,1,0,0:0:0:0:
107,142,211800,2,0,L|102:217,1,65,8|0,0:0|0:0,0:0:0:0:
184,327,212143,1,2,0:2:0:0:
69,324,212315,1,2,0:3:0:0:
220,209,212487,2,0,L|284:203,1,65,8|2,0:0|0:2,0:0:0:0:
449,263,212829,6,0,L|440:361,2,97.5,4|0|2,0:0|0:0|0:3,0:0:0:0:
492,107,213515,1,2,0:2:0:0:
492,107,213601,1,8,0:0:0:0:
492,107,213687,1,2,0:3:0:0:
371,162,213858,1,8,0:0:0:0:
449,263,214029,1,8,0:0:0:0:
298,231,214200,6,0,P|264:228|236:214,1,65,4|0,0:0|0:0,0:0:0:0:
295,130,214543,1,8,0:0:0:0:
161,221,214715,2,0,P|139:161|162:93,1,130,0|2,0:0|0:3,0:0:0:0:
310,39,215228,2,0,P|279:46|244:43,1,65,8|2,0:0|0:2,0:0:0:0:
74,15,215572,6,0,L|68:80,1,65,2|0,0:3|0:0,0:0:0:0:
46,246,215916,1,8,0:0:0:0:
128,180,216087,1,2,0:2:0:0:
5,147,216259,1,2,0:2:0:0:
135,267,216430,1,2,0:3:0:0:
135,267,216515,1,2,0:2:0:0:
135,267,216601,2,0,L|199:261,1,65,8|0,0:0|0:0,0:0:0:0:
293,170,216944,6,0,P|290:138|276:109,1,65,2|0,0:2|0:0,0:0:0:0:
267,98,217200,1,0,0:0:0:0:
254,92,217286,1,8,0:0:0:0:
144,30,217458,2,0,P|123:87|144:153,1,130,2|2,0:2|0:3,0:0:0:0:
254,92,217972,2,0,L|259:28,1,65,8|0,0:0|0:0,0:0:0:0:
372,184,218315,6,0,L|361:235,1,32.5,2|0,0:3|2:0,0:0:0:0:
435,128,218487,2,0,P|408:107|377:99,1,65,0|8,0:0|0:0,0:0:0:0:
296,273,218830,2,0,P|351:304|414:291,1,130,2|2,0:2|0:3,0:0:0:0:
459,186,219343,2,0,P|451:153|433:126,1,65,8|0,0:0|0:0,0:0:0:0:
296,273,219687,6,0,P|233:286|178:255,1,130,4|2,0:0|0:2,0:0:0:0:
87,157,220201,1,2,0:3:0:0:
180,92,220373,1,8,0:0:0:0:
59,47,220544,1,0,0:0:0:0:
190,97,220716,2,0,L|254:91,1,65,2|0,0:2|0:0,0:0:0:0:
430,202,221059,6,0,P|428:238|353:228,1,130,4|0,0:0|0:0,0:0:0:0:
440,74,221572,2,0,P|439:58|442:41,2,32.5,2|2|8,0:3|0:3|0:0,0:0:0:0:
334,114,221915,1,2,0:2:0:0:
334,114,222001,1,8,0:0:0:0:
334,114,222087,2,0,P|289:110|241:93,1,65,2|8,0:3|0:0,0:0:0:0:
261,99,222343,1,0,0:0:0:0:
254,90,222429,5,8,0:0:0:0:
140,187,222600,1,2,0:3:0:0:
161,60,222772,5,8,0:0:0:0:
254,222,222943,1,2,0:3:0:0:
159,70,223116,5,8,0:0:0:0:
84,283,223287,1,2,0:3:0:0:
32,172,223459,2,0,L|-19:176,3,32.5,8|0|2|0,0:0|0:0|0:3|0:0,0:0:0:0:
53,154,223801,6,0,P|64:104|95:58,2,97.5,8|8|8,0:2|0:2|0:2,0:0:0:0:
104,247,224486,1,2,0:3:0:0:
127,242,224571,1,2,0:3:0:0:
151,237,224657,1,2,0:3:0:0:
175,233,224743,1,2,0:3:0:0:
199,228,224828,1,8,0:0:0:0:
290,282,225001,1,2,0:2:0:0:
360,221,225172,6,0,P|343:167|336:98,1,97.5,4|0,0:0|0:0,0:0:0:0:
347,120,225515,2,0,P|379:119|408:106,1,65,8|0,0:0|0:0,0:0:0:0:
236,107,225858,2,0,P|178:118|157:137,1,65,2|2,0:0|0:3,0:0:0:0:
113,202,226201,1,8,0:0:0:0:
113,202,226372,1,2,0:0:0:0:
113,202,226543,6,0,B|118:223|135:245|135:245|123:273|114:321,2,97.5,2|0|0,0:3|0:0|0:0,0:0:0:0:
123,89,227229,2,0,L|217:77,1,65,2|2,0:0|0:3,0:0:0:0:
253,169,227572,2,0,L|159:157,1,65,8|0,0:0|0:0,0:0:0:0:
277,84,227915,6,0,L|371:72,1,65,2|0,0:3|0:0,0:0:0:0:
407,164,228258,2,0,L|313:152,1,65,8|0,0:0|0:0,0:0:0:0:
253,169,228600,1,2,0:0:0:0:
260,260,228772,1,2,0:3:0:0:
193,321,228943,2,0,P|157:333|110:328,1,65,8|0,0:0|0:0,0:0:0:0:
76,259,229286,6,0,P|83:221|111:183,1,65,2|0,0:3|0:0,0:0:0:0:
172,146,229629,2,0,P|164:108|136:70,1,65,8|0,0:0|0:0,0:0:0:0:
59,87,229972,1,2,0:0:0:0:
113,14,230143,1,2,0:3:0:0:
204,14,230315,2,0,L|268:22,1,65,8|0,0:0|0:0,0:0:0:0:
324,89,230658,6,0,L|230:101,1,65,2|0,0:3|0:0,0:0:0:0:
204,164,231000,2,0,L|298:176,1,65,8|0,0:0|0:0,0:0:0:0:
324,239,231343,2,0,L|230:251,1,65,2|2,0:0|0:3,0:0:0:0:
204,314,231686,2,0,L|298:326,1,65,8|0,0:0|0:0,0:0:0:0:
353,355,232029,5,2,0:3:0:0:
429,305,232201,1,0,0:0:0:0:
437,214,232372,2,0,P|429:176|401:138,1,65,8|0,0:0|0:0,0:0:0:0:
339,102,232715,2,0,P|306:101|276:90,1,65,2|2,0:2|0:3,0:0:0:0:
192,126,233058,2,0,P|167:146|150:174,1,65,8|0,0:0|0:0,0:0:0:0:
150,265,233400,5,2,0:3:0:0:
237,241,233572,1,0,0:0:0:0:
296,310,233744,2,0,L|360:302,1,65,8|0,0:0|0:0,0:0:0:0:
408,224,234086,2,0,L|344:216,1,65,2|2,0:0|0:3,0:0:0:0:
296,138,234429,2,0,L|360:130,1,65,8|0,0:0|0:0,0:0:0:0:
445,61,234772,6,0,P|400:52|364:30,1,65,4|0,0:0|0:0,0:0:0:0:
272,52,235115,2,0,P|242:39|210:34,1,65,8|8,0:0|0:0,0:0:0:0:
117,91,235458,1,8,0:0:0:0:
117,91,235543,1,8,0:0:0:0:
117,91,235629,1,2,0:3:0:0:
175,160,235800,1,8,0:0:0:0:
110,224,235972,1,8,0:0:0:0:
185,275,236143,6,0,P|239:258|308:251,1,97.5,4|0,0:0|0:0,0:0:0:0:
286,262,236486,2,0,P|287:294|300:323,1,65,8|0,0:0|0:0,0:0:0:0:
370,176,236829,2,0,P|359:118|340:97,1,65,2|2,0:0|0:3,0:0:0:0:
278,63,237172,1,8,0:0:0:0:
278,63,237343,1,0,0:0:0:0:
278,63,237514,6,0,B|257:68|235:85|235:85|207:73|159:64,2,97.5,2|0|0,0:3|0:0|0:0,0:0:0:0:
303,153,238200,2,0,L|315:247,1,65,2|2,0:0|0:3,0:0:0:0:
223,283,238543,2,0,L|235:189,1,65,8|0,0:0|0:0,0:0:0:0:
140,153,238886,6,0,L|148:217,1,65,4|0,0:0|0:0,0:0:0:0:
60,284,239229,2,0,L|68:219,1,65,8|0,0:0|0:0,0:0:0:0:
28,137,239571,1,2,0:0:0:0:
72,57,239743,1,2,0:3:0:0:
161,72,239914,2,0,P|193:71|223:60,1,65,8|0,0:0|0:0,0:0:0:0:
320,57,240257,6,0,P|313:95|285:133,1,65,2|0,0:3|0:0,0:0:0:0:
224,170,240600,2,0,P|232:208|260:246,1,65,8|0,0:0|0:0,0:0:0:0:
337,229,240943,1,2,0:0:0:0:
283,302,241114,1,2,0:3:0:0:
192,302,241286,2,0,L|128:294,1,65,8|0,0:0|0:0,0:0:0:0:
59,232,241629,6,0,P|52:177|47:161,2,65,4|0|0,0:0|0:0|0:0,0:0:0:0:
40,321,242143,1,2,0:3:0:0:
128,294,242315,2,0,P|147:223|153:147,1,130,8|0,0:0|0:0,0:0:0:0:
205,92,242829,1,2,0:3:0:0:
291,118,243000,6,0,B|298:107|306:88|306:88|324:86|336:78,2,65,2|2|0,0:0|0:3|0:0,0:0:0:0:
285,217,243515,1,2,0:3:0:0:
285,217,243601,1,2,0:3:0:0:
285,217,243686,2,0,L|384:226,1,97.5,8|8,0:0|0:0,0:0:0:0:
382,225,244029,1,2,0:3:0:0:
452,175,244201,1,8,0:0:0:0:
452,175,244286,1,2,0:3:0:0:
452,175,244372,5,8,0:0:0:0:
418,302,244543,1,2,0:3:0:0:
368,145,244715,5,8,0:0:0:0:
308,268,244886,1,2,0:3:0:0:
248,145,245058,5,8,0:0:0:0:
198,302,245230,1,2,0:3:0:0:
138,179,245401,5,8,0:0:0:0:
53,253,245572,1,2,0:3:0:0:
53,253,245658,1,2,0:3:0:0:
53,252,245743,6,0,P|45:310|24:359,2,97.5,4|2|2,0:0|0:3|0:3,0:0:0:0:
138,179,246429,1,2,0:3:0:0:
144,147,246514,1,2,0:3:0:0:
145,114,246600,1,2,0:3:0:0:
141,82,246686,1,2,0:3:0:0:
130,51,246772,2,0,P|91:36|85:35,1,32.5,8|0,0:0|0:0,0:0:0:0:
243,108,246943,2,0,P|282:93|288:92,1,32.5
138,179,247115,5,6,0:0:0:0:
134,198,247286,1,2,0:0:0:0:
130,217,247457,2,0,L|126:295,1,65,2|2,0:0|0:0,0:0:0:0:
191,346,247800,2,0,P|233:356|266:382,3,65,2|2|2|2,0:0|0:0|0:0|0:0,0:0:0:0:
328,319,248486,6,0,L|324:240,1,65,2|2,0:0|0:0,0:0:0:0:
408,218,248828,2,0,L|411:139,1,65,2|2,0:0|0:0,0:0:0:0:
347,87,249172,2,0,P|305:77|272:51,3,65,2|2|2|2,0:0|0:0|0:0|0:0,0:0:0:0:
206,47,249858,6,0,L|209:118,1,58.4999982147217,2|2,0:0|0:0,0:0:0:0:
134,138,250200,2,0,L|131:209,1,58.4999982147217,2|2,0:0|0:0,0:0:0:0:
189,256,250543,2,0,P|226:265|256:288,3,58.4999982147217,2|2|2|2,0:0|0:0|0:0|0:0,0:0:0:0:
281,337,251229,6,0,L|344:340,1,52,2|2,0:0|0:0,0:0:0:0:
354,270,251571,2,0,L|417:267,1,52,2|2,0:0|0:0,0:0:0:0:
478,272,251915,2,0,P|486:237|507:211,3,52,2|2|2|2,0:0|0:0|0:0|0:0,0:0:0:0:
474,153,252600,6,0,L|410:149,1,45.4999986114502,2|2,0:0|0:0,0:0:0:0:
405,81,252943,2,0,L|341:83,1,45.4999986114502,2|2,0:0|0:0,0:0:0:0:
310,136,253286,2,0,P|303:163|286:184,3,45.4999986114502,2|2|2|2,0:0|0:0|0:0|0:0,0:0:0:0:
229,213,253972,6,0,L|184:206,1,38.9999988098145,2|2,0:0|0:0,0:0:0:0:
144,164,254315,2,0,L|105:169,1,38.9999988098145,2|2,0:0|0:0,0:0:0:0:
58,210,254657,2,0,P|51:237|34:258,3,38.9999988098145,2|2|2|2,0:0|0:0|0:0|0:0,0:0:0:0:
103,305,255343,6,0,L|148:298,1,32.5,2|2,0:0|0:0,0:0:0:0:
188,256,255686,2,0,L|226:261,1,32.5,2|2,0:0|0:0,0:0:0:0:
274,302,256029,2,0,P|279:323|292:340,3,32.5,2|2|2|2,0:0|0:0|0:0|0:0,0:0:0:0:
357,338,256715,6,0,L|362:302,1,26,2|2,0:0|0:0,0:0:0:0:
394,292,257058,2,0,L|388:256,1,26,2|2,0:0|0:0,0:0:0:0:
365,230,257400,2,0,L|370:194,1,26,2|2,0:0|0:0,0:0:0:0:
402,184,257743,2,0,L|396:148,1,26,2|2,0:0|0:0,0:0:0:0:
377,134,258086,5,4,0:0:0:0:
256,192,258172,12,4,269058,0:0:0:0:
