osu file format v14

[General]
AudioFilename: click.mp3
AudioLeadIn: 0
PreviewTime: 67825
Countdown: 0
SampleSet: Soft
StackLeniency: 0.3
Mode: 0
LetterboxInBreaks: 0
WidescreenStoryboard: 0

[Editor]
Bookmarks: 31825,247140
DistanceSpacing: 1
BeatDivisor: 4
GridSize: 4
TimelineZoom: 1.6

[Metadata]
Title:CLICK (Asterisk DnB Remix)
TitleUnicode:CLICK (Asterisk DnB Remix)
Artist:ClariS
ArtistUnicode:ClariS
Creator:Strategas
Version:Expert
Source:ニセコイ
Tags:Nisekoi opening op xchorse electronic japanese drum and & bass asterisk works 2
BeatmapID:956825
BeatmapSetID:445454

[Difficulty]
HPDrainRate:6
CircleSize:4
OverallDifficulty:9
ApproachRate:9.3
SliderMultiplier:1.8
SliderTickRate:1

[Events]
//Background and Video events
0,0,"xhorse.jpg",0,0
//Break Periods
2,181486,191683
//Storyboard Layer 0 (Background)
//Storyboard Layer 1 (Fail)
//Storyboard Layer 2 (Pass)
//Storyboard Layer 3 (Foreground)
//Storyboard Layer 4 (Overlay)
//Storyboard Sound Samples

[TimingPoints]
258,342.857142857143,4,2,24,40,1,0
258,-200,4,2,24,40,0,0
7114,-153.846153846154,4,2,24,45,0,0
7799,-125,4,2,24,50,0,0
8485,-100,4,2,24,55,0,0
9857,-66.6666666666667,4,2,24,70,0,0
10028,-100,4,2,25,55,0,0
10285,-100,4,2,25,5,0,0
10371,-100,4,2,25,55,0,0
10457,-100,4,2,25,5,0,0
10542,-200,4,2,25,55,0,0
11142,-100,4,2,25,5,0,0
11228,-100,4,2,26,20,0,0
12599,-100,4,2,26,25,0,0
13971,-100,4,2,26,35,0,0
15342,-100,4,2,26,40,0,0
16714,-100,4,2,26,50,0,0
18085,-100,4,2,26,60,0,0
19457,-100,4,2,26,70,0,0
20142,-100,4,2,26,75,0,0
21514,-100,4,2,25,40,0,0
21857,-100,4,2,24,60,0,0
22200,-90.9090909090909,4,1,24,70,0,1
32143,-90.9090909090909,4,1,25,70,0,1
32657,-90.9090909090909,4,1,24,70,0,1
41399,-66.6666666666667,4,1,24,75,0,1
42771,-66.6666666666667,4,1,25,75,0,1
43460,-66.6666666666667,4,1,24,75,0,1
44057,-66.6666666666667,4,2,24,5,0,1
44143,-100,4,2,24,60,0,0
53742,-125,4,2,24,50,0,0
54085,-125,4,2,25,50,0,0
55114,-100,4,2,25,60,0,0
55285,-100,4,2,25,5,0,0
55371,-66.6666666666667,4,2,25,70,0,0
55542,-66.6666666666667,4,2,25,5,0,0
55628,-50,4,2,25,80,0,0
55799,-100,4,2,24,60,0,0
57857,-100,4,2,25,60,0,0
58028,-100,4,2,25,5,0,0
58114,-66.6666666666667,4,2,25,70,0,0
58285,-66.6666666666667,4,2,25,5,0,0
58371,-50,4,2,25,80,0,0
58542,-100,4,2,24,60,0,0
60599,-100,4,2,25,60,0,0
60770,-100,4,2,25,5,0,0
60856,-66.6666666666667,4,2,25,70,0,0
61027,-66.6666666666667,4,2,25,5,0,0
61113,-50,4,2,25,80,0,0
61284,-100,4,2,24,60,0,0
61628,-125,4,2,24,60,0,0
61971,-100,4,2,24,60,0,0
67799,-200,4,2,24,30,0,0
68828,-100,4,2,24,60,0,0
78771,-100,4,2,25,60,0,0
78943,-100,4,2,24,60,0,0
79199,-100,4,2,24,60,0,0
89399,-66.6666666666667,4,2,25,65,0,0
90088,-66.6666666666667,4,2,24,38,0,0
90171,-66.6666666666667,4,2,24,42,0,0
90257,-66.6666666666667,4,2,24,46,0,0
90342,-66.6666666666667,4,2,24,50,0,0
90428,-66.6666666666667,4,2,24,54,0,0
90514,-66.6666666666667,4,2,24,58,0,0
90599,-66.6666666666667,4,2,24,62,0,0
90685,-66.6666666666667,4,2,24,66,0,0
90772,-90.9090909090909,4,1,24,80,0,1
90857,-90.9090909090909,4,1,24,75,0,1
91671,-90.9090909090909,4,2,24,5,0,1
91799,-90.9090909090909,4,1,24,75,0,1
91842,-90.9090909090909,4,2,24,5,0,1
91971,-90.9090909090909,4,1,24,75,0,1
92014,-90.9090909090909,4,2,24,5,0,1
92142,-90.9090909090909,4,1,24,75,0,1
92399,-90.9090909090909,4,2,24,5,0,1
92485,-90.9090909090909,4,1,24,75,0,1
92571,-90.9090909090909,4,2,24,5,0,1
92657,-90.9090909090909,4,1,24,75,0,1
92742,-90.9090909090909,4,2,24,5,0,1
92828,-90.9090909090909,4,1,24,75,0,1
93514,-66.6666666666667,4,1,24,80,0,1
93685,-90.9090909090909,4,2,24,5,0,1
93771,-66.6666666666667,4,1,24,80,0,1
93942,-90.9090909090909,4,2,24,5,0,1
94028,-66.6666666666667,4,1,24,80,0,1
94199,-90.9090909090909,4,1,24,75,0,1
94542,-66.6666666666667,4,1,24,80,0,1
94885,-90.9090909090909,4,1,24,75,0,1
95142,-90.9090909090909,4,2,24,5,0,1
95228,-90.9090909090909,4,1,24,75,0,1
95314,-90.9090909090909,4,2,24,5,0,1
95399,-90.9090909090909,4,1,24,75,0,1
95485,-90.9090909090909,4,2,24,5,0,1
95571,-90.9090909090909,4,1,24,75,0,1
96514,-90.9090909090909,4,2,24,5,0,1
96599,-66.6666666666667,4,1,24,80,0,1
96942,-90.9090909090909,4,1,24,75,0,1
98742,-90.9090909090909,4,2,24,5,0,1
98828,-90.9090909090909,4,1,24,75,0,1
98914,-90.9090909090909,4,2,24,5,0,1
98999,-90.9090909090909,4,1,24,75,0,1
102642,-90.9090909090909,4,2,24,5,0,1
102770,-90.9090909090909,4,1,24,75,0,1
102813,-90.9090909090909,4,2,24,5,0,1
102942,-90.9090909090909,4,1,24,75,0,1
102985,-90.9090909090909,4,2,24,5,0,1
103113,-90.9090909090909,4,1,24,75,0,1
103370,-90.9090909090909,4,2,24,5,0,1
103456,-90.9090909090909,4,1,24,75,0,1
103542,-90.9090909090909,4,2,24,5,0,1
103628,-90.9090909090909,4,1,24,75,0,1
103713,-90.9090909090909,4,2,24,5,0,1
103799,-90.9090909090909,4,1,24,75,0,1
104485,-66.6666666666667,4,1,24,80,0,1
104656,-90.9090909090909,4,2,24,5,0,1
104742,-66.6666666666667,4,1,24,80,0,1
104913,-90.9090909090909,4,2,24,5,0,1
104999,-66.6666666666667,4,1,24,80,0,1
105170,-90.9090909090909,4,1,24,75,0,1
105514,-66.6666666666667,4,1,24,80,0,1
105857,-90.9090909090909,4,1,24,75,0,1
106113,-90.9090909090909,4,2,24,5,0,1
106199,-90.9090909090909,4,1,24,75,0,1
106285,-90.9090909090909,4,2,24,5,0,1
106370,-90.9090909090909,4,1,24,75,0,1
106456,-90.9090909090909,4,2,24,5,0,1
106542,-90.9090909090909,4,1,24,75,0,1
107485,-90.9090909090909,4,2,24,5,0,1
107570,-66.6666666666667,4,1,24,80,0,1
107913,-90.9090909090909,4,1,24,75,0,1
111342,-66.6666666666667,4,1,25,75,0,1
112028,-66.6666666666667,4,1,24,75,0,1
112628,-66.6666666666667,4,2,25,5,0,1
112715,-100,4,2,24,60,0,0
122314,-125,4,2,24,50,0,0
122657,-100,4,2,25,50,0,0
123685,-100,4,2,25,60,0,0
123857,-100,4,2,25,5,0,0
123942,-66.6666666666667,4,2,25,70,0,0
124114,-66.6666666666667,4,2,25,5,0,0
124199,-50,4,2,25,80,0,0
124371,-100,4,2,24,60,0,0
126428,-100,4,2,25,60,0,0
126600,-100,4,2,25,5,0,0
126685,-66.6666666666667,4,2,25,70,0,0
126857,-66.6666666666667,4,2,25,5,0,0
126942,-50,4,2,25,80,0,0
127114,-100,4,2,24,60,0,0
129171,-100,4,2,25,60,0,0
129342,-100,4,2,25,5,0,0
129428,-66.6666666666667,4,2,25,70,0,0
129599,-66.6666666666667,4,2,25,5,0,0
129685,-50,4,2,25,80,0,0
129857,-100,4,2,24,60,0,0
136371,-200,4,2,24,30,0,0
137399,-100,4,2,24,60,0,0
147342,-100,4,2,25,60,0,0
147770,-100,4,2,24,60,0,0
157971,-66.6666666666667,4,2,25,65,0,0
158657,-100,4,2,24,60,0,0
159342,-111.111111111111,4,2,24,50,0,0
168942,-111.111111111111,4,2,24,60,0,0
169285,-111.111111111111,4,2,25,60,0,0
169714,-111.111111111111,4,2,24,60,0,0
170399,-111.111111111111,4,2,24,50,0,0
192257,-200,4,2,24,40,0,0
197742,-200,4,2,24,45,0,0
199114,-200,4,2,24,50,0,0
200485,-200,4,2,24,55,0,0
202199,-200,4,2,25,55,0,0
202542,-200,4,2,24,60,0,0
203229,-90.9090909090909,4,1,24,80,0,1
203314,-90.9090909090909,4,1,24,75,0,1
204128,-90.9090909090909,4,2,24,5,0,1
204257,-90.9090909090909,4,1,24,75,0,1
204299,-90.9090909090909,4,2,24,5,0,1
204428,-90.9090909090909,4,1,24,75,0,1
204471,-90.9090909090909,4,2,24,5,0,1
204599,-90.9090909090909,4,1,24,75,0,1
204857,-90.9090909090909,4,2,24,5,0,1
204942,-90.9090909090909,4,1,24,75,0,1
205028,-90.9090909090909,4,2,24,5,0,1
205114,-90.9090909090909,4,1,24,75,0,1
205199,-90.9090909090909,4,2,24,5,0,1
205285,-90.9090909090909,4,1,24,75,0,1
205971,-66.6666666666667,4,1,24,80,0,1
206142,-90.9090909090909,4,2,24,5,0,1
206228,-66.6666666666667,4,1,24,80,0,1
206399,-90.9090909090909,4,2,24,5,0,1
206485,-66.6666666666667,4,1,24,80,0,1
206657,-90.9090909090909,4,1,24,75,0,1
206999,-66.6666666666667,4,1,24,80,0,1
207342,-90.9090909090909,4,1,24,75,0,1
207599,-90.9090909090909,4,2,24,5,0,1
207685,-90.9090909090909,4,1,24,75,0,1
207771,-90.9090909090909,4,2,24,5,0,1
207857,-90.9090909090909,4,1,24,75,0,1
207942,-90.9090909090909,4,2,24,5,0,1
208028,-90.9090909090909,4,1,24,75,0,1
208971,-90.9090909090909,4,2,24,5,0,1
209057,-66.6666666666667,4,1,24,80,0,1
209399,-90.9090909090909,4,1,24,75,0,1
211199,-90.9090909090909,4,2,24,5,0,1
211285,-90.9090909090909,4,1,24,75,0,1
211371,-90.9090909090909,4,2,24,5,0,1
211457,-90.9090909090909,4,1,24,75,0,1
215099,-90.9090909090909,4,2,24,5,0,1
215228,-90.9090909090909,4,1,24,75,0,1
215271,-90.9090909090909,4,2,24,5,0,1
215399,-90.9090909090909,4,1,24,75,0,1
215442,-90.9090909090909,4,2,24,5,0,1
215571,-90.9090909090909,4,1,24,75,0,1
215828,-90.9090909090909,4,2,24,5,0,1
215914,-90.9090909090909,4,1,24,75,0,1
215999,-90.9090909090909,4,2,24,5,0,1
216085,-90.9090909090909,4,1,24,75,0,1
216171,-90.9090909090909,4,2,24,5,0,1
216257,-90.9090909090909,4,1,24,75,0,1
216942,-66.6666666666667,4,1,24,80,0,1
217114,-90.9090909090909,4,2,24,5,0,1
217199,-66.6666666666667,4,1,24,80,0,1
217371,-90.9090909090909,4,2,24,5,0,1
217457,-66.6666666666667,4,1,24,80,0,1
217628,-90.9090909090909,4,1,24,75,0,1
217971,-66.6666666666667,4,1,24,80,0,1
218314,-90.9090909090909,4,1,24,75,0,1
218571,-90.9090909090909,4,2,24,5,0,1
218657,-90.9090909090909,4,1,24,75,0,1
218742,-90.9090909090909,4,2,24,5,0,1
218828,-90.9090909090909,4,1,24,75,0,1
218914,-90.9090909090909,4,2,24,5,0,1
218999,-90.9090909090909,4,1,24,75,0,1
219942,-90.9090909090909,4,2,24,5,0,1
220028,-66.6666666666667,4,1,24,80,0,1
220371,-90.9090909090909,4,1,24,75,0,1
223799,-66.6666666666667,4,1,25,75,0,1
224485,-66.6666666666667,4,1,24,75,0,1
225172,-111.111111111111,4,2,24,50,0,0
232714,-100,4,2,24,50,0,0
233399,-90.9090909090909,4,2,24,50,0,0
234771,-66.6666666666667,4,2,24,60,0,0
235114,-100,4,2,25,60,0,0
235542,-100,4,2,24,60,0,0
236142,-111.111111111111,4,2,24,50,0,0
247114,-200,4,2,24,35,0,0

[Colours]
Combo1 : 254,233,112
Combo2 : 255,163,70
Combo3 : 77,236,244
Combo4 : 154,255,53

[HitObjects]
114,339,258,6,0,L|116:284,1,45,6|0,0:0|0:0,0:0:0:0:
202,255,600,2,0,L|200:200,1,45,2|0,0:0|0:0,0:0:0:0:
118,162,943,2,0,L|120:107,1,45,2|0,0:0|0:0,0:0:0:0:
206,78,1286,2,0,L|204:23,1,45,2|0,0:0|0:0,0:0:0:0:
287,128,1629,6,0,L|289:173,1,45,2|0,0:0|0:0,0:0:0:0:
380,201,1972,2,0,L|378:256,1,45,2|0,0:0|0:0,0:0:0:0:
286,269,2315,2,0,L|288:324,1,45,2|0,0:0|0:0,0:0:0:0:
379,340,2658,2,0,L|377:395,1,45,2|0,0:0|0:0,0:0:0:0:
213,374,3000,6,0,L|148:369,1,45,2|0,0:0|0:0,0:0:0:0:
107,296,3343,1,2,0:0:0:0:
107,296,3515,1,0,0:0:0:0:
201,277,3686,2,0,L|266:282,1,45,2|0,0:0|0:0,0:0:0:0:
311,358,4029,1,2,0:0:0:0:
311,358,4200,1,0,0:0:0:0:
339,232,4372,6,0,P|338:202|332:187,1,45,2|0,0:0|0:0,0:0:0:0:
252,84,4715,2,0,P|253:106|258:128,1,45,2|0,0:0|0:0,0:0:0:0:
244,223,5058,2,0,P|223:232|201:237,1,45,2|0,0:0|0:0,0:0:0:0:
347,92,5400,2,0,P|367:82|389:77,1,45,2|0,0:0|0:0,0:0:0:0:
252,84,5743,6,0,L|249:39,1,45,2|0,0:0|0:0,0:0:0:0:
171,134,6086,1,2,0:0:0:0:
171,134,6258,1,0,0:0:0:0:
347,92,6429,2,0,L|344:47,1,45,2|0,0:0|0:0,0:0:0:0:
293,173,6772,1,2,0:0:0:0:
293,173,6943,1,0,0:0:0:0:
154,35,7115,6,0,L|87:33,1,58.4999973220826,2|0,0:0|0:0,0:0:0:0:
248,5,7458,1,2,0:0:0:0:
248,5,7629,1,0,0:0:0:0:
171,134,7800,6,0,L|98:132,1,72,2|0,0:0|0:0,0:0:0:0:
264,104,8143,1,2,0:0:0:0:
264,104,8315,1,0,0:0:0:0:
190,229,8486,6,0,L|101:229,1,90,2|0,0:0|0:0,0:0:0:0:
283,201,8829,1,2,0:0:0:0:
283,201,9000,1,0,0:0:0:0:
219,325,9172,1,2,0:0:0:0:
219,325,9343,1,0,0:0:0:0:
357,317,9515,1,2,0:0:0:0:
357,317,9686,1,0,0:0:0:0:
250,149,9858,6,0,P|264:89|316:112,1,135.000005149842,6|2,0:0|0:0,0:0:0:0:
166,195,10200,6,0,P|155:177|149:155,1,45,10|0,0:0|0:0,0:0:0:0:
163,61,10372,2,0,P|174:41|190:26,1,45,10|0,0:0|0:0,0:0:0:0:
249,245,10543,6,0,P|182:291|98:262,1,157.5,8|0,0:0|0:0,0:0:0:0:
109,283,11229,5,14,0:0:0:0:
107,291,11315,1,8,0:0:0:0:
109,299,11400,1,10,0:0:0:0:
109,307,11486,1,8,0:0:0:0:
111,315,11572,1,10,0:0:0:0:
115,323,11658,1,8,0:0:0:0:
121,329,11743,1,10,0:0:0:0:
127,334,11829,1,8,0:0:0:0:
134,338,11915,1,10,0:0:0:0:
142,340,12000,1,8,0:0:0:0:
151,340,12086,1,10,0:0:0:0:
160,340,12172,1,8,0:0:0:0:
168,339,12258,1,10,0:0:0:0:
176,337,12343,1,8,0:0:0:0:
184,335,12429,1,10,0:0:0:0:
192,333,12515,1,8,0:0:0:0:
209,333,12600,5,10,0:0:0:0:
226,336,12686,1,8,0:0:0:0:
243,340,12772,1,10,0:0:0:0:
260,343,12858,1,8,0:0:0:0:
277,342,12943,1,10,0:0:0:0:
294,339,13029,1,8,0:0:0:0:
311,333,13115,1,10,0:0:0:0:
327,325,13200,1,8,0:0:0:0:
341,313,13286,1,10,0:0:0:0:
353,299,13372,1,8,0:0:0:0:
362,283,13458,1,10,0:0:0:0:
369,266,13543,1,8,0:0:0:0:
374,248,13629,1,10,0:0:0:0:
375,230,13715,1,8,0:0:0:0:
371,212,13800,1,10,0:0:0:0:
364,195,13886,1,8,0:0:0:0:
349,177,13972,5,14,0:0:0:0:
341,155,14058,1,8,0:0:0:0:
339,133,14143,1,10,0:0:0:0:
343,111,14229,1,8,0:0:0:0:
353,91,14315,1,10,0:0:0:0:
368,74,14400,1,8,0:0:0:0:
386,61,14486,1,10,0:0:0:0:
407,54,14572,1,8,0:0:0:0:
430,53,14658,1,10,0:0:0:0:
452,57,14743,1,8,0:0:0:0:
472,67,14829,1,10,0:0:0:0:
488,82,14915,1,8,0:0:0:0:
501,101,15000,1,10,0:0:0:0:
507,123,15086,1,8,0:0:0:0:
508,145,15172,1,10,0:0:0:0:
503,167,15258,1,8,0:0:0:0:
494,192,15343,5,10,0:0:0:0:
472,176,15429,1,8,0:0:0:0:
447,165,15515,1,8,0:0:0:0:
420,160,15601,1,8,0:0:0:0:
393,161,15686,1,10,0:0:0:0:
367,167,15772,1,8,0:0:0:0:
343,179,15858,1,8,0:0:0:0:
322,195,15944,1,8,0:0:0:0:
304,216,16029,1,10,0:0:0:0:
286,237,16114,1,8,0:0:0:0:
265,253,16200,1,8,0:0:0:0:
241,265,16286,1,8,0:0:0:0:
215,271,16372,1,10,0:0:0:0:
188,272,16457,1,8,0:0:0:0:
161,267,16543,1,8,0:0:0:0:
136,256,16629,1,8,0:0:0:0:
114,240,16715,5,12,0:0:0:0:
139,217,16800,1,8,0:0:0:0:
170,206,16886,1,8,0:0:0:0:
204,206,16972,1,8,0:0:0:0:
235,219,17057,1,10,0:0:0:0:
259,242,17143,1,8,0:0:0:0:
274,272,17229,1,8,0:0:0:0:
276,306,17315,1,8,0:0:0:0:
266,338,17400,6,0,P|245:348|209:348,3,45,10|8|10|8,0:0|0:0|0:0|0:0,0:0:0:0:
349,285,17743,2,0,P|371:287|391:297,1,45,10|8,0:0|0:0,0:0:0:0:
453,371,17915,2,0,P|473:381|495:384,1,45,10|8,0:0|0:0,0:0:0:0:
504,285,18086,5,14,0:0:0:0:
502,248,18172,1,8,0:0:0:0:
500,211,18258,1,10,0:0:0:0:
498,175,18343,1,8,0:0:0:0:
496,138,18429,1,10,0:0:0:0:
494,101,18515,1,8,0:0:0:0:
491,65,18600,2,0,B|471:61|471:61|448:68,1,45,10|8,0:0|0:0,0:0:0:0:
360,113,18772,2,0,B|340:117|340:117|317:110,1,45,10|8,0:0|0:0,0:0:0:0:
228,67,18943,1,10,0:0:0:0:
228,67,19029,1,8,0:0:0:0:
228,67,19115,2,0,B|217:84|217:84|216:108,1,45,10|8,0:0|0:0,0:0:0:0:
266,194,19286,2,0,B|270:214|270:214|263:237,1,45,10|8,0:0|0:0,0:0:0:0:
155,282,19458,5,14,0:0:0:0:
122,251,19543,1,8,0:0:0:0:
107,209,19629,1,10,0:0:0:0:
113,164,19715,1,8,0:0:0:0:
138,127,19800,2,0,P|166:125|185:129,1,45,10|8,0:0|0:0,0:0:0:0:
288,347,19972,2,0,P|260:349|241:345,1,45,10|8,0:0|0:0,0:0:0:0:
122,251,20143,6,0,L|88:264,6,22.5,14|0|8|0|10|0|8,0:0|0:0|0:0|0:0|0:0|0:0|0:0,0:0:0:0:
203,199,20486,2,0,L|237:186,6,22.5,14|0|8|0|10|0|8,0:0|0:0|0:0|0:0|0:0|0:0|0:0,0:0:0:0:
198,280,20829,1,6,0:0:0:0:
198,280,21515,5,10,0:0:0:0:
212,284,21600,1,0,0:0:0:0:
232,287,21686,1,10,0:0:0:0:
254,280,21772,1,0,0:0:0:0:
283,267,21858,5,10,0:0:0:0:
309,238,21943,1,2,0:0:0:0:
349,219,22029,1,2,0:0:0:0:
403,216,22115,1,2,0:0:0:0:
433,268,22200,6,0,P|374:207|408:100,1,198.000006042481,4|8,0:0|0:0,0:0:0:0:
468,179,22715,1,0,0:0:0:0:
277,173,22886,1,0,0:0:0:0:
368,19,23058,1,2,0:3:0:0:
436,270,23229,2,0,P|441:325|424:372,1,99.0000030212403,8|0,0:0|0:0,0:0:0:0:
468,179,23572,6,0,P|473:123|456:76,1,99.0000030212403,2|0,0:3|0:0,0:0:0:0:
180,206,23915,2,0,P|278:219|374:196,1,198.000006042481,8|2,0:0|0:2,0:0:0:0:
299,311,24429,1,2,0:3:0:0:
172,110,24600,2,0,P|163:54|181:7,1,99.0000030212403,8|0,0:0|0:0,0:0:0:0:
95,165,24943,5,2,0:3:0:0:
180,206,25115,1,0,0:0:0:0:
258,66,25286,1,8,0:0:0:0:
320,211,25458,2,0,B|297:118|381:122|343:22,1,198.000006042481,0|2,0:0|0:3,0:0:0:0:
411,182,25972,2,0,P|461:182|510:178,1,99.0000030212403,8|0,0:0|0:0,0:0:0:0:
258,66,26315,5,0,0:0:0:0:
240,263,26486,1,0,0:0:0:0:
173,21,26658,1,8,0:0:0:0:
130,243,26829,2,0,P|30:225|2:131,1,198.000006042481,0|2,0:0|0:3,0:0:0:0:
180,117,27343,2,0,P|141:147|93:153,1,99.0000030212403,8|0,0:0|0:0,0:0:0:0:
234,305,27686,6,0,L|227:207,1,99.0000030212403,2|0,0:3|0:0,0:0:0:0:
433,154,28029,2,0,L|427:362,1,198.000006042481,8|2,0:0|0:2,0:0:0:0:
356,96,28543,1,2,0:3:0:0:
333,313,28715,2,0,L|234:305,1,99.0000030212403,8|0,0:0|0:0,0:0:0:0:
85,247,29058,6,0,P|75:198|91:152,1,99.0000030212403,2|0,0:3|0:0,0:0:0:0:
232,48,29400,1,8,0:0:0:0:
232,48,29572,1,0,0:0:0:0:
265,212,29743,2,0,P|217:222|171:206,1,99.0000030212403,2|2,0:2|0:3,0:0:0:0:
232,48,30086,1,8,0:0:0:0:
232,48,30258,1,0,0:0:0:0:
335,278,30429,6,0,P|344:326|328:372,1,99.0000030212403,2|0,0:3|0:0,0:0:0:0:
359,185,30772,1,8,0:0:0:0:
427,253,30943,1,0,0:0:0:0:
249,318,31115,1,2,0:2:0:0:
452,161,31286,1,2,0:3:0:0:
193,113,31458,2,0,L|74:119,1,99.0000030212403,8|0,0:0|0:0,0:0:0:0:
249,318,31800,5,4,0:0:0:0:
249,318,32143,5,8,0:2:0:0:
282,151,32315,1,8,0:2:0:0:
345,362,32486,1,10,0:2:0:0:
371,359,32572,1,8,0:2:0:0:
397,356,32658,1,2,0:3:0:0:
190,177,32829,5,8,0:0:0:0:
421,101,33000,1,8,0:0:0:0:
345,362,33172,6,0,P|249:386|151:375,1,198.000006042481,4|8,0:0|0:0,0:0:0:0:
319,263,33686,2,0,P|416:274|512:250,1,198.000006042481,2|2,0:2|0:3,0:0:0:0:
314,169,34200,2,0,P|270:180|196:176,1,99.0000030212403,8|0,0:0|0:0,0:0:0:0:
46,72,34543,6,0,L|39:171,1,99.0000030212403,2|0,0:3|0:0,0:0:0:0:
144,357,34886,2,0,L|139:160,1,198.000006042481,8|2,0:0|0:2,0:0:0:0:
46,266,35400,1,2,0:3:0:0:
237,254,35572,1,8,0:0:0:0:
139,159,35743,1,0,0:0:0:0:
429,166,35915,5,4,0:0:0:0:
339,219,36086,1,0,0:0:0:0:
508,311,36258,1,8,0:0:0:0:
424,361,36429,2,0,B|417:291|417:291|434:233|434:233|429:166,1,198.000006042481,2|2,0:2|0:3,0:0:0:0:
240,219,36943,2,0,L|339:219,1,99.0000030212403,8|0,0:0|0:0,0:0:0:0:
412,3,37286,5,2,0:3:0:0:
429,166,37458,1,0,0:0:0:0:
189,73,37629,1,8,0:0:0:0:
183,328,37800,2,0,B|230:331|265:325|301:308|301:308|338:326|402:303,1,198.000006042481,2|2,0:2|0:3,0:0:0:0:
337,120,38315,2,0,L|339:223,1,99.0000030212403,8|0,0:0|0:0,0:0:0:0:
99,282,38658,6,0,B|65:245|62:203|84:157|84:157|117:132|142:49|91:7,1,297.000009063721,4|2,0:0|0:3,0:0:0:0:
165,212,39343,1,8,0:0:0:0:
25,77,39515,1,0,0:0:0:0:
25,77,39600,1,0,0:0:0:0:
25,77,39686,1,2,0:2:0:0:
31,347,39858,1,2,0:3:0:0:
88,153,40029,5,2,0:2:0:0:
120,383,40200,1,2,0:3:0:0:
31,230,40372,1,2,0:2:0:0:
245,254,40543,1,2,0:3:0:0:
294,260,40629,1,2,0:3:0:0:
343,264,40715,1,8,0:0:0:0:
181,132,40886,1,2,0:2:0:0:
181,132,40972,1,8,0:0:0:0:
181,132,41058,1,2,0:3:0:0:
363,170,41229,1,8,0:0:0:0:
412,164,41315,1,2,0:3:0:0:
461,160,41400,5,12,0:0:0:0:
410,332,41572,1,2,0:3:0:0:
279,122,41743,5,8,0:0:0:0:
228,294,41915,1,2,0:3:0:0:
97,84,42086,5,8,0:0:0:0:
228,294,42258,1,2,0:3:0:0:
279,122,42429,5,8,0:0:0:0:
410,332,42600,1,2,0:3:0:0:
410,332,42686,1,2,0:3:0:0:
410,332,42772,6,0,L|436:187,1,135.000005149842,8|0,0:2|0:0,0:0:0:0:
374,90,43029,2,0,L|349:222,1,135.000005149842,8|0,0:2|0:0,0:0:0:0:
329,347,43286,1,8,0:2:0:0:
164,225,43458,5,2,0:3:0:0:
170,192,43543,1,2,0:3:0:0:
176,159,43629,1,2,0:3:0:0:
182,126,43715,1,2,0:3:0:0:
188,93,43800,2,0,B|239:73|281:87|281:87|325:117|374:106|416:69,1,202.500007724762,8|0,0:0|0:0,0:0:0:0:
336,8,44143,6,0,P|333:98|341:197,1,180,4|8,0:0|0:0,0:0:0:0:
379,275,44658,1,0,0:0:0:0:
249,215,44829,1,2,0:0:0:0:
435,195,45000,1,2,0:3:0:0:
287,304,45172,1,8,0:0:0:0:
358,369,45343,1,0,0:0:0:0:
340,188,45515,6,0,L|335:82,1,90,2|0,0:3|0:0,0:0:0:0:
471,44,45858,1,8,0:0:0:0:
509,133,46029,1,0,0:0:0:0:
471,44,46200,1,2,0:0:0:0:
436,196,46372,1,2,0:3:0:0:
380,13,46543,1,8,0:0:0:0:
400,107,46715,1,0,0:0:0:0:
210,52,46886,6,0,P|159:46|111:66,1,90,2|0,0:3|0:0,0:0:0:0:
299,90,47229,2,0,P|305:39|285:-9,1,90,8|0,0:0|0:0,0:0:0:0:
262,179,47572,2,0,P|313:185|360:165,1,90,2|2,0:0|0:3,0:0:0:0:
173,141,47915,1,8,0:0:0:0:
185,237,48086,1,0,0:0:0:0:
297,54,48258,6,0,B|252:32|208:53|208:53|168:37|123:58,1,180,2|8,0:3|0:0,0:0:0:0:
173,141,48772,1,0,0:0:0:0:
50,119,48943,1,2,0:0:0:0:
150,283,49115,1,2,0:3:0:0:
123,58,49286,1,8,0:0:0:0:
99,201,49458,1,0,0:0:0:0:
99,201,49543,1,0,0:0:0:0:
99,201,49629,6,0,L|9:228,1,90,2|0,0:3|0:0,0:0:0:0:
225,222,49972,2,0,L|315:249,1,90,8|0,0:0|0:0,0:0:0:0:
150,283,50315,1,2,0:0:0:0:
252,130,50486,1,2,0:3:0:0:
286,340,50658,1,8,0:0:0:0:
405,268,50829,1,0,0:0:0:0:
225,222,51000,6,0,L|143:178,1,90,2|0,0:3|0:0,0:0:0:0:
317,198,51343,2,0,P|316:251|284:300,1,90,8|0,0:0|0:0,0:0:0:0:
252,130,51686,1,2,0:0:0:0:
409,173,51858,1,2,0:3:0:0:
225,222,52029,1,8,0:0:0:0:
160,152,52200,1,0,0:0:0:0:
365,88,52372,6,0,P|416:77|464:95,1,90,2|0,0:3|0:0,0:0:0:0:
415,263,52715,2,0,L|409:173,1,90,8|0,0:0|0:0,0:0:0:0:
274,81,53058,1,2,0:0:0:0:
462,92,53229,1,2,0:3:0:0:
319,238,53400,2,0,L|324:327,1,90,8|0,0:0|0:0,0:0:0:0:
326,341,53658,1,0,0:0:0:0:
327,354,53743,5,4,0:0:0:0:
417,285,53915,1,2,0:3:0:0:
418,271,54000,1,2,0:3:0:0:
419,257,54086,2,0,L|423:185,1,72,10|8,0:0|0:0,0:0:0:0:
343,67,54429,2,0,L|339:139,1,72,10|8,0:0|0:0,0:0:0:0:
439,90,54772,2,0,L|444:26,1,36,2|0,0:0|0:0,0:0:0:0:
245,108,54943,2,0,L|240:172,1,36,2|2,0:0|0:0,0:0:0:0:
298,239,55115,6,0,L|209:239,1,90,12|0,0:0|0:0,0:0:0:0:
184,254,55372,6,4,L|319:254,1,135.000005149842,12|4,0:0|0:0,0:0:0:0:
342,270,55629,6,0,L|152:269,1,180,12|8,0:0|0:0,0:0:0:0:
16,289,55972,5,0,0:0:0:0:
81,208,56143,1,0,0:0:0:0:
253,289,56315,1,8,0:3:0:0:
266,301,56400,1,8,0:3:0:0:
282,309,56486,6,0,P|333:316|390:288,1,90,12|0,0:3|0:0,0:0:0:0:
422,226,56743,1,0,0:0:0:0:
406,218,56829,2,0,P|362:210|319:222,1,90,8|0,0:0|0:0,0:0:0:0:
462,306,57172,5,2,0:0:0:0:
475,296,57258,1,2,0:0:0:0:
492,281,57343,1,2,0:3:0:0:
506,253,57429,1,2,0:0:0:0:
511,213,57515,5,10,0:0:0:0:
491,168,57600,1,2,0:0:0:0:
486,112,57686,1,2,0:0:0:0:
508,52,57772,1,2,0:0:0:0:
448,7,57858,6,0,P|409:2|327:22,1,90,12|12,0:0|0:3,0:0:0:0:
288,24,58115,6,12,P|355:33|422:26,1,135.000005149842,12|12,0:0|0:3,0:0:0:0:
395,6,58372,6,0,P|299:-3|214:13,1,180,12|8,0:0|0:2,0:0:0:0:
122,152,58715,5,0,0:0:0:0:
147,245,58886,1,0,0:0:0:0:
242,120,59058,1,8,0:3:0:0:
242,120,59143,1,8,0:3:0:0:
242,120,59229,6,0,B|228:163|232:195|232:195|242:229|242:229|246:257|231:310,1,180,12|8,0:3|0:0,0:0:0:0:
147,245,59743,1,0,0:0:0:0:
326,174,59915,5,2,0:0:0:0:
400,184,60000,1,2,0:0:0:0:
451,205,60086,1,2,0:3:0:0:
492,232,60172,1,2,0:0:0:0:
476,270,60258,5,10,0:0:0:0:
444,281,60343,1,2,0:0:0:0:
408,280,60429,1,2,0:0:0:0:
393,273,60515,1,2,0:0:0:0:
385,269,60600,6,0,P|383:221|410:172,1,90,12|0,0:0|0:0,0:0:0:0:
327,342,60858,6,0,P|262:356|202:328,1,135.000005149842,12|0,0:0|0:0,0:0:0:0:
207,118,61115,6,0,P|273:176|269:284,1,180,12|8,0:0|0:0,0:0:0:0:
488,150,61458,1,2,0:3:0:0:
408,96,61629,6,0,L|299:81,1,108,0|0,0:0|0:0,0:0:0:0:
293,87,61972,6,0,P|212:102|125:52,1,180,4|8,0:0|0:0,0:0:0:0:
367,0,62486,1,0,0:0:0:0:
221,207,62658,1,2,0:0:0:0:
221,207,62743,1,2,0:0:0:0:
221,207,62829,2,0,L|240:267,1,45,2|0,0:3|0:0,0:0:0:0:
403,135,63000,2,0,L|390:93,1,45,8|0,0:0|0:0,0:0:0:0:
344,316,63172,6,0,B|297:322|297:322|260:350|219:344|219:344|148:352,1,180,4|2,0:0|0:3,0:0:0:0:
84,213,63686,1,0,0:0:0:0:
302,137,63858,1,2,0:3:0:0:
32,105,64029,1,2,0:3:0:0:
32,105,64372,5,8,0:0:0:0:
242,213,64543,2,0,B|298:249|355:216|355:216|430:221,1,180,4|2,0:0|0:3,0:0:0:0:
302,137,65058,1,2,0:0:0:0:
378,312,65229,1,2,0:3:0:0:
405,74,65400,1,2,0:3:0:0:
182,125,65572,1,8,0:3:0:0:
138,136,65658,1,8,0:3:0:0:
93,139,65743,1,8,0:3:0:0:
49,135,65829,1,8,0:3:0:0:
5,122,65915,1,4,0:0:0:0:
256,192,66000,12,0,67458,0:0:0:0:
195,170,67800,6,0,L|292:170,1,90,0|0,0:0|0:0,0:0:0:0:
289,174,68315,5,2,0:3:0:0:
380,53,68486,1,8,0:0:0:0:
380,53,68829,6,0,P|285:45|192:50,1,180,4|8,0:0|0:0,0:0:0:0:
116,92,69343,1,0,0:0:0:0:
161,221,69515,1,2,0:0:0:0:
31,134,69686,1,2,0:3:0:0:
246,179,69858,2,0,P|311:186|370:173,1,90,8|0,0:0|0:0,0:0:0:0:
457,112,70200,6,0,B|463:180|463:180|456:250,1,135,2|0,0:3|0:0,0:0:0:0:
449,294,70543,1,8,0:0:0:0:
368,259,70715,1,0,0:0:0:0:
221,302,70886,1,2,0:0:0:0:
375,355,71058,1,2,0:3:0:0:
252,210,71229,2,0,P|248:160|258:99,1,90,8|0,0:0|0:0,0:0:0:0:
336,258,71572,6,0,P|286:301|220:301,1,135,2|0,0:3|0:0,0:0:0:0:
178,271,71915,1,8,0:0:0:0:
252,210,72086,1,0,0:0:0:0:
88,180,72258,1,2,0:0:0:0:
116,345,72429,1,2,0:3:0:0:
179,146,72600,2,0,L|192:50,1,90,8|0,0:0|0:0,0:0:0:0:
333,159,72943,6,0,B|398:173|398:173|480:159,1,135,2|0,0:3|0:0,0:0:0:0:
512,150,73286,1,8,0:0:0:0:
402,75,73458,1,0,0:0:0:0:
399,268,73629,2,0,L|394:368,1,90,2|2,0:0|0:3,0:0:0:0:
243,289,73972,2,0,L|248:200,1,90,8|0,0:0|0:0,0:0:0:0:
315,35,74315,6,0,P|269:45|203:25,1,90,2|0,0:3|0:0,0:0:0:0:
353,178,74658,2,0,P|399:168|465:188,1,90,8|0,0:0|0:0,0:0:0:0:
434,62,75000,1,2,0:0:0:0:
236,158,75172,1,2,0:3:0:0:
399,264,75343,1,8,0:0:0:0:
258,157,75515,1,0,0:0:0:0:
116,259,75686,6,0,L|105:134,1,90,2|0,0:3|0:0,0:0:0:0:
106,151,75943,1,2,0:0:0:0:
104,133,76029,1,8,0:0:0:0:
18,219,76200,1,0,0:0:0:0:
203,199,76372,1,2,0:0:0:0:
104,133,76543,1,2,0:3:0:0:
122,361,76715,1,8,0:0:0:0:
104,133,76886,1,0,0:0:0:0:
186,291,77058,6,0,L|293:290,1,90,2|0,0:3|0:0,0:0:0:0:
294,289,77315,1,2,0:0:0:0:
311,288,77400,1,8,0:0:0:0:
246,194,77572,1,0,0:0:0:0:
96,292,77743,2,0,L|185:291,1,90,2|2,0:0|0:3,0:0:0:0:
401,287,78086,2,0,L|310:288,1,90,8|0,0:0|0:0,0:0:0:0:
475,233,78429,5,4,0:0:0:0:
506,142,78600,1,0,0:0:0:0:
506,142,78686,1,0,0:0:0:0:
506,142,78772,1,8,0:0:0:0:
308,106,78943,1,8,0:0:0:0:
475,233,79115,1,8,0:0:0:0:
479,272,79200,1,8,0:0:0:0:
483,311,79286,1,2,0:3:0:0:
247,181,79458,1,8,0:0:0:0:
477,52,79629,1,8,0:0:0:0:
214,90,79800,6,0,B|124:78|125:119|36:93,1,180,4|8,0:0|0:0,0:0:0:0:
89,3,80315,1,0,0:0:0:0:
174,184,80486,2,0,P|179:232|173:273,1,90,2|2,0:0|0:3,0:0:0:0:
41,357,80829,1,8,0:0:0:0:
41,357,81000,1,0,0:0:0:0:
249,331,81172,6,0,P|293:325|371:330,1,90,2|0,0:3|0:0,0:0:0:0:
356,326,81429,1,2,0:0:0:0:
373,327,81515,1,8,0:0:0:0:
447,265,81686,1,0,0:0:0:0:
447,265,81858,1,2,0:0:0:0:
282,233,82029,1,2,0:3:0:0:
459,172,82200,1,8,0:0:0:0:
370,203,82372,1,0,0:0:0:0:
272,107,82543,6,0,L|279:197,1,90,4|0,0:0|0:0,0:0:0:0:
281,215,82800,1,2,0:0:0:0:
282,233,82886,1,8,0:0:0:0:
289,330,83058,1,0,0:0:0:0:
160,290,83229,2,0,L|205:287,1,45,2|0,0:0|0:0,0:0:0:0:
370,203,83400,1,2,0:3:0:0:
380,363,83572,1,8,0:0:0:0:
289,330,83743,1,0,0:0:0:0:
485,211,83915,6,0,L|477:118,1,90,2|0,0:3|0:0,0:0:0:0:
476,103,84172,1,2,0:0:0:0:
474,84,84258,1,8,0:0:0:0:
512,0,84429,1,0,0:0:0:0:
379,71,84600,2,0,L|383:115,1,45,2|0,0:0|0:0,0:0:0:0:
394,240,84772,1,2,0:3:0:0:
223,188,84943,2,0,P|173:178|120:182,1,90,8|0,0:0|0:0,0:0:0:0:
316,341,85286,6,0,L|502:335,1,180,4|2,0:0|0:0,0:0:0:0:
394,240,85800,1,2,0:3:0:0:
196,341,85972,2,0,L|10:335,1,180,8|2,0:0|0:0,0:0:0:0:
113,238,86486,1,2,0:3:0:0:
26,42,86658,5,4,0:0:0:0:
210,93,86829,1,2,0:3:0:0:
50,135,87000,1,0,0:0:0:0:
291,161,87172,1,2,0:3:0:0:
335,166,87258,1,2,0:3:0:0:
379,171,87343,1,8,0:0:0:0:
124,74,87515,1,2,0:0:0:0:
124,74,87600,1,8,0:0:0:0:
124,74,87686,1,2,0:3:0:0:
113,248,87858,1,2,0:3:0:0:
69,253,87943,1,2,0:3:0:0:
24,258,88029,5,12,0:0:0:0:
241,51,88200,1,2,0:3:0:0:
215,308,88372,1,8,0:0:0:0:
124,74,88543,1,2,0:3:0:0:
112,368,88715,1,8,0:0:0:0:
201,165,88886,1,2,0:3:0:0:
307,384,89058,1,8,0:0:0:0:
376,103,89229,1,2,0:3:0:0:
381,85,89315,1,2,0:3:0:0:
385,67,89400,6,0,L|404:213,1,135.000005149842,12|0,0:0|0:0,0:0:0:0:
315,158,89658,2,0,L|296:304,1,135.000005149842,8|0,0:0|0:0,0:0:0:0:
381,279,89915,1,8,0:0:0:0:
221,222,90086,5,2,0:3:0:0:
189,211,90171,1,2,0:3:0:0:
155,206,90257,1,2,0:3:0:0:
122,209,90343,1,2,0:3:0:0:
71,202,90429,5,10,0:0:0:0:
53,154,90514,1,2,0:0:0:0:
47,104,90600,1,2,0:0:0:0:
54,54,90686,1,2,0:0:0:0:
81,16,90772,6,0,P|197:27|282:81,1,198.000006042481,4|8,0:0|0:0,0:0:0:0:
390,97,91286,1,0,0:0:0:0:
295,158,91458,1,0,0:0:0:0:
453,190,91629,6,0,L|459:146,1,24.7500007553101,2|0,0:3|0:0,0:0:0:0:
349,319,91800,2,0,L|355:275,1,24.7500007553101,8|0,0:0|0:0,0:0:0:0:
295,158,91972,2,0,L|301:114,1,24.7500007553101
215,384,92143,6,0,P|145:364|104:294,1,148.50000453186,2|0,0:3|0:0,0:0:0:0:
31,238,92486,2,0,L|39:189,1,49.5000015106202,8|0,0:0|0:0,0:0:0:0:
211,236,92658,2,0,L|203:285,1,49.5000015106202
137,173,92829,1,2,0:2:0:0:
362,235,93000,5,2,0:3:0:0:
364,219,93086,1,0,0:0:0:0:
366,204,93172,2,0,L|374:150,1,49.5000015106202,8|0,0:0|0:0,0:0:0:0:
387,56,93343,1,0,0:0:0:0:
437,308,93515,6,0,P|369:339|302:321,1,135.000005149842,2|0,0:2|0:0,0:0:0:0:
237,254,93772,2,0,P|305:223|372:241,1,135.000005149842,2|0,0:2|0:0,0:0:0:0:
437,308,94029,1,2,0:2:0:0:
215,356,94200,5,2,0:2:0:0:
164,179,94372,2,0,L|161:124,1,49.5000015106202,2|0,0:3|0:0,0:0:0:0:
458,200,94543,6,0,L|462:349,1,135.000005149842,8|0,0:0|0:0,0:0:0:0:
414,106,94886,6,0,L|234:95,1,148.50000453186,2|0,0:3|0:0,0:0:0:0:
355,184,95229,2,0,L|305:180,1,49.5000015106202,8|0,0:0|0:0,0:0:0:0:
320,17,95400,2,0,L|370:21,1,49.5000015106202
458,200,95572,5,2,0:2:0:0:
460,215,95658,1,0,0:0:0:0:
461,230,95743,2,0,L|465:289,1,49.5000015106202,2|0,0:3|0:0,0:0:0:0:
299,379,95915,1,8,0:0:0:0:
387,337,96086,1,0,0:0:0:0:
199,243,96258,6,0,P|120:240|39:248,1,148.50000453186,2|0,0:3|0:0,0:0:0:0:
66,246,96600,6,0,B|148:270|198:243|198:243|269:274|354:228,1,270.000010299683,8|2,0:0|0:2,0:0:0:0:
484,286,97115,5,2,0:3:0:0:
347,121,97286,1,8,0:0:0:0:
512,57,97458,1,0,0:0:0:0:
298,226,97629,6,0,B|250:254|206:236|206:236|155:210|90:250,1,198.000006042481,2|8,0:3|0:0,0:0:0:0:
162,327,98143,1,0,0:0:0:0:
242,142,98315,1,2,0:2:0:0:
60,146,98486,1,2,0:3:0:0:
47,153,98572,1,0,0:0:0:0:
35,163,98658,2,0,P|19:181|8:203,1,49.5000015106202,8|0,0:0|0:0,0:0:0:0:
252,279,98829,2,0,P|268:260|279:238,1,49.5000015106202,0|0,0:0|0:0,0:0:0:0:
108,240,99000,5,2,0:3:0:0:
100,263,99085,1,0,0:0:0:0:
67,294,99171,5,0,0:0:0:0:
59,318,99257,1,0,0:0:0:0:
72,363,99343,5,8,0:0:0:0:
60,146,99515,2,0,B|118:128|161:152,1,99.0000030212403,0|2,0:0|0:2,0:0:0:0:
346,122,99858,1,2,0:3:0:0:
342,202,100029,1,8,0:0:0:0:
302,163,100115,1,2,0:2:0:0:
342,126,100201,1,2,0:2:0:0:
430,247,100372,6,0,P|368:297|309:296,1,99.0000030212403,2|0,0:3|0:0,0:0:0:0:
316,296,100629,1,2,0:2:0:0:
285,280,100715,1,8,0:0:0:0:
452,153,100886,1,2,0:3:0:0:
247,7,101058,1,2,0:2:0:0:
239,77,101143,1,8,0:0:0:0:
231,147,101229,2,0,L|219:238,1,49.5000015106202,2|0,0:3|0:0,0:0:0:0:
22,28,101401,1,8,0:0:0:0:
329,53,101572,1,8,0:0:0:0:
103,277,101743,6,0,P|85:179|102:82,1,198.000006042481,4|8,0:0|0:0,0:0:0:0:
216,68,102258,1,0,0:0:0:0:
329,53,102429,1,2,0:2:0:0:
284,165,102600,6,0,L|283:141,1,24.7500007553101,2|0,0:3|0:0,0:0:0:0:
387,161,102772,2,0,L|386:137,1,24.7500007553101,8|0,0:0|0:0,0:0:0:0:
490,158,102943,2,0,L|488:133,1,24.7500007553101,2|0,0:2|0:0,0:0:0:0:
339,254,103115,6,0,P|265:268|201:228,1,148.50000453186,0|0,0:0|0:0,0:0:0:0:
173,315,103458,2,0,P|193:330|215:339,1,49.5000015106202,8|0,0:0|0:0,0:0:0:0:
350,342,103629,2,0,P|372:332|393:318,1,49.5000015106202,2|0,0:2|0:0,0:0:0:0:
420,238,103800,1,2,0:2:0:0:
284,165,103972,5,2,0:3:0:0:
290,140,104058,1,0,0:0:0:0:
268,89,104143,5,8,0:0:0:0:
274,64,104229,1,0,0:0:0:0:
253,12,104315,5,0,0:0:0:0:
497,58,104486,6,0,B|488:102|488:102|497:148|497:148|488:192,1,135.000005149842,2|0,0:2|0:0,0:0:0:0:
420,238,104743,2,0,B|411:194|411:194|420:148|420:148|411:105,1,135.000005149842,2|0,0:2|0:0,0:0:0:0:
356,54,105000,1,2,0:2:0:0:
338,292,105172,5,0,0:0:0:0:
167,200,105343,2,0,P|137:198|107:204,1,49.5000015106202,2|0,0:3|0:0,0:0:0:0:
148,294,105515,6,0,P|221:279|262:206,1,135.000005149842,8|0,0:0|0:0,0:0:0:0:
356,54,105858,6,0,B|363:92|358:124|358:124|353:158|361:206,1,148.50000453186,2|0,0:3|0:0,0:0:0:0:
282,111,106200,2,0,P|284:84|280:57,1,49.5000015106202,8|0,0:0|0:0,0:0:0:0:
433,145,106372,2,0,P|434:179|442:212,1,49.5000015106202,2|0,0:2|0:0,0:0:0:0:
324,270,106543,1,0,0:0:0:0:
438,67,106715,1,2,0:3:0:0:
159,82,106886,1,8,0:0:0:0:
361,202,107058,1,0,0:0:0:0:
85,286,107229,6,0,P|70:213|82:141,1,148.50000453186,2|0,0:3|0:0,0:0:0:0:
147,184,107572,6,0,P|153:255|211:308,1,135.000005149842,2|2,0:2|0:3,0:0:0:0:
428,278,107915,5,8,0:0:0:0:
245,211,108086,1,0,0:0:0:0:
479,189,108258,1,2,0:2:0:0:
194,300,108429,1,2,0:3:0:0:
370,22,108600,5,4,0:0:0:0:
428,278,108772,1,2,0:3:0:0:
459,73,108943,1,0,0:0:0:0:
216,112,109115,1,2,0:3:0:0:
166,118,109200,1,2,0:3:0:0:
117,124,109286,1,8,0:0:0:0:
409,161,109458,1,2,0:2:0:0:
409,161,109543,1,8,0:0:0:0:
409,161,109629,1,2,0:3:0:0:
234,214,109800,1,8,0:0:0:0:
184,220,109885,1,2,0:3:0:0:
135,226,109972,5,8,0:0:0:0:
427,263,110143,1,2,0:3:0:0:
117,124,110315,5,8,0:0:0:0:
409,161,110486,1,2,0:3:0:0:
36,191,110658,5,8,0:0:0:0:
136,381,110829,1,2,0:3:0:0:
199,58,111000,5,8,0:0:0:0:
376,349,111172,1,2,0:3:0:0:
376,349,111258,1,2,0:3:0:0:
376,349,111343,6,0,P|447:353|497:302,1,135.000005149842,8|0,0:2|0:0,0:0:0:0:
416,271,111600,2,0,P|350:276|299:234,1,135.000005149842,8|0,0:2|0:0,0:0:0:0:
376,194,111858,1,8,0:2:0:0:
270,353,112029,5,2,0:3:0:0:
237,362,112114,1,2,0:3:0:0:
204,358,112200,1,2,0:3:0:0:
175,342,112286,1,2,0:3:0:0:
153,316,112372,2,0,B|98:292|29:320|29:320|61:281|57:232,1,202.500007724762,8|0,0:0|0:0,0:0:0:0:
130,215,112715,6,0,P|213:231|328:212,1,180,4|8,0:0|0:0,0:0:0:0:
393,194,113229,1,0,0:0:0:0:
371,282,113400,1,2,0:0:0:0:
328,130,113572,1,2,0:3:0:0:
459,256,113743,1,8,0:0:0:0:
285,306,113915,1,2,0:0:0:0:
283,310,114000,1,2,0:0:0:0:
281,314,114086,6,0,P|195:335|130:259,1,180,2|8,0:3|0:0,0:0:0:0:
220,247,114600,1,0,0:0:0:0:
151,189,114772,1,2,0:0:0:0:
51,308,114943,1,2,0:3:0:0:
81,129,115115,1,8,0:0:0:0:
66,219,115286,1,2,0:0:0:0:
65,223,115372,1,2,0:0:0:0:
65,227,115458,6,0,L|53:327,1,90,2|0,0:3|0:0,0:0:0:0:
220,247,115800,2,0,L|232:347,1,90,8|0,0:0|0:0,0:0:0:0:
370,205,116143,2,0,L|404:299,1,90,2|2,0:0|0:3,0:0:0:0:
501,118,116486,1,8,0:0:0:0:
501,118,116658,1,0,0:0:0:0:
350,75,116829,6,0,B|310:83|266:75|266:75|225:87|172:76,1,180,2|8,0:3|0:0,0:0:0:0:
84,55,117343,1,0,0:0:0:0:
19,118,117515,2,0,L|23:171,1,45,2|0,0:0|0:0,0:0:0:0:
93,219,117686,2,0,L|96:263,1,45,2|0,0:3|0:0,0:0:0:0:
157,332,117858,1,8,0:0:0:0:
241,301,118029,1,2,0:0:0:0:
249,298,118115,1,2,0:0:0:0:
257,295,118200,6,0,P|302:288|363:299,1,90,2|0,0:3|0:0,0:0:0:0:
200,221,118543,2,0,P|193:176|204:115,1,90,8|0,0:0|0:0,0:0:0:0:
274,83,118886,2,0,L|327:87,1,45,2|0,0:0|0:0,0:0:0:0:
385,152,119058,2,0,L|429:155,1,45,2|0,0:3|0:0,0:0:0:0:
494,219,119229,1,8,0:0:0:0:
454,301,119400,1,2,0:0:0:0:
447,307,119486,1,2,0:0:0:0:
439,311,119572,6,0,P|387:321|321:316,1,90,2|0,0:3|0:0,0:0:0:0:
145,314,119915,2,0,P|197:324|263:319,1,90,8|0,0:0|0:0,0:0:0:0:
291,248,120258,2,0,P|292:212|286:181,1,45,2|0,0:0|0:0,0:0:0:0:
230,135,120429,2,0,P|229:99|235:68,1,45,2|0,0:3|0:0,0:0:0:0:
289,22,120600,1,8,0:0:0:0:
199,1,120772,1,2,0:0:0:0:
191,6,120858,1,2,0:0:0:0:
182,9,120943,6,0,P|148:44|136:91,1,90,2|0,0:3|0:0,0:0:0:0:
276,164,121286,2,0,P|262:122|231:91,1,90,8|0,0:0|0:0,0:0:0:0:
110,218,121629,2,0,P|152:204|184:173,1,90,2|2,0:0|0:3,0:0:0:0:
182,9,121972,1,8,0:0:0:0:
182,9,122143,1,0,0:0:0:0:
414,65,122315,5,4,0:0:0:0:
403,226,122486,2,0,L|399:191,1,36,2|0,0:3|0:0,0:0:0:0:
469,134,122658,1,8,0:0:0:0:
485,264,122829,1,8,0:0:0:0:
439,365,123000,6,0,P|412:369|375:366,1,45,2|0,0:0|0:0,0:0:0:0:
330,304,123172,2,0,P|303:300|266:303,1,45,8|0,0:0|0:0,0:0:0:0:
220,362,123343,2,0,P|193:366|156:363,1,45,2|0,0:0|0:0,0:0:0:0:
111,301,123515,2,0,P|84:297|47:300,1,45,8|0,0:0|0:0,0:0:0:0:
198,200,123686,6,0,L|201:90,1,90,12|0,0:0|0:0,0:0:0:0:
217,85,123943,6,0,L|215:220,1,135.000005149842,12|0,0:0|0:0,0:0:0:0:
232,239,124200,6,0,L|236:55,1,180,12|8,0:0|0:0,0:0:0:0:
337,93,124543,1,0,0:0:0:0:
332,184,124715,1,0,0:0:0:0:
323,316,124886,1,8,0:3:0:0:
325,294,124972,1,8,0:3:0:0:
326,273,125058,6,0,L|333:167,1,90,14|0,0:3|0:0,0:0:0:0:
232,239,125315,1,2,0:0:0:0:
233,260,125401,2,0,L|240:366,1,90,8|0,0:0|0:0,0:0:0:0:
94,264,125743,1,2,0:0:0:0:
84,262,125828,1,2,0:0:0:0:
74,260,125914,1,2,0:3:0:0:
64,258,126000,1,2,0:0:0:0:
54,256,126086,5,10,0:0:0:0:
42,201,126171,1,2,0:0:0:0:
40,145,126257,1,2,0:0:0:0:
48,89,126343,1,2,0:0:0:0:
66,36,126429,6,0,P|111:31|172:37,1,90,12|0,0:0|0:0,0:0:0:0:
199,35,126686,6,0,P|132:44|65:35,1,135.000005149842,12|0,0:0|0:0,0:0:0:0:
20,35,126943,6,0,P|117:26|237:44,1,180,12|8,0:0|0:0,0:0:0:0:
300,185,127286,6,0,L|290:88,1,90
387,202,127629,1,8,0:3:0:0:
384,218,127714,1,8,0:3:0:0:
379,233,127800,6,0,P|320:274|216:224,1,180,12|8,0:3|0:0,0:0:0:0:
300,185,128315,1,0,0:0:0:0:
227,353,128486,5,2,0:0:0:0:
171,347,128571,1,2,0:0:0:0:
115,342,128657,1,2,0:3:0:0:
59,336,128743,1,2,0:0:0:0:
3,331,128828,5,8,0:0:0:0:
5,335,128915,1,2,0:0:0:0:
5,339,129000,1,2,0:0:0:0:
5,343,129086,1,2,0:0:0:0:
6,347,129172,6,0,L|24:225,1,90,12|0,0:0|0:0,0:0:0:0:
111,173,129429,6,0,L|91:307,1,135.000005149842,12|0,0:0|0:0,0:0:0:0:
176,267,129686,6,0,L|204:88,1,180,12|8,0:0|0:0,0:0:0:0:
231,0,130029,1,2,0:3:0:0:
204,89,130200,1,0,0:0:0:0:
141,21,130372,1,0,0:0:0:0:
338,72,130543,6,0,L|481:92,1,135,4|0,0:0|0:0,0:0:0:0:
485,93,130886,1,8,0:0:0:0:
287,179,131058,2,0,L|197:194,1,90,2|2,0:0|0:0,0:0:0:0:
169,197,131315,1,2,0:0:0:0:
140,200,131401,1,2,0:3:0:0:
193,371,131572,1,8,0:0:0:0:
287,179,131743,6,0,L|271:75,1,90,4|2,0:0|0:0,0:0:0:0:
138,47,132086,1,2,0:3:0:0:
287,179,132258,1,2,0:0:0:0:
149,68,132429,1,2,0:3:0:0:
0,200,132601,1,2,0:3:0:0:
0,200,132943,5,8,0:0:0:0:
257,71,133115,2,0,L|384:62,1,90,4|2,0:0|0:0,0:0:0:0:
460,206,133458,1,2,0:3:0:0:
257,71,133629,1,2,0:0:0:0:
439,193,133800,1,2,0:3:0:0:
197,329,133972,1,2,0:3:0:0:
418,180,134143,1,8,0:3:0:0:
397,167,134229,1,8,0:3:0:0:
376,154,134315,1,8,0:3:0:0:
355,141,134400,1,8,0:3:0:0:
334,128,134486,1,4,0:0:0:0:
256,192,134572,12,0,136029,0:0:0:0:
156,238,136372,6,0,L|66:248,1,90
62,251,136886,5,2,0:3:0:0:
253,228,137058,1,8,0:0:0:0:
253,228,137400,6,0,B|261:183|261:183|261:159|252:117|264:91|264:91|299:128,1,180,4|8,0:0|0:0,0:0:0:0:
348,192,137915,1,0,0:0:0:0:
173,174,138086,2,0,P|128:173|80:176,1,90,2|2,0:0|0:3,0:0:0:0:
206,314,138429,1,8,0:0:0:0:
253,228,138600,1,0,0:0:0:0:
83,175,138772,6,0,B|88:84|88:84|111:40,1,135,2|0,0:3|0:0,0:0:0:0:
128,24,139115,1,8,0:0:0:0:
182,95,139286,1,0,0:0:0:0:
216,11,139458,1,2,0:0:0:0:
384,70,139629,1,2,0:3:0:0:
182,95,139800,1,8,0:0:0:0:
218,177,139972,1,0,0:0:0:0:
99,307,140143,6,0,B|80:256|80:256|82:172,1,135,2|0,0:3|0:0,0:0:0:0:
94,149,140486,1,8,0:0:0:0:
218,177,140658,1,0,0:0:0:0:
342,205,140829,1,2,0:0:0:0:
176,258,141000,1,2,0:3:0:0:
261,96,141172,1,8,0:0:0:0:
218,177,141343,1,0,0:0:0:0:
429,185,141515,6,0,P|441:127|434:42,1,135,2|0,0:3|0:0,0:0:0:0:
426,24,141858,1,8,0:0:0:0:
344,62,142029,1,0,0:0:0:0:
429,185,142200,1,2,0:0:0:0:
434,192,142286,1,2,0:0:0:0:
439,199,142372,1,2,0:3:0:0:
262,281,142543,2,0,P|218:272|153:247,1,90,8|0,0:0|0:0,0:0:0:0:
104,73,142886,6,0,L|81:169,1,90,2|0,0:3|0:0,0:0:0:0:
262,87,143229,2,0,L|241:0,1,90,8|0,0:0|0:0,0:0:0:0:
180,126,143572,1,2,0:0:0:0:
348,114,143743,1,2,0:3:0:0:
155,214,143915,1,8,0:0:0:0:
83,160,144086,1,0,0:0:0:0:
329,203,144258,6,0,P|336:275|326:350,1,135,2|0,0:3|0:0,0:0:0:0:
320,364,144600,1,8,0:0:0:0:
423,270,144772,1,0,0:0:0:0:
390,136,144943,1,2,0:0:0:0:
329,337,145115,1,2,0:3:0:0:
401,108,145286,1,8,0:0:0:0:
452,265,145458,1,0,0:0:0:0:
216,197,145629,6,0,L|97:168,1,90,2|0,0:3|0:0,0:0:0:0:
119,174,145886,1,2,0:0:0:0:
110,170,145972,1,8,0:0:0:0:
295,152,146143,1,0,0:0:0:0:
189,285,146315,2,0,L|70:256,1,90,2|2,0:0|0:3,0:0:0:0:
47,57,146658,2,0,L|166:28,1,90,8|0,0:0|0:0,0:0:0:0:
298,148,147000,5,4,0:0:0:0:
243,17,147172,1,2,0:0:0:0:
243,17,147258,1,2,0:0:0:0:
243,17,147343,1,8,0:0:0:0:
239,220,147515,1,8,0:0:0:0:
391,164,147686,1,2,0:0:0:0:
394,203,147772,1,8,0:0:0:0:
397,242,147858,1,2,0:3:0:0:
177,79,148029,1,8,0:0:0:0:
409,71,148200,1,8,0:0:0:0:
239,220,148372,6,0,B|217:228|189:224|189:224|150:210|115:223|115:223|83:227|62:217,1,180,4|8,0:0|0:0,0:0:0:0:
151,309,148886,1,0,0:0:0:0:
207,134,149058,1,2,0:0:0:0:
151,322,149229,1,2,0:3:0:0:
97,132,149400,1,8,0:0:0:0:
61,217,149572,1,0,0:0:0:0:
207,134,149743,6,0,P|273:126|351:133,1,135,2|0,0:3|0:0,0:0:0:0:
367,149,150086,1,8,0:0:0:0:
337,234,150258,1,0,0:0:0:0:
307,319,150429,1,2,0:0:0:0:
426,217,150600,1,2,0:3:0:0:
249,250,150772,2,0,P|252:204|287:160,1,90,8|0,0:0|0:0,0:0:0:0:
219,335,151115,6,0,P|147:336|85:317,1,135,4|0,0:0|0:0,0:0:0:0:
62,304,151458,1,8,0:0:0:0:
79,188,151629,1,0,0:0:0:0:
96,72,151800,1,2,0:0:0:0:
3,235,151972,1,2,0:3:0:0:
155,140,152143,1,8,0:0:0:0:
79,188,152315,1,0,0:0:0:0:
250,220,152486,6,0,B|298:224|298:224|340:210|340:210|396:212,1,135,2|0,0:3|0:0,0:0:0:0:
412,214,152829,1,8,0:0:0:0:
353,301,153000,1,0,0:0:0:0:
288,133,153172,1,2,0:0:0:0:
361,327,153343,1,2,0:3:0:0:
433,127,153515,2,0,L|454:34,1,90,8|0,0:0|0:0,0:0:0:0:
505,308,153858,5,4,0:0:0:0:
505,308,154200,1,2,0:0:0:0:
292,269,154372,1,2,0:3:0:0:
501,207,154543,1,8,0:0:0:0:
501,207,154886,1,0,0:0:0:0:
288,168,155058,1,2,0:3:0:0:
497,106,155229,5,4,0:0:0:0:
429,259,155400,1,2,0:3:0:0:
354,108,155572,1,2,0:0:0:0:
302,342,155743,1,2,0:3:0:0:
258,337,155829,1,2,0:3:0:0:
213,332,155915,1,8,0:0:0:0:
181,106,156086,1,2,0:0:0:0:
181,106,156172,1,8,0:0:0:0:
181,106,156258,1,2,0:3:0:0:
370,145,156429,1,8,0:0:0:0:
415,140,156515,1,2,0:3:0:0:
459,135,156600,5,8,0:0:0:0:
186,238,156772,1,2,0:3:0:0:
478,253,156943,1,8,0:0:0:0:
246,170,157115,1,2,0:3:0:0:
512,60,157286,1,8,0:0:0:0:
388,251,157458,1,2,0:3:0:0:
157,152,157629,1,8,0:0:0:0:
58,333,157800,1,2,0:3:0:0:
102,339,157886,1,2,0:3:0:0:
146,345,157972,6,0,L|292:360,1,135.000005149842,8|0,0:0|0:0,0:0:0:0:
353,360,158229,2,0,B|349:311|303:289|303:289|227:282,1,135.000005149842,8|0,0:0|0:0,0:0:0:0:
187,277,158486,1,8,0:0:0:0:
240,165,158658,5,2,0:3:0:0:
242,131,158743,1,2,0:3:0:0:
244,97,158829,1,2,0:3:0:0:
247,63,158915,1,2,0:3:0:0:
249,30,159000,1,8,0:0:0:0:
336,55,159172,1,0,0:0:0:0:
152,145,159343,6,0,B|107:149|76:103|76:103|115:126|151:118,1,161.999995056153,4|8,0:0|0:0,0:0:0:0:
130,35,159858,1,0,0:0:0:0:
38,189,160029,2,0,P|69:213|108:224,1,80.9999975280763,2|2,0:0|0:3,0:0:0:0:
288,293,160372,2,0,P|256:317|218:327,1,80.9999975280763,8|0,0:0|0:0,0:0:0:0:
405,338,160715,6,0,B|410:249|410:249|401:160,2,161.999995056153,2|8|2,0:3|0:0|0:0,0:0:0:0:
294,258,161572,1,2,0:3:0:0:
347,113,161743,2,0,L|356:30,1,80.9999975280763,8|0,0:0|0:0,0:0:0:0:
215,98,162086,6,0,P|136:104|39:92,1,161.999995056153,2|8,0:3|0:0,0:0:0:0:
63,179,162600,1,0,0:0:0:0:
196,180,162772,2,0,P|252:169|289:142,1,80.9999975280763,2|2,0:0|0:3,0:0:0:0:
129,226,163115,2,0,P|140:282|167:319,1,80.9999975280763,8|0,0:0|0:0,0:0:0:0:
272,157,163458,6,0,P|271:75|184:36,2,161.999995056153,2|8|2,0:3|0:0|0:0,0:0:0:0:
201,117,164315,1,2,0:3:0:0:
344,44,164486,1,8,0:0:0:0:
359,123,164658,1,0,0:0:0:0:
201,117,164829,6,0,P|158:113|92:120,1,80.9999975280763,2|0,0:3|0:0,0:0:0:0:
204,198,165172,1,8,0:0:0:0:
272,157,165343,1,0,0:0:0:0:
201,117,165515,1,2,0:0:0:0:
274,238,165686,1,2,0:3:0:0:
343,127,165858,1,8,0:0:0:0:
271,76,166029,1,0,0:0:0:0:
350,208,166200,6,0,P|326:301|261:319,1,161.999995056153,2|8,0:3|0:0,0:0:0:0:
368,370,166715,2,0,P|398:344|419:309,1,80.9999975280763,0|2,0:0|0:0,0:0:0:0:
274,238,167058,1,2,0:3:0:0:
210,374,167229,1,8,0:0:0:0:
271,320,167400,1,0,0:0:0:0:
120,255,167572,6,0,L|139:334,1,80.9999975280763,2|0,0:3|0:0,0:0:0:0:
185,205,167915,2,0,L|203:126,1,80.9999975280763,8|0,0:0|0:0,0:0:0:0:
91,95,168258,2,0,L|110:174,1,80.9999975280763,2|2,0:0|0:3,0:0:0:0:
27,301,168600,2,0,L|46:223,1,80.9999975280763,8|0,0:0|0:0,0:0:0:0:
245,322,168943,5,4,0:0:0:0:
245,322,169286,1,8,0:0:0:0:
230,150,169458,1,8,0:0:0:0:
315,282,169629,1,10,0:0:0:0:
325,321,169715,1,8,0:0:0:0:
316,360,169800,1,2,0:3:0:0:
165,332,169972,1,8,0:0:0:0:
289,205,170143,1,8,0:0:0:0:
89,253,170315,6,0,P|72:167|84:92,1,161.999995056153,4|8,0:0|0:0,0:0:0:0:
150,49,170829,1,0,0:0:0:0:
154,53,171000,1,2,0:0:0:0:
290,50,171172,1,2,0:3:0:0:
234,212,171343,1,8,0:0:0:0:
294,54,171515,1,0,0:0:0:0:
307,244,171686,6,0,P|249:290|170:259,2,161.999995056153,2|8|2,0:3|0:0|0:0,0:0:0:0:
234,212,172543,1,2,0:3:0:0:
270,367,172715,2,0,P|308:353|340:330,1,80.9999975280763,8|0,0:0|0:0,0:0:0:0:
78,256,173058,6,0,P|119:325|189:366,1,161.999995056153,4|8,0:0|0:0,0:0:0:0:
270,367,173572,1,0,0:0:0:0:
230,296,173743,1,2,0:2:0:0:
351,362,173915,1,2,0:3:0:0:
396,214,174086,2,0,L|402:115,1,80.9999975280763,8|0,0:0|0:0,0:0:0:0:
198,101,174429,6,0,L|206:262,2,161.999995056153,2|8|2,0:3|0:0|0:0,0:0:0:0:
283,177,175286,1,2,0:3:0:0:
122,186,175458,1,8,0:0:0:0:
206,262,175629,1,0,0:0:0:0:
346,51,175800,5,4,0:0:0:0:
346,51,176486,1,8,0:0:0:0:
126,187,177172,6,0,L|115:314,2,121.499996292114,4|2|2,0:0|0:3|0:3,0:0:0:0:
143,59,177858,1,8,0:0:0:0:
358,86,178543,5,4,0:0:0:0:
358,86,178886,1,2,0:3:0:0:
156,227,179229,5,4,0:0:0:0:
156,227,179572,1,2,0:3:0:0:
298,171,179915,5,2,0:3:0:0:
329,328,180086,1,2,0:3:0:0:
217,171,180258,1,2,0:3:0:0:
186,328,180429,1,2,0:3:0:0:
388,234,180600,1,2,0:3:0:0:
388,234,180686,1,2,0:3:0:0:
388,234,180772,1,2,0:3:0:0:
388,234,180858,1,2,0:3:0:0:
388,234,180943,1,8,0:0:0:0:
388,234,181286,5,4,0:0:0:0:
242,172,192258,5,4,0:0:0:0:
242,172,195000,5,4,0:0:0:0:
88,156,197743,5,4,0:0:0:0:
88,156,198429,1,2,0:3:0:0:
325,151,199115,5,4,0:0:0:0:
325,151,199800,1,2,0:3:0:0:
193,274,200486,5,4,0:0:0:0:
372,236,200829,1,2,0:3:0:0:
134,197,201172,1,4,0:0:0:0:
313,159,201515,1,2,0:3:0:0:
75,120,201858,5,4,0:0:0:0:
96,285,202029,1,2,0:3:0:0:
170,108,202200,5,8,0:0:0:0:
1,297,202372,1,8,0:0:0:0:
209,228,202543,5,2,0:3:0:0:
231,226,202629,1,2,0:3:0:0:
253,224,202715,1,2,0:3:0:0:
275,222,202800,1,2,0:3:0:0:
317,197,202886,5,10,0:0:0:0:
350,194,202971,1,2,0:0:0:0:
383,191,203057,1,2,0:0:0:0:
416,188,203143,1,2,0:0:0:0:
449,185,203229,6,0,B|440:232|440:232|450:257|450:257|408:313|331:284,1,198.000006042481,4|8,0:0|0:0,0:0:0:0:
275,222,203743,1,0,0:0:0:0:
239,314,203915,1,2,0:2:0:0:
151,166,204086,6,0,L|150:122,1,24.7500007553101,2|0,0:3|0:0,0:0:0:0:
332,89,204258,2,0,L|331:45,1,24.7500007553101,8|0,0:0|0:0,0:0:0:0:
506,164,204429,2,0,L|505:120,1,24.7500007553101
471,234,204600,6,0,P|478:162|431:101,1,148.50000453186,2|0,0:3|0:0,0:0:0:0:
329,192,204943,2,0,L|379:189,1,49.5000015106202,8|0,0:0|0:0,0:0:0:0:
332,89,205115,2,0,L|282:85,1,49.5000015106202
201,151,205286,1,2,0:2:0:0:
280,273,205458,1,2,0:3:0:0:
274,320,205544,1,2,0:2:0:0:
269,369,205629,1,8,0:0:0:0:
329,192,205800,1,0,0:0:0:0:
116,189,205972,6,0,B|115:137|115:137|125:99|125:99|124:42,1,135.000005149842,2|0,0:2|0:0,0:0:0:0:
201,151,206229,2,0,B|202:203|202:203|192:241|192:241|192:284,1,135.000005149842,2|0,0:2|0:0,0:0:0:0:
278,253,206486,1,0,0:0:0:0:
89,292,206658,5,2,0:2:0:0:
267,355,206829,2,0,P|304:352|337:338,1,49.5000015106202,2|0,0:3|0:0,0:0:0:0:
384,238,207000,2,0,B|236:219|236:219|281:255,1,202.500007724762,8|0,0:0|2:0,0:0:0:0:
477,279,207343,6,0,P|482:211|412:140,1,148.50000453186,2|0,0:3|0:0,0:0:0:0:
367,78,207686,2,0,P|343:73|319:73,1,49.5000015106202,8|0,0:0|0:0,0:0:0:0:
250,150,207858,2,0,P|225:150|201:145,1,49.5000015106202,2|0,0:2|0:0,0:0:0:0:
135,65,208029,1,2,0:2:0:0:
146,233,208200,1,2,0:3:0:0:
26,132,208372,2,0,L|36:34,1,99.0000030212403,8|0,0:0|0:0,0:0:0:0:
146,233,208715,6,0,P|76:257|2:261,1,148.50000453186,2|0,0:3|0:0,0:0:0:0:
123,330,209058,6,0,B|243:309|201:252|286:245|286:245|308:283|370:291,1,270.000010299683,8|2,0:0|0:2,0:0:0:0:
221,161,209572,1,2,0:3:0:0:
369,186,209743,1,8,0:0:0:0:
286,245,209915,1,0,0:0:0:0:
314,100,210086,6,0,B|397:53|429:132|507:93,1,198.000006042481,2|8,0:3|0:0,0:0:0:0:
369,186,210600,1,0,0:0:0:0:
164,55,210772,1,2,0:2:0:0:
185,301,210943,1,2,0:3:0:0:
192,251,211028,1,2,0:3:0:0:
201,202,211115,2,0,L|210:149,1,49.5000015106202,8|0,0:0|0:0,0:0:0:0:
318,276,211286,2,0,L|327:326,1,49.5000015106202,2|0,0:2|0:0,0:0:0:0:
65,294,211458,5,2,0:3:0:0:
57,257,211543,1,0,0:0:0:0:
83,212,211629,5,2,0:2:0:0:
75,176,211715,1,0,0:0:0:0:
37,141,211800,5,8,0:0:0:0:
96,66,211972,2,0,P|143:52|192:51,1,99.0000030212403,0|2,0:0|0:2,0:0:0:0:
375,139,212315,1,2,0:3:0:0:
371,218,212486,1,8,0:0:0:0:
332,179,212572,1,2,0:2:0:0:
371,143,212658,1,2,0:2:0:0:
442,294,212829,6,0,P|368:321|288:279,1,148.50000453186,4|0,0:0|0:0,0:0:0:0:
284,274,213172,1,8,0:0:0:0:
476,192,213343,1,2,0:3:0:0:
250,161,213515,1,2,0:2:0:0:
181,151,213600,1,8,0:0:0:0:
112,143,213686,2,0,L|21:131,1,49.5000015106202,2|0,0:3|0:0,0:0:0:0:
0,218,213858,1,8,0:0:0:0:
316,76,214029,1,8,0:0:0:0:
260,325,214200,6,0,P|162:326|67:298,1,198.000006042481,4|8,0:0|0:0,0:0:0:0:
0,218,214715,1,0,0:0:0:0:
63,136,214886,1,2,0:2:0:0:
237,166,215058,6,0,L|239:127,1,24.7500007553101,2|0,0:3|0:0,0:0:0:0:
220,34,215229,2,0,L|218:73,1,24.7500007553101,8|0,0:0|0:0,0:0:0:0:
255,273,215400,2,0,L|257:234,1,24.7500007553101
247,9,215572,6,0,B|304:17|304:17|352:9|352:9|396:11,1,148.50000453186,2|0,0:3|0:0,0:0:0:0:
361,106,215915,2,0,L|361:156,1,49.5000015106202,8|0,0:0|0:0,0:0:0:0:
445,207,216086,2,0,L|445:256,1,49.5000015106202,2|0,0:2|0:0,0:0:0:0:
365,315,216258,1,2,0:2:0:0:
185,238,216429,1,2,0:3:0:0:
135,230,216515,1,2,0:2:0:0:
86,221,216600,1,8,0:0:0:0:
154,370,216772,1,0,0:0:0:0:
365,315,216943,6,0,B|321:306|321:306|275:315|275:315|231:306,1,135.000005149842,2|0,0:2|0:0,0:0:0:0:
185,238,217200,2,0,B|229:229|229:229|275:238|275:238|318:229,1,135.000005149842,2|0,0:2|0:0,0:0:0:0:
375,149,217458,1,2,0:2:0:0:
178,120,217629,5,2,0:2:0:0:
375,100,217800,2,0,L|375:150,1,49.5000015106202,2|0,0:3|0:0,0:0:0:0:
275,188,217972,2,0,L|277:42,1,135.000005149842,8|0,0:0|0:0,0:0:0:0:
342,264,218315,6,0,P|272:290|197:253,1,148.50000453186,2|0,0:3|0:0,0:0:0:0:
340,359,218658,2,0,P|362:349|382:335,1,49.5000015106202,8|0,0:0|0:0,0:0:0:0:
429,261,218829,2,0,P|422:237|411:214,1,49.5000015106202,2|0,0:2|0:0,0:0:0:0:
275,188,219000,1,2,0:2:0:0:
478,102,219172,1,2,0:3:0:0:
176,121,219343,1,8,0:0:0:0:
379,35,219515,1,0,0:0:0:0:
256,293,219686,6,0,P|165:298|97:282,1,148.50000453186,4|0,0:0|0:0,0:0:0:0:
120,369,220029,6,0,B|184:347|184:347|246:375,1,135.000005149842,2|2,0:2|0:3,0:0:0:0:
429,320,220372,1,8,0:0:0:0:
256,293,220543,1,0,0:0:0:0:
375,229,220715,1,2,0:2:0:0:
202,202,220886,1,2,0:3:0:0:
475,113,221058,5,4,0:0:0:0:
429,320,221229,1,2,0:3:0:0:
298,156,221400,1,2,0:2:0:0:
142,296,221572,1,2,0:3:0:0:
93,301,221658,1,2,0:3:0:0:
44,306,221743,1,8,0:0:0:0:
21,70,221915,1,2,0:2:0:0:
21,70,222000,1,8,0:0:0:0:
21,70,222086,1,2,0:3:0:0:
200,146,222258,1,8,0:0:0:0:
249,151,222343,1,2,0:3:0:0:
298,156,222429,5,12,0:0:0:0:
123,213,222600,1,2,0:3:0:0:
383,99,222772,5,8,0:0:0:0:
32,166,222943,1,2,0:3:0:0:
395,307,223115,5,8,0:0:0:0:
37,269,223286,1,2,0:3:0:0:
389,203,223458,5,8,0:0:0:0:
207,358,223629,1,2,0:3:0:0:
207,358,223715,1,2,0:3:0:0:
207,358,223800,6,0,B|209:307|209:307|203:270|203:270|206:224,1,135.000005149842,8|0,0:2|0:0,0:0:0:0:
299,217,224058,2,0,B|296:263|296:263|302:300|302:300|300:351,1,135.000005149842,8|0,0:2|0:0,0:0:0:0:
113,320,224315,1,8,0:2:0:0:
8,199,224486,5,2,0:3:0:0:
41,174,224572,1,2,0:3:0:0:
82,176,224658,1,2,0:3:0:0:
116,153,224743,1,2,0:3:0:0:
157,155,224829,1,8,0:0:0:0:
206,241,225000,1,0,0:0:0:0:
309,108,225172,6,0,L|313:27,1,80.9999975280763,4|0,0:0|0:0,0:0:0:0:
387,132,225515,2,0,L|391:212,1,80.9999975280763,8|0,0:0|0:0,0:0:0:0:
255,244,225858,2,0,L|250:163,1,80.9999975280763,2|2,0:0|0:3,0:0:0:0:
332,268,226200,1,8,0:0:0:0:
272,322,226372,1,0,0:0:0:0:
148,215,226543,6,0,P|153:138|180:84,1,121.499996292114,2|0,0:3|0:0,0:0:0:0:
191,80,226886,1,8,0:0:0:0:
271,70,227058,1,0,0:0:0:0:
351,60,227229,1,2,0:0:0:0:
239,144,227400,1,2,0:3:0:0:
400,125,227572,2,0,L|490:107,1,80.9999975280763,8|0,0:0|0:0,0:0:0:0:
423,257,227915,6,0,P|379:267|318:258,1,80.9999975280763,2|0,0:3|0:0,0:0:0:0:
470,191,228258,2,0,P|500:234|446:336,1,161.999995056153,8|2,0:0|0:0,0:0:0:0:
390,183,228772,1,2,0:3:0:0:
307,347,228943,2,0,P|346:354|387:350,1,80.9999975280763,8|0,0:0|0:0,0:0:0:0:
219,273,229286,6,0,L|225:353,1,80.9999975280763,2|0,0:3|0:0,0:0:0:0:
76,331,229629,2,0,L|88:170,1,161.999995056153,8|2,0:0|0:0,0:0:0:0:
219,273,230143,1,2,0:3:0:0:
167,154,230315,2,0,L|173:59,1,80.9999975280763,8|0,0:0|0:0,0:0:0:0:
329,95,230658,6,0,P|375:107|432:77,1,80.9999975280763,2|0,0:3|0:0,0:0:0:0:
260,54,231000,2,0,P|248:100|278:157,1,80.9999975280763,8|0,0:0|0:0,0:0:0:0:
330,14,231343,1,2,0:0:0:0:
324,177,231515,1,2,0:3:0:0:
168,93,231686,2,0,L|82:88,1,80.9999975280763,8|0,0:0|0:0,0:0:0:0:
186,231,232029,6,0,L|267:234,1,80.9999975280763,2|0,0:3|0:0,0:0:0:0:
405,155,232372,1,8,0:0:0:0:
405,155,232543,1,0,0:0:0:0:
288,315,232715,6,0,L|199:313,1,90,2|2,0:2|0:3,0:0:0:0:
62,253,233058,1,8,0:0:0:0:
62,253,233229,1,0,0:0:0:0:
215,155,233400,6,0,L|313:158,1,99.0000030212403,2|0,0:3|0:0,0:0:0:0:
464,218,233743,1,8,0:0:0:0:
464,218,233915,1,0,0:0:0:0:
367,239,234086,1,2,0:0:0:0:
376,84,234258,1,2,0:3:0:0:
433,308,234429,1,8,0:0:0:0:
433,308,234600,1,0,0:0:0:0:
285,352,234772,6,0,P|214:366|146:347,1,135.000005149842,4|0,0:0|0:0,0:0:0:0:
47,297,235115,1,8,0:0:0:0:
219,226,235286,1,8,0:0:0:0:
47,155,235458,1,8,0:0:0:0:
47,155,235543,1,8,0:0:0:0:
47,155,235629,1,2,0:3:0:0:
275,78,235800,1,8,0:0:0:0:
245,318,235972,1,8,0:0:0:0:
438,257,236143,6,0,L|449:169,1,80.9999975280763,4|0,0:0|0:0,0:0:0:0:
372,304,236486,1,8,0:0:0:0:
445,338,236658,1,0,0:0:0:0:
362,223,236829,2,0,L|373:135,1,80.9999975280763,2|2,0:0|0:3,0:0:0:0:
372,304,237172,1,8,0:0:0:0:
298,272,237343,1,0,0:0:0:0:
372,142,237515,6,0,B|362:60|362:60|330:29,1,121.499996292114,2|0,0:3|0:0,0:0:0:0:
311,21,237858,1,8,0:0:0:0:
208,52,238029,1,0,0:0:0:0:
105,83,238200,1,2,0:0:0:0:
277,94,238372,1,2,0:3:0:0:
185,205,238543,2,0,L|174:125,1,80.9999975280763,8|0,0:0|0:0,0:0:0:0:
151,279,238886,6,0,P|211:282|244:261,1,80.9999975280763,4|0,0:0|0:0,0:0:0:0:
105,213,239229,2,0,P|71:276|125:356,1,161.999995056153,8|2,0:0|0:0,0:0:0:0:
185,205,239743,1,2,0:3:0:0:
45,159,239915,2,0,L|53:54,1,80.9999975280763,8|0,0:0|0:0,0:0:0:0:
230,56,240258,6,0,L|326:49,1,80.9999975280763,2|0,0:3|0:0,0:0:0:0:
477,150,240600,2,0,L|298:139,1,161.999995056153,8|2,0:0|0:0,0:0:0:0:
390,226,241115,1,2,0:3:0:0:
402,62,241286,1,8,0:0:0:0:
315,140,241458,1,0,0:0:0:0:
465,312,241629,5,4,0:0:0:0:
465,312,242143,5,2,0:3:0:0:
251,300,242315,1,8,0:0:0:0:
251,300,242829,5,2,0:3:0:0:
251,149,243000,1,6,0:0:0:0:
136,247,243172,1,2,0:3:0:0:
251,149,243343,1,2,0:0:0:0:
164,339,243515,1,2,0:3:0:0:
124,344,243600,1,2,0:3:0:0:
84,349,243686,1,8,0:0:0:0:
155,153,243858,1,2,0:0:0:0:
155,153,243943,1,8,0:0:0:0:
155,153,244029,1,2,0:3:0:0:
322,244,244200,1,8,0:0:0:0:
362,249,244286,1,2,0:3:0:0:
402,254,244372,5,12,0:0:0:0:
468,102,244543,1,2,0:3:0:0:
402,254,244715,1,8,0:0:0:0:
372,102,244886,1,2,0:3:0:0:
402,254,245058,1,8,0:0:0:0:
421,19,245229,1,2,0:3:0:0:
402,254,245400,1,8,0:0:0:0:
130,174,245572,1,2,0:3:0:0:
130,174,245658,1,2,0:3:0:0:
130,174,245743,6,0,P|125:239|144:318,2,121.499996292114,4|2|2,0:0|0:3|0:3,0:0:0:0:
199,86,246429,1,2,0:3:0:0:
199,86,246515,1,2,0:3:0:0:
199,86,246600,1,2,0:3:0:0:
199,86,246686,1,2,0:3:0:0:
199,86,246772,1,8,0:0:0:0:
256,192,247115,5,6,0:0:0:0:
338,185,247286,1,0,0:0:0:0:
420,178,247458,1,2,0:0:0:0:
502,171,247629,1,0,0:0:0:0:
374,111,247800,2,0,L|371:63,1,45,2|0,0:0|0:0,0:0:0:0:
468,246,248143,2,0,L|471:294,1,45,2|0,0:0|0:0,0:0:0:0:
259,236,248486,6,0,L|254:171,1,45,2|0,0:0|0:0,0:0:0:0:
189,145,248829,1,2,0:0:0:0:
189,145,249001,1,0,0:0:0:0:
162,224,249172,2,0,L|167:289,1,45,2|0,0:0|0:0,0:0:0:0:
235,314,249515,1,2,0:0:0:0:
235,314,249686,1,0,0:0:0:0:
162,224,249858,6,0,L|115:231,1,45,2|0,0:0|0:0,0:0:0:0:
24,303,250200,2,0,L|69:297,1,45,2|0,0:0|0:0,0:0:0:0:
151,307,250543,2,0,L|158:354,1,45,2|0,0:0|0:0,0:0:0:0:
36,219,250886,2,0,L|29:172,1,45,2|0,0:0|0:0,0:0:0:0:
135,50,251229,6,0,L|180:52,1,45,2|0,0:0|0:0,0:0:0:0:
215,127,251572,2,0,L|270:125,1,45,2|0,0:0|0:0,0:0:0:0:
309,59,251915,2,0,L|364:61,1,45,2|0,0:0|0:0,0:0:0:0:
412,118,252258,2,0,L|467:116,1,45,2|0,0:0|0:0,0:0:0:0:
440,270,252600,6,0,L|395:268,1,45,2|0,0:0|0:0,0:0:0:0:
360,193,252943,2,0,L|305:195,1,45,2|0,0:0|0:0,0:0:0:0:
266,261,253286,2,0,L|211:259,1,45,2|0,0:0|0:0,0:0:0:0:
163,202,253629,2,0,L|108:204,1,45,2|0,0:0|0:0,0:0:0:0:
308,112,253972,5,2,0:0:0:0:
315,194,254143,1,0,0:0:0:0:
322,276,254315,1,2,0:0:0:0:
329,358,254486,1,0,0:0:0:0:
248,241,254657,2,0,L|200:244,1,45,2|0,0:0|0:0,0:0:0:0:
383,147,255000,2,0,L|431:144,1,45,2|0,0:0|0:0,0:0:0:0:
498,279,255343,5,2,0:0:0:0:
498,279,255515,1,0,0:0:0:0:
420,255,255686,1,2,0:0:0:0:
420,255,255858,1,0,0:0:0:0:
342,279,256029,1,2,0:0:0:0:
342,279,256201,1,0,0:0:0:0:
264,255,256372,2,0,P|239:254|212:263,1,45,2|0,0:0|0:0,0:0:0:0:
127,212,256715,5,2,0:0:0:0:
125,197,256886,1,0,0:0:0:0:
126,182,257058,1,2,0:0:0:0:
131,167,257229,1,0,0:0:0:0:
227,113,257400,1,2,0:0:0:0:
306,124,257571,1,0,0:0:0:0:
338,198,257742,1,2,0:0:0:0:
291,264,257914,1,0,0:0:0:0:
211,259,258085,5,6,0:0:0:0:
256,192,258172,12,4,269058,0:0:0:0:
