osu file format v14

[General]
AudioFilename: audio.mp3
AudioLeadIn: 0
PreviewTime: 216276
Countdown: 0
SampleSet: Normal
StackLeniency: 0.7
Mode: 3
LetterboxInBreaks: 0
SpecialStyle: 0
WidescreenStoryboard: 1

[Editor]
DistanceSpacing: 1
BeatDivisor: 4
GridSize: 4
TimelineZoom: 5.999997

[Metadata]
Title:CLICK
TitleUnicode:CLICK
Artist:ClariS
ArtistUnicode:ClariS
Creator:[ Azmi ]
Version:LovelyNote!
Source:
Tags:
BeatmapID:3345972
BeatmapSetID:1639356

[Difficulty]
HPDrainRate:7.3
CircleSize:4
OverallDifficulty:0
ApproachRate:5
SliderMultiplier:1.4
SliderTickRate:1

[Events]
//Background and Video events
0,0,"bg.jpg",0,0
//Break Periods
2,201809,211076
//Storyboard Layer 0 (Background)
//Storyboard Layer 1 (Fail)
//Storyboard Layer 2 (Pass)
//Storyboard Layer 3 (Foreground)
//Storyboard Layer 4 (Overlay)
//Storyboard Sound Samples

[TimingPoints]
721,444.444444444444,4,1,0,0,1,0
55165,-45.4545454545455,4,1,0,0,0,0
55276,-142.857142857143,4,1,0,0,0,0
55387,-47.6190476190476,4,1,0,0,0,0
55498,-10000,4,1,0,0,0,0
55720,-142.857142857143,4,1,0,0,0,0
55832,-100,4,1,0,0,0,0
130054,-55.5555555555556,4,1,0,0,0,0
130165,-333.333333333333,4,1,0,0,0,0
130276,-142.857142857143,4,1,0,0,0,0
130498,-100,4,1,0,0,0,0
216276,-50,4,1,0,0,0,0
216387,-500,4,1,0,0,0,0
216720,-50,4,1,0,0,0,0
216832,-500,4,1,0,0,0,0
217165,-33.3333333333333,4,1,0,0,0,0
217276,-500,4,1,0,0,0,0
217387,-166.666666666667,4,1,0,0,0,0
217609,-100,4,1,0,0,0,0

[HitObjects]
64,192,721,5,0,0:0:0:0:
192,192,721,1,0,0:0:0:0:
320,192,832,1,0,0:0:0:0:
448,192,943,1,0,0:0:0:0:
192,192,1054,1,0,0:0:0:0:
320,192,1165,1,0,0:0:0:0:
448,192,1276,1,0,0:0:0:0:
192,192,1387,1,0,0:0:0:0:
64,192,1498,1,0,0:0:0:0:
320,192,1609,1,0,0:0:0:0:
448,192,1609,1,0,0:0:0:0:
192,192,1720,1,0,0:0:0:0:
320,192,1832,1,0,0:0:0:0:
448,192,1943,1,0,0:0:0:0:
192,192,2054,1,0,0:0:0:0:
64,192,2054,1,0,0:0:0:0:
320,192,2165,1,0,0:0:0:0:
448,192,2276,1,0,0:0:0:0:
192,192,2387,1,0,0:0:0:0:
320,192,2498,1,0,0:0:0:0:
64,192,2498,1,0,0:0:0:0:
448,192,2498,1,0,0:0:0:0:
320,192,2609,1,0,0:0:0:0:
192,192,2720,1,0,0:0:0:0:
64,192,2832,1,0,0:0:0:0:
320,192,2943,1,0,0:0:0:0:
448,192,2943,1,0,0:0:0:0:
192,192,3054,1,0,0:0:0:0:
320,192,3165,1,0,0:0:0:0:
448,192,3276,1,0,0:0:0:0:
64,192,3387,1,0,0:0:0:0:
192,192,3387,1,0,0:0:0:0:
320,192,3498,1,0,0:0:0:0:
192,192,3609,1,0,0:0:0:0:
320,192,3720,1,0,0:0:0:0:
64,192,3832,1,0,0:0:0:0:
192,192,3943,1,0,0:0:0:0:
448,192,4054,1,0,0:0:0:0:
320,192,4165,1,0,0:0:0:0:
192,192,4276,1,0,0:0:0:0:
64,192,4276,1,0,0:0:0:0:
448,192,4276,1,0,0:0:0:0:
64,192,4387,1,0,0:0:0:0:
448,192,4498,1,0,0:0:0:0:
320,192,4609,1,0,0:0:0:0:
192,192,4720,1,0,0:0:0:0:
448,192,4832,1,0,0:0:0:0:
320,192,4943,1,0,0:0:0:0:
192,192,5054,1,0,0:0:0:0:
320,192,5165,1,0,0:0:0:0:
448,192,5165,1,0,0:0:0:0:
192,192,5276,1,0,0:0:0:0:
320,192,5387,1,0,0:0:0:0:
448,192,5498,1,0,0:0:0:0:
192,192,5609,1,0,0:0:0:0:
64,192,5609,1,0,0:0:0:0:
320,192,5720,1,0,0:0:0:0:
448,192,5832,1,0,0:0:0:0:
192,192,5943,1,0,0:0:0:0:
64,192,6054,1,0,0:0:0:0:
448,192,6054,1,0,0:0:0:0:
320,192,6165,1,0,0:0:0:0:
192,192,6276,1,0,0:0:0:0:
64,192,6387,1,0,0:0:0:0:
448,192,6498,1,0,0:0:0:0:
320,192,6609,1,0,0:0:0:0:
64,192,6720,1,0,0:0:0:0:
192,192,6832,1,0,0:0:0:0:
320,192,6943,1,0,0:0:0:0:
448,192,7054,1,0,0:0:0:0:
192,192,7165,1,0,0:0:0:0:
64,192,7276,1,0,0:0:0:0:
320,192,7387,1,0,0:0:0:0:
448,192,7498,1,0,0:0:0:0:
192,192,7609,1,0,0:0:0:0:
320,192,7720,1,0,0:0:0:0:
64,192,7832,128,0,7980:0:0:0:0:
448,192,7832,1,0,0:0:0:0:
192,192,7906,128,0,8054:0:0:0:0:
320,192,7980,128,0,8128:0:0:0:0:
448,192,8054,128,0,8202:0:0:0:0:
64,192,8054,128,0,8424:0:0:0:0:
192,192,8128,128,0,8350:0:0:0:0:
320,192,8202,128,0,8276:0:0:0:0:
448,192,8276,128,0,8424:0:0:0:0:
320,192,8350,128,0,8498:0:0:0:0:
192,192,8424,128,0,8572:0:0:0:0:
64,192,8498,128,0,8646:0:0:0:0:
448,192,8646,128,0,8795:0:0:0:0:
320,192,8720,128,0,8869:0:0:0:0:
192,192,8795,128,0,8943:0:0:0:0:
64,192,8869,128,0,9017:0:0:0:0:
320,192,8943,1,0,0:0:0:0:
448,192,8943,128,0,9165:0:0:0:0:
64,192,9165,128,0,9313:0:0:0:0:
192,192,9165,1,0,0:0:0:0:
192,192,9239,128,0,9387:0:0:0:0:
320,192,9313,128,0,9461:0:0:0:0:
448,192,9387,128,0,9535:0:0:0:0:
192,192,9461,128,0,9609:0:0:0:0:
64,192,9535,128,0,9609:0:0:0:0:
448,192,9609,128,0,10054:0:0:0:0:
192,192,9943,1,0,0:0:0:0:
320,192,9943,1,0,0:0:0:0:
64,192,10054,128,0,10276:0:0:0:0:
320,192,10276,128,0,10943:0:0:0:0:
192,192,10276,1,0,0:0:0:0:
448,192,10387,1,0,0:0:0:0:
192,192,10498,1,0,0:0:0:0:
64,192,10498,1,0,0:0:0:0:
192,192,10720,1,0,0:0:0:0:
448,192,10832,1,0,0:0:0:0:
192,192,10943,1,0,0:0:0:0:
64,192,10943,1,0,0:0:0:0:
320,192,11165,128,0,11387:0:0:0:0:
192,192,11276,128,0,11498:0:0:0:0:
64,192,11387,128,0,11498:0:0:0:0:
448,192,11387,128,0,11832:0:0:0:0:
192,192,11720,1,0,0:0:0:0:
320,192,11720,1,0,0:0:0:0:
64,192,11832,128,0,12054:0:0:0:0:
192,192,11832,1,0,0:0:0:0:
448,192,12054,128,0,12720:0:0:0:0:
320,192,12054,128,0,12276:0:0:0:0:
64,192,12276,1,0,0:0:0:0:
320,192,12498,1,0,0:0:0:0:
192,192,12609,1,0,0:0:0:0:
64,192,12720,1,0,0:0:0:0:
320,192,12720,1,0,0:0:0:0:
192,192,12943,128,0,13165:0:0:0:0:
320,192,13054,128,0,13276:0:0:0:0:
64,192,13165,1,0,0:0:0:0:
448,192,13165,128,0,13609:0:0:0:0:
64,192,13387,128,0,13498:0:0:0:0:
192,192,13498,128,0,13609:0:0:0:0:
64,192,13609,1,0,0:0:0:0:
320,192,13609,128,0,13832:0:0:0:0:
64,192,13832,128,0,14498:0:0:0:0:
448,192,13832,1,0,0:0:0:0:
192,192,13832,128,0,14054:0:0:0:0:
448,192,14054,1,0,0:0:0:0:
320,192,14165,1,0,0:0:0:0:
192,192,14276,1,0,0:0:0:0:
448,192,14276,1,0,0:0:0:0:
320,192,14498,1,0,0:0:0:0:
448,192,14498,1,0,0:0:0:0:
64,192,14720,128,0,14943:0:0:0:0:
192,192,14832,128,0,15054:0:0:0:0:
320,192,14943,128,0,15165:0:0:0:0:
448,192,14943,128,0,15165:0:0:0:0:
64,192,15165,128,0,15276:0:0:0:0:
448,192,15387,128,0,15832:0:0:0:0:
64,192,15387,128,0,15609:0:0:0:0:
320,192,15609,128,0,15832:0:0:0:0:
192,192,15720,128,0,15832:0:0:0:0:
64,192,15832,128,0,16054:0:0:0:0:
192,192,16054,1,0,0:0:0:0:
320,192,16054,128,0,16276:0:0:0:0:
448,192,16276,128,0,16424:0:0:0:0:
64,192,16276,128,0,16350:0:0:0:0:
320,192,16350,128,0,16498:0:0:0:0:
192,192,16424,128,0,16572:0:0:0:0:
64,192,16498,128,0,16646:0:0:0:0:
320,192,16572,128,0,16720:0:0:0:0:
448,192,16646,128,0,16720:0:0:0:0:
64,192,16720,128,0,17165:0:0:0:0:
320,192,17054,1,0,0:0:0:0:
192,192,17054,1,0,0:0:0:0:
448,192,17165,128,0,17387:0:0:0:0:
192,192,17387,128,0,18054:0:0:0:0:
320,192,17387,1,0,0:0:0:0:
64,192,17498,1,0,0:0:0:0:
320,192,17609,1,0,0:0:0:0:
448,192,17609,1,0,0:0:0:0:
320,192,17832,1,0,0:0:0:0:
64,192,17943,1,0,0:0:0:0:
320,192,18054,1,0,0:0:0:0:
448,192,18054,1,0,0:0:0:0:
192,192,18276,128,0,18498:0:0:0:0:
320,192,18387,128,0,18609:0:0:0:0:
448,192,18498,128,0,18609:0:0:0:0:
64,192,18498,128,0,18943:0:0:0:0:
320,192,18832,1,0,0:0:0:0:
192,192,18832,1,0,0:0:0:0:
448,192,18943,128,0,19165:0:0:0:0:
320,192,18943,1,0,0:0:0:0:
64,192,19165,128,0,19832:0:0:0:0:
192,192,19165,128,0,19387:0:0:0:0:
448,192,19387,1,0,0:0:0:0:
192,192,19609,1,0,0:0:0:0:
320,192,19720,1,0,0:0:0:0:
448,192,19832,1,0,0:0:0:0:
192,192,19832,1,0,0:0:0:0:
320,192,20054,128,0,20276:0:0:0:0:
192,192,20165,128,0,20387:0:0:0:0:
448,192,20276,1,0,0:0:0:0:
64,192,20276,128,0,20720:0:0:0:0:
448,192,20498,128,0,20609:0:0:0:0:
320,192,20609,128,0,20720:0:0:0:0:
448,192,20720,1,0,0:0:0:0:
192,192,20720,128,0,20943:0:0:0:0:
448,192,20943,128,0,21609:0:0:0:0:
64,192,20943,1,0,0:0:0:0:
320,192,20943,128,0,21165:0:0:0:0:
64,192,21165,1,0,0:0:0:0:
192,192,21276,1,0,0:0:0:0:
320,192,21387,1,0,0:0:0:0:
64,192,21387,1,0,0:0:0:0:
192,192,21609,1,0,0:0:0:0:
64,192,21609,1,0,0:0:0:0:
448,192,21832,128,0,22054:0:0:0:0:
320,192,21943,128,0,22165:0:0:0:0:
192,192,22054,128,0,22276:0:0:0:0:
64,192,22054,128,0,22350:0:0:0:0:
448,192,22276,128,0,22387:0:0:0:0:
64,192,22498,128,0,22943:0:0:0:0:
448,192,22498,128,0,22720:0:0:0:0:
320,192,22609,128,0,22720:0:0:0:0:
192,192,22720,128,0,22943:0:0:0:0:
320,192,22832,128,0,22943:0:0:0:0:
448,192,22943,128,0,23165:0:0:0:0:
192,192,23165,1,0,0:0:0:0:
64,192,23165,128,0,23387:0:0:0:0:
448,192,23387,128,0,23535:0:0:0:0:
320,192,23461,128,0,23609:0:0:0:0:
192,192,23535,128,0,23683:0:0:0:0:
64,192,23609,128,0,23758:0:0:0:0:
448,192,23609,128,0,23758:0:0:0:0:
448,192,23832,128,0,24054:0:0:0:0:
320,192,23832,1,0,0:0:0:0:
64,192,23832,128,0,23943:0:0:0:0:
192,192,24054,1,0,0:0:0:0:
320,192,24165,1,0,0:0:0:0:
448,192,24276,1,0,0:0:0:0:
64,192,24276,128,0,24498:0:0:0:0:
320,192,24498,1,0,0:0:0:0:
192,192,24609,1,0,0:0:0:0:
320,192,24720,128,0,24943:0:0:0:0:
448,192,24720,1,0,0:0:0:0:
192,192,24943,1,0,0:0:0:0:
320,192,25054,1,0,0:0:0:0:
192,192,25165,1,0,0:0:0:0:
64,192,25165,128,0,25387:0:0:0:0:
320,192,25387,1,0,0:0:0:0:
448,192,25498,1,0,0:0:0:0:
64,192,25609,1,0,0:0:0:0:
320,192,25609,1,0,0:0:0:0:
192,192,25609,128,0,25832:0:0:0:0:
320,192,25832,1,0,0:0:0:0:
192,192,25943,1,0,0:0:0:0:
320,192,26054,1,0,0:0:0:0:
448,192,26054,128,0,26276:0:0:0:0:
64,192,26276,1,0,0:0:0:0:
320,192,26276,1,0,0:0:0:0:
192,192,26387,1,0,0:0:0:0:
64,192,26498,1,0,0:0:0:0:
320,192,26498,128,0,26720:0:0:0:0:
64,192,26720,1,0,0:0:0:0:
192,192,26720,1,0,0:0:0:0:
320,192,26832,1,0,0:0:0:0:
448,192,26943,1,0,0:0:0:0:
64,192,26943,128,0,27165:0:0:0:0:
192,192,27165,1,0,0:0:0:0:
448,192,27165,1,0,0:0:0:0:
320,192,27276,1,0,0:0:0:0:
64,192,27387,1,0,0:0:0:0:
448,192,27387,1,0,0:0:0:0:
192,192,27387,128,0,27609:0:0:0:0:
320,192,27609,1,0,0:0:0:0:
448,192,27609,1,0,0:0:0:0:
64,192,27720,1,0,0:0:0:0:
320,192,27832,128,0,28054:0:0:0:0:
448,192,27832,1,0,0:0:0:0:
64,192,28054,1,0,0:0:0:0:
192,192,28054,1,0,0:0:0:0:
320,192,28165,1,0,0:0:0:0:
448,192,28276,1,0,0:0:0:0:
64,192,28276,128,0,28498:0:0:0:0:
320,192,28498,1,0,0:0:0:0:
448,192,28498,1,0,0:0:0:0:
192,192,28609,1,0,0:0:0:0:
64,192,28720,1,0,0:0:0:0:
448,192,28720,128,0,28943:0:0:0:0:
64,192,28943,1,0,0:0:0:0:
320,192,28943,1,0,0:0:0:0:
192,192,29054,1,0,0:0:0:0:
64,192,29165,1,0,0:0:0:0:
320,192,29165,1,0,0:0:0:0:
448,192,29165,128,0,29387:0:0:0:0:
192,192,29387,1,0,0:0:0:0:
64,192,29387,1,0,0:0:0:0:
320,192,29498,1,0,0:0:0:0:
448,192,29609,1,0,0:0:0:0:
192,192,29609,128,0,29832:0:0:0:0:
64,192,29832,1,0,0:0:0:0:
448,192,29832,1,0,0:0:0:0:
320,192,29943,1,0,0:0:0:0:
64,192,30054,128,0,30276:0:0:0:0:
448,192,30054,1,0,0:0:0:0:
320,192,30276,1,0,0:0:0:0:
448,192,30276,1,0,0:0:0:0:
192,192,30387,1,0,0:0:0:0:
320,192,30498,1,0,0:0:0:0:
448,192,30498,128,0,30720:0:0:0:0:
64,192,30720,1,0,0:0:0:0:
192,192,30720,1,0,0:0:0:0:
320,192,30832,1,0,0:0:0:0:
192,192,30943,1,0,0:0:0:0:
448,192,30943,1,0,0:0:0:0:
64,192,30943,128,0,31165:0:0:0:0:
192,192,31165,1,0,0:0:0:0:
448,192,31165,1,0,0:0:0:0:
320,192,31276,1,0,0:0:0:0:
64,192,31387,1,0,0:0:0:0:
192,192,31387,128,0,31609:0:0:0:0:
64,192,31609,1,0,0:0:0:0:
448,192,31609,1,0,0:0:0:0:
320,192,31720,1,0,0:0:0:0:
192,192,31832,1,0,0:0:0:0:
64,192,31832,128,0,32054:0:0:0:0:
448,192,32054,1,0,0:0:0:0:
320,192,32054,1,0,0:0:0:0:
192,192,32165,1,0,0:0:0:0:
320,192,32276,1,0,0:0:0:0:
448,192,32276,128,0,32498:0:0:0:0:
64,192,32498,1,0,0:0:0:0:
192,192,32498,1,0,0:0:0:0:
320,192,32609,1,0,0:0:0:0:
448,192,32720,1,0,0:0:0:0:
64,192,32720,1,0,0:0:0:0:
192,192,32720,128,0,32943:0:0:0:0:
320,192,32943,1,0,0:0:0:0:
448,192,32943,1,0,0:0:0:0:
64,192,33054,1,0,0:0:0:0:
192,192,33165,1,0,0:0:0:0:
320,192,33165,128,0,33387:0:0:0:0:
192,192,33387,1,0,0:0:0:0:
64,192,33387,1,0,0:0:0:0:
320,192,33498,1,0,0:0:0:0:
448,192,33609,1,0,0:0:0:0:
64,192,33609,128,0,33832:0:0:0:0:
192,192,33832,1,0,0:0:0:0:
320,192,33832,1,0,0:0:0:0:
448,192,33943,1,0,0:0:0:0:
192,192,34054,1,0,0:0:0:0:
320,192,34054,128,0,34276:0:0:0:0:
192,192,34276,1,0,0:0:0:0:
64,192,34276,1,0,0:0:0:0:
320,192,34387,1,0,0:0:0:0:
192,192,34498,1,0,0:0:0:0:
64,192,34498,1,0,0:0:0:0:
448,192,34498,128,0,34720:0:0:0:0:
64,192,34720,1,0,0:0:0:0:
320,192,34720,1,0,0:0:0:0:
192,192,34832,1,0,0:0:0:0:
448,192,34943,1,0,0:0:0:0:
320,192,34943,128,0,35165:0:0:0:0:
64,192,35165,1,0,0:0:0:0:
448,192,35165,1,0,0:0:0:0:
192,192,35276,1,0,0:0:0:0:
64,192,35387,1,0,0:0:0:0:
320,192,35387,128,0,35609:0:0:0:0:
192,192,35609,5,0,0:0:0:0:
64,192,35609,1,0,0:0:0:0:
320,192,35720,1,0,0:0:0:0:
448,192,35832,1,0,0:0:0:0:
64,192,35832,128,0,36054:0:0:0:0:
192,192,36054,1,0,0:0:0:0:
448,192,36054,1,0,0:0:0:0:
320,192,36165,1,0,0:0:0:0:
64,192,36276,1,0,0:0:0:0:
448,192,36276,1,0,0:0:0:0:
192,192,36276,128,0,36498:0:0:0:0:
64,192,36498,1,0,0:0:0:0:
320,192,36498,1,0,0:0:0:0:
448,192,36498,1,0,0:0:0:0:
64,192,36720,128,0,36869:0:0:0:0:
448,192,36720,1,0,0:0:0:0:
192,192,36795,128,0,36943:0:0:0:0:
320,192,36869,128,0,37017:0:0:0:0:
448,192,36943,128,0,37091:0:0:0:0:
192,192,37017,128,0,37165:0:0:0:0:
64,192,37091,128,0,37239:0:0:0:0:
448,192,37165,128,0,37313:0:0:0:0:
320,192,37239,128,0,37387:0:0:0:0:
192,192,37313,128,0,37461:0:0:0:0:
64,192,37387,128,0,37535:0:0:0:0:
320,192,37461,128,0,37609:0:0:0:0:
448,192,37535,128,0,37609:0:0:0:0:
192,192,37609,1,0,0:0:0:0:
64,192,37609,128,0,37832:0:0:0:0:
320,192,37832,1,0,0:0:0:0:
448,192,37832,1,0,0:0:0:0:
448,192,38054,128,0,38202:0:0:0:0:
64,192,38054,128,0,38128:0:0:0:0:
320,192,38128,128,0,38276:0:0:0:0:
192,192,38202,128,0,38350:0:0:0:0:
64,192,38276,128,0,38424:0:0:0:0:
448,192,38276,128,0,38424:0:0:0:0:
320,192,38350,128,0,38498:0:0:0:0:
64,192,38498,128,0,38720:0:0:0:0:
448,192,38498,128,0,38609:0:0:0:0:
192,192,38609,128,0,38720:0:0:0:0:
320,192,38720,128,0,38943:0:0:0:0:
448,192,38720,128,0,38832:0:0:0:0:
192,192,38832,128,0,38943:0:0:0:0:
64,192,38943,128,0,39165:0:0:0:0:
448,192,38943,128,0,39054:0:0:0:0:
192,192,39054,128,0,39165:0:0:0:0:
448,192,39165,128,0,39276:0:0:0:0:
320,192,39165,128,0,39276:0:0:0:0:
192,192,39276,128,0,39387:0:0:0:0:
64,192,39387,128,0,39498:0:0:0:0:
448,192,39387,128,0,39609:0:0:0:0:
320,192,39498,128,0,39609:0:0:0:0:
64,192,39609,128,0,39832:0:0:0:0:
192,192,39609,128,0,39720:0:0:0:0:
448,192,39720,128,0,39832:0:0:0:0:
320,192,39832,128,0,40054:0:0:0:0:
192,192,39943,128,0,40054:0:0:0:0:
448,192,40054,128,0,40276:0:0:0:0:
64,192,40054,128,0,40165:0:0:0:0:
320,192,40165,128,0,40276:0:0:0:0:
64,192,40276,128,0,40498:0:0:0:0:
192,192,40276,128,0,40387:0:0:0:0:
448,192,40387,128,0,40498:0:0:0:0:
320,192,40498,128,0,40720:0:0:0:0:
192,192,40609,128,0,40720:0:0:0:0:
64,192,40720,128,0,40832:0:0:0:0:
448,192,40720,128,0,40943:0:0:0:0:
320,192,40832,128,0,40943:0:0:0:0:
64,192,40943,128,0,41165:0:0:0:0:
192,192,40943,128,0,41054:0:0:0:0:
320,192,41054,128,0,41165:0:0:0:0:
448,192,41165,128,0,41387:0:0:0:0:
192,192,41165,128,0,41276:0:0:0:0:
320,192,41276,128,0,41387:0:0:0:0:
64,192,41387,128,0,41609:0:0:0:0:
192,192,41387,128,0,41498:0:0:0:0:
320,192,41498,128,0,41609:0:0:0:0:
448,192,41609,128,0,41832:0:0:0:0:
192,192,41609,128,0,41720:0:0:0:0:
64,192,41720,128,0,41832:0:0:0:0:
320,192,41832,128,0,42054:0:0:0:0:
192,192,41832,128,0,41943:0:0:0:0:
448,192,41943,128,0,42054:0:0:0:0:
64,192,42054,128,0,42276:0:0:0:0:
192,192,42054,128,0,42165:0:0:0:0:
448,192,42165,128,0,42276:0:0:0:0:
320,192,42276,128,0,42498:0:0:0:0:
192,192,42276,128,0,42387:0:0:0:0:
448,192,42387,128,0,42498:0:0:0:0:
64,192,42498,128,0,42720:0:0:0:0:
192,192,42498,128,0,42609:0:0:0:0:
320,192,42609,128,0,42720:0:0:0:0:
448,192,42720,128,0,42943:0:0:0:0:
192,192,42720,128,0,42832:0:0:0:0:
320,192,42832,128,0,42943:0:0:0:0:
64,192,42943,128,0,43165:0:0:0:0:
192,192,42943,128,0,43054:0:0:0:0:
448,192,43054,128,0,43165:0:0:0:0:
320,192,43165,128,0,43943:0:0:0:0:
192,192,43165,128,0,43276:0:0:0:0:
448,192,43276,128,0,43387:0:0:0:0:
192,192,43387,128,0,43498:0:0:0:0:
64,192,43498,128,0,43609:0:0:0:0:
192,192,43609,128,0,43720:0:0:0:0:
448,192,43720,128,0,43832:0:0:0:0:
64,192,43832,128,0,44054:0:0:0:0:
192,192,43832,128,0,43943:0:0:0:0:
448,192,43943,128,0,44054:0:0:0:0:
320,192,44054,128,0,44276:0:0:0:0:
192,192,44054,128,0,44165:0:0:0:0:
64,192,44165,128,0,44276:0:0:0:0:
192,192,44276,128,0,44498:0:0:0:0:
448,192,44276,128,0,44387:0:0:0:0:
64,192,44387,128,0,44498:0:0:0:0:
448,192,44498,128,0,44720:0:0:0:0:
320,192,44498,128,0,44609:0:0:0:0:
64,192,44609,128,0,44720:0:0:0:0:
192,192,44720,128,0,44943:0:0:0:0:
320,192,44720,128,0,44832:0:0:0:0:
64,192,44832,128,0,44943:0:0:0:0:
448,192,44943,128,0,45054:0:0:0:0:
320,192,44943,128,0,45165:0:0:0:0:
64,192,45054,128,0,45165:0:0:0:0:
192,192,45165,128,0,45387:0:0:0:0:
448,192,45165,128,0,45276:0:0:0:0:
64,192,45276,128,0,45387:0:0:0:0:
448,192,45387,128,0,45609:0:0:0:0:
320,192,45387,128,0,45498:0:0:0:0:
64,192,45498,128,0,45609:0:0:0:0:
192,192,45609,128,0,45832:0:0:0:0:
320,192,45609,128,0,45720:0:0:0:0:
64,192,45720,128,0,45832:0:0:0:0:
448,192,45832,128,0,46054:0:0:0:0:
320,192,45832,128,0,45943:0:0:0:0:
192,192,45943,128,0,46054:0:0:0:0:
64,192,46054,128,0,46276:0:0:0:0:
320,192,46054,128,0,46165:0:0:0:0:
448,192,46165,128,0,46276:0:0:0:0:
320,192,46276,128,0,46498:0:0:0:0:
192,192,46276,128,0,46387:0:0:0:0:
448,192,46387,128,0,46498:0:0:0:0:
64,192,46498,128,0,46720:0:0:0:0:
192,192,46498,128,0,46609:0:0:0:0:
448,192,46609,128,0,46720:0:0:0:0:
320,192,46720,128,0,46943:0:0:0:0:
192,192,46720,128,0,46832:0:0:0:0:
448,192,46832,128,0,46943:0:0:0:0:
64,192,46943,128,0,47165:0:0:0:0:
192,192,46943,128,0,47054:0:0:0:0:
320,192,47054,128,0,47165:0:0:0:0:
448,192,47165,128,0,47387:0:0:0:0:
192,192,47165,128,0,47276:0:0:0:0:
320,192,47276,128,0,47387:0:0:0:0:
64,192,47387,128,0,47609:0:0:0:0:
192,192,47387,128,0,47498:0:0:0:0:
448,192,47498,128,0,47609:0:0:0:0:
320,192,47609,128,0,47832:0:0:0:0:
192,192,47609,128,0,47720:0:0:0:0:
64,192,47720,128,0,47832:0:0:0:0:
448,192,47832,128,0,48054:0:0:0:0:
192,192,47832,128,0,47943:0:0:0:0:
320,192,47943,128,0,48054:0:0:0:0:
64,192,48054,128,0,48276:0:0:0:0:
192,192,48054,128,0,48165:0:0:0:0:
448,192,48165,128,0,48276:0:0:0:0:
320,192,48276,1,0,0:0:0:0:
192,192,48276,1,0,0:0:0:0:
64,192,48498,128,0,48832:0:0:0:0:
192,192,48498,128,0,48832:0:0:0:0:
320,192,48498,128,0,49054:0:0:0:0:
448,192,48498,128,0,49054:0:0:0:0:
192,192,48943,128,0,49276:0:0:0:0:
64,192,48943,128,0,49498:0:0:0:0:
320,192,49165,128,0,49276:0:0:0:0:
448,192,49165,128,0,49720:0:0:0:0:
192,192,49387,128,0,49498:0:0:0:0:
320,192,49387,128,0,49720:0:0:0:0:
192,192,49609,128,0,49943:0:0:0:0:
64,192,49609,128,0,49943:0:0:0:0:
320,192,49832,128,0,50165:0:0:0:0:
448,192,49832,128,0,50165:0:0:0:0:
192,192,50054,128,0,50165:0:0:0:0:
64,192,50054,128,0,50165:0:0:0:0:
448,192,50276,128,0,50609:0:0:0:0:
320,192,50276,128,0,50609:0:0:0:0:
192,192,50276,128,0,50832:0:0:0:0:
64,192,50276,128,0,50832:0:0:0:0:
320,192,50720,128,0,51054:0:0:0:0:
448,192,50720,128,0,51054:0:0:0:0:
64,192,50943,128,0,51276:0:0:0:0:
192,192,50943,128,0,51165:0:0:0:0:
320,192,51165,128,0,51387:0:0:0:0:
448,192,51165,128,0,51276:0:0:0:0:
192,192,51276,128,0,51498:0:0:0:0:
64,192,51387,128,0,51498:0:0:0:0:
448,192,51387,128,0,51720:0:0:0:0:
320,192,51498,128,0,51720:0:0:0:0:
192,192,51609,128,0,51720:0:0:0:0:
64,192,51609,128,0,51720:0:0:0:0:
64,192,51832,1,0,0:0:0:0:
192,192,51832,1,0,0:0:0:0:
320,192,51832,1,0,0:0:0:0:
448,192,51832,1,0,0:0:0:0:
64,192,52054,128,0,52202:0:0:0:0:
448,192,52054,128,0,52202:0:0:0:0:
192,192,52128,128,0,52276:0:0:0:0:
320,192,52202,128,0,52350:0:0:0:0:
448,192,52276,128,0,52424:0:0:0:0:
192,192,52350,128,0,52498:0:0:0:0:
64,192,52424,128,0,52572:0:0:0:0:
320,192,52498,128,0,52646:0:0:0:0:
448,192,52572,128,0,52720:0:0:0:0:
64,192,52646,128,0,52795:0:0:0:0:
192,192,52720,128,0,52869:0:0:0:0:
320,192,52795,128,0,52943:0:0:0:0:
448,192,52869,128,0,53017:0:0:0:0:
64,192,52869,128,0,53017:0:0:0:0:
192,192,52943,128,0,53091:0:0:0:0:
320,192,53017,128,0,53165:0:0:0:0:
448,192,53091,128,0,53239:0:0:0:0:
192,192,53165,128,0,53313:0:0:0:0:
64,192,53239,128,0,53387:0:0:0:0:
320,192,53313,128,0,53461:0:0:0:0:
448,192,53387,128,0,53535:0:0:0:0:
64,192,53461,128,0,53609:0:0:0:0:
192,192,53535,128,0,53683:0:0:0:0:
320,192,53609,128,0,53758:0:0:0:0:
448,192,53683,128,0,53832:0:0:0:0:
64,192,53683,128,0,53832:0:0:0:0:
192,192,53758,128,0,53906:0:0:0:0:
320,192,53832,128,0,53980:0:0:0:0:
448,192,53906,128,0,54054:0:0:0:0:
64,192,54054,5,0,0:0:0:0:
192,192,54054,1,0,0:0:0:0:
320,192,54128,1,0,0:0:0:0:
192,192,54202,1,0,0:0:0:0:
64,192,54276,1,0,0:0:0:0:
448,192,54276,128,0,54498:0:0:0:0:
64,192,54498,1,0,0:0:0:0:
192,192,54572,1,0,0:0:0:0:
448,192,54646,1,0,0:0:0:0:
320,192,54720,1,0,0:0:0:0:
64,192,54795,1,0,0:0:0:0:
192,192,54869,1,0,0:0:0:0:
320,192,54943,1,0,0:0:0:0:
448,192,54943,1,0,0:0:0:0:
64,192,55017,1,0,0:0:0:0:
192,192,55091,1,0,0:0:0:0:
320,192,55165,1,0,0:0:0:0:
448,192,55165,1,0,0:0:0:0:
64,192,55165,1,0,0:0:0:0:
64,192,55387,1,0,0:0:0:0:
192,192,55387,1,0,0:0:0:0:
320,192,55387,1,0,0:0:0:0:
448,192,55387,1,0,0:0:0:0:
448,192,55832,128,0,55980:0:0:0:0:
320,192,55906,128,0,56054:0:0:0:0:
192,192,55980,128,0,56128:0:0:0:0:
64,192,56054,128,0,56202:0:0:0:0:
320,192,56128,128,0,56276:0:0:0:0:
448,192,56202,128,0,56350:0:0:0:0:
64,192,56276,128,0,56498:0:0:0:0:
192,192,56276,1,0,0:0:0:0:
320,192,56498,1,0,0:0:0:0:
448,192,56498,1,0,0:0:0:0:
192,192,56609,1,0,0:0:0:0:
64,192,56720,1,0,0:0:0:0:
448,192,56720,128,0,56943:0:0:0:0:
320,192,56720,128,0,56943:0:0:0:0:
192,192,56943,128,0,57165:0:0:0:0:
448,192,57165,1,0,0:0:0:0:
64,192,57165,1,0,0:0:0:0:
320,192,57387,1,0,0:0:0:0:
192,192,57498,1,0,0:0:0:0:
448,192,57609,1,0,0:0:0:0:
64,192,57609,1,0,0:0:0:0:
192,192,57832,1,0,0:0:0:0:
320,192,57832,1,0,0:0:0:0:
64,192,58054,1,0,0:0:0:0:
320,192,58054,1,0,0:0:0:0:
448,192,58054,1,0,0:0:0:0:
192,192,58054,128,0,58276:0:0:0:0:
64,192,58276,128,0,58498:0:0:0:0:
448,192,58276,128,0,58387:0:0:0:0:
448,192,58498,128,0,58646:0:0:0:0:
320,192,58572,128,0,58720:0:0:0:0:
64,192,58646,128,0,58795:0:0:0:0:
192,192,58720,128,0,58869:0:0:0:0:
320,192,58795,128,0,58943:0:0:0:0:
448,192,58869,128,0,58943:0:0:0:0:
64,192,58943,128,0,59091:0:0:0:0:
192,192,59017,128,0,59165:0:0:0:0:
320,192,59091,128,0,59239:0:0:0:0:
448,192,59165,128,0,59313:0:0:0:0:
64,192,59165,128,0,59387:0:0:0:0:
448,192,59387,128,0,59609:0:0:0:0:
192,192,59387,1,0,0:0:0:0:
320,192,59498,128,0,59720:0:0:0:0:
192,192,59609,128,0,59832:0:0:0:0:
64,192,59609,128,0,59758:0:0:0:0:
448,192,59832,128,0,60054:0:0:0:0:
64,192,59832,1,0,0:0:0:0:
64,192,60054,128,0,60276:0:0:0:0:
320,192,60054,1,0,0:0:0:0:
320,192,60276,1,0,0:0:0:0:
448,192,60276,1,0,0:0:0:0:
192,192,60387,1,0,0:0:0:0:
64,192,60498,1,0,0:0:0:0:
448,192,60498,1,0,0:0:0:0:
320,192,60720,1,0,0:0:0:0:
64,192,60720,1,0,0:0:0:0:
448,192,60720,128,0,60943:0:0:0:0:
64,192,60943,128,0,61165:0:0:0:0:
448,192,61165,128,0,61498:0:0:0:0:
320,192,61165,128,0,61387:0:0:0:0:
192,192,61165,128,0,61276:0:0:0:0:
192,192,61313,128,0,61461:0:0:0:0:
64,192,61387,128,0,61535:0:0:0:0:
320,192,61461,128,0,61609:0:0:0:0:
448,192,61535,128,0,61683:0:0:0:0:
64,192,61609,128,0,61832:0:0:0:0:
192,192,61609,1,0,0:0:0:0:
320,192,61832,128,0,62054:0:0:0:0:
448,192,61832,1,0,0:0:0:0:
64,192,62054,128,0,62202:0:0:0:0:
192,192,62128,128,0,62276:0:0:0:0:
320,192,62202,128,0,62350:0:0:0:0:
448,192,62276,128,0,62424:0:0:0:0:
192,192,62350,128,0,62498:0:0:0:0:
64,192,62424,128,0,62572:0:0:0:0:
320,192,62498,128,0,62646:0:0:0:0:
448,192,62572,128,0,62720:0:0:0:0:
192,192,62720,128,0,62943:0:0:0:0:
64,192,62720,1,0,0:0:0:0:
320,192,62832,1,0,0:0:0:0:
448,192,62943,128,0,63165:0:0:0:0:
64,192,62943,128,0,63054:0:0:0:0:
192,192,63165,128,0,63313:0:0:0:0:
64,192,63239,128,0,63387:0:0:0:0:
448,192,63387,128,0,63609:0:0:0:0:
320,192,63387,1,0,0:0:0:0:
192,192,63609,1,0,0:0:0:0:
64,192,63609,1,0,0:0:0:0:
320,192,63720,1,0,0:0:0:0:
448,192,63832,1,0,0:0:0:0:
64,192,63832,128,0,63980:0:0:0:0:
192,192,63906,128,0,64054:0:0:0:0:
320,192,63980,128,0,64128:0:0:0:0:
448,192,64054,128,0,64202:0:0:0:0:
192,192,64128,128,0,64276:0:0:0:0:
64,192,64202,128,0,64350:0:0:0:0:
320,192,64276,1,0,0:0:0:0:
448,192,64276,128,0,64498:0:0:0:0:
192,192,64498,128,0,64720:0:0:0:0:
320,192,64498,1,0,0:0:0:0:
64,192,64609,1,0,0:0:0:0:
320,192,64720,1,0,0:0:0:0:
448,192,64720,1,0,0:0:0:0:
192,192,64832,1,0,0:0:0:0:
64,192,64943,1,0,0:0:0:0:
448,192,64943,1,0,0:0:0:0:
320,192,65165,128,0,65498:0:0:0:0:
448,192,65165,128,0,65276:0:0:0:0:
64,192,65165,1,0,0:0:0:0:
192,192,65276,128,0,65387:0:0:0:0:
64,192,65387,128,0,65609:0:0:0:0:
448,192,65387,128,0,65498:0:0:0:0:
192,192,65498,128,0,65720:0:0:0:0:
448,192,65609,128,0,65943:0:0:0:0:
320,192,65609,128,0,65832:0:0:0:0:
64,192,65720,128,0,65943:0:0:0:0:
192,192,65832,128,0,66054:0:0:0:0:
320,192,65943,128,0,66165:0:0:0:0:
64,192,66054,128,0,66276:0:0:0:0:
448,192,66054,128,0,66165:0:0:0:0:
192,192,66165,128,0,66276:0:0:0:0:
448,192,66276,128,0,66498:0:0:0:0:
320,192,66276,1,0,0:0:0:0:
64,192,66498,1,0,0:0:0:0:
192,192,66498,1,0,0:0:0:0:
320,192,66609,1,0,0:0:0:0:
448,192,66720,1,0,0:0:0:0:
64,192,66720,1,0,0:0:0:0:
192,192,66832,1,0,0:0:0:0:
320,192,66943,1,0,0:0:0:0:
448,192,66943,1,0,0:0:0:0:
64,192,67054,1,0,0:0:0:0:
192,192,67165,1,0,0:0:0:0:
320,192,67165,1,0,0:0:0:0:
448,192,67276,1,0,0:0:0:0:
192,192,67387,1,0,0:0:0:0:
64,192,67387,1,0,0:0:0:0:
320,192,67498,1,0,0:0:0:0:
64,192,67609,1,0,0:0:0:0:
448,192,67609,1,0,0:0:0:0:
192,192,67720,1,0,0:0:0:0:
320,192,67832,1,0,0:0:0:0:
448,192,67832,1,0,0:0:0:0:
192,192,67943,1,0,0:0:0:0:
64,192,68054,1,0,0:0:0:0:
448,192,68054,1,0,0:0:0:0:
320,192,68165,1,0,0:0:0:0:
448,192,68276,1,0,0:0:0:0:
192,192,68276,1,0,0:0:0:0:
64,192,68276,128,0,68498:0:0:0:0:
320,192,68498,1,0,0:0:0:0:
448,192,68498,1,0,0:0:0:0:
192,192,68609,1,0,0:0:0:0:
64,192,68720,1,0,0:0:0:0:
448,192,68720,1,0,0:0:0:0:
320,192,68832,1,0,0:0:0:0:
192,192,68943,1,0,0:0:0:0:
64,192,68943,1,0,0:0:0:0:
320,192,69054,1,0,0:0:0:0:
192,192,69165,1,0,0:0:0:0:
64,192,69165,1,0,0:0:0:0:
320,192,69276,1,0,0:0:0:0:
448,192,69276,1,0,0:0:0:0:
192,192,69387,1,0,0:0:0:0:
64,192,69387,1,0,0:0:0:0:
320,192,69498,1,0,0:0:0:0:
448,192,69609,1,0,0:0:0:0:
192,192,69609,1,0,0:0:0:0:
64,192,69609,1,0,0:0:0:0:
448,192,69832,1,0,0:0:0:0:
64,192,69832,1,0,0:0:0:0:
320,192,70054,128,0,70202:0:0:0:0:
448,192,70054,128,0,70202:0:0:0:0:
192,192,70128,128,0,70276:0:0:0:0:
64,192,70202,128,0,70350:0:0:0:0:
320,192,70276,128,0,70424:0:0:0:0:
448,192,70350,128,0,70498:0:0:0:0:
64,192,70498,128,0,70720:0:0:0:0:
192,192,70498,1,0,0:0:0:0:
448,192,70720,1,0,0:0:0:0:
320,192,70720,1,0,0:0:0:0:
192,192,70832,1,0,0:0:0:0:
64,192,70943,1,0,0:0:0:0:
448,192,70943,128,0,71165:0:0:0:0:
64,192,71165,1,0,0:0:0:0:
192,192,71165,1,0,0:0:0:0:
320,192,71276,1,0,0:0:0:0:
448,192,71387,1,0,0:0:0:0:
64,192,71387,128,0,71609:0:0:0:0:
320,192,71609,128,0,71832:0:0:0:0:
448,192,71609,1,0,0:0:0:0:
192,192,71832,128,0,71980:0:0:0:0:
64,192,71906,128,0,72054:0:0:0:0:
320,192,71980,128,0,72128:0:0:0:0:
448,192,72054,128,0,72202:0:0:0:0:
64,192,72128,128,0,72276:0:0:0:0:
192,192,72202,128,0,72350:0:0:0:0:
320,192,72276,128,0,72424:0:0:0:0:
448,192,72350,128,0,72498:0:0:0:0:
192,192,72424,128,0,72572:0:0:0:0:
64,192,72498,128,0,72646:0:0:0:0:
320,192,72572,128,0,72720:0:0:0:0:
448,192,72646,128,0,72795:0:0:0:0:
192,192,72720,128,0,72943:0:0:0:0:
64,192,72795,128,0,72943:0:0:0:0:
448,192,72943,128,0,73165:0:0:0:0:
192,192,73165,1,0,0:0:0:0:
64,192,73165,128,0,73387:0:0:0:0:
320,192,73387,128,0,73609:0:0:0:0:
64,192,73609,128,0,73943:0:0:0:0:
448,192,73609,128,0,73720:0:0:0:0:
192,192,73720,128,0,73943:0:0:0:0:
320,192,73832,128,0,74054:0:0:0:0:
448,192,73943,128,0,74387:0:0:0:0:
64,192,74054,128,0,74276:0:0:0:0:
192,192,74054,128,0,74165:0:0:0:0:
320,192,74165,128,0,74387:0:0:0:0:
192,192,74276,128,0,74498:0:0:0:0:
64,192,74387,128,0,74609:0:0:0:0:
320,192,74498,128,0,74720:0:0:0:0:
448,192,74498,128,0,74832:0:0:0:0:
192,192,74609,128,0,74943:0:0:0:0:
64,192,74720,128,0,74832:0:0:0:0:
320,192,74832,128,0,75054:0:0:0:0:
448,192,74943,128,0,75054:0:0:0:0:
64,192,74943,128,0,75276:0:0:0:0:
192,192,75054,128,0,75165:0:0:0:0:
320,192,75165,128,0,75387:0:0:0:0:
448,192,75165,128,0,75276:0:0:0:0:
192,192,75276,128,0,75720:0:0:0:0:
64,192,75387,128,0,75498:0:0:0:0:
448,192,75387,128,0,75609:0:0:0:0:
320,192,75498,128,0,75720:0:0:0:0:
64,192,75609,128,0,75832:0:0:0:0:
448,192,75720,128,0,76165:0:0:0:0:
192,192,75832,128,0,75943:0:0:0:0:
320,192,75832,128,0,76054:0:0:0:0:
64,192,75943,128,0,76276:0:0:0:0:
192,192,76054,128,0,76276:0:0:0:0:
320,192,76165,128,0,76276:0:0:0:0:
448,192,76276,128,0,76387:0:0:0:0:
192,192,76387,1,0,0:0:0:0:
320,192,76387,1,0,0:0:0:0:
64,192,76498,1,0,0:0:0:0:
448,192,76498,1,0,0:0:0:0:
64,192,76720,1,0,0:0:0:0:
192,192,76720,1,0,0:0:0:0:
320,192,76720,1,0,0:0:0:0:
448,192,76720,1,0,0:0:0:0:
192,192,76943,1,0,0:0:0:0:
320,192,76943,1,0,0:0:0:0:
320,192,77165,128,0,77313:0:0:0:0:
448,192,77165,128,0,77313:0:0:0:0:
192,192,77239,128,0,77387:0:0:0:0:
64,192,77313,128,0,77461:0:0:0:0:
320,192,77387,128,0,77535:0:0:0:0:
448,192,77461,128,0,77609:0:0:0:0:
64,192,77535,128,0,77683:0:0:0:0:
192,192,77609,128,0,77758:0:0:0:0:
320,192,77683,128,0,77832:0:0:0:0:
448,192,77758,128,0,77906:0:0:0:0:
192,192,77832,128,0,77980:0:0:0:0:
64,192,77906,128,0,78054:0:0:0:0:
320,192,78054,1,0,0:0:0:0:
448,192,78054,1,0,0:0:0:0:
192,192,78165,1,0,0:0:0:0:
320,192,78276,1,0,0:0:0:0:
448,192,78387,1,0,0:0:0:0:
192,192,78498,1,0,0:0:0:0:
64,192,78498,1,0,0:0:0:0:
320,192,78609,1,0,0:0:0:0:
448,192,78720,1,0,0:0:0:0:
192,192,78832,1,0,0:0:0:0:
448,192,78943,1,0,0:0:0:0:
320,192,78943,1,0,0:0:0:0:
64,192,78943,128,0,79165:0:0:0:0:
320,192,79165,1,0,0:0:0:0:
448,192,79165,1,0,0:0:0:0:
192,192,79276,1,0,0:0:0:0:
64,192,79387,1,0,0:0:0:0:
448,192,79387,1,0,0:0:0:0:
320,192,79498,1,0,0:0:0:0:
192,192,79609,1,0,0:0:0:0:
64,192,79720,1,0,0:0:0:0:
320,192,79832,1,0,0:0:0:0:
448,192,79832,1,0,0:0:0:0:
192,192,79943,1,0,0:0:0:0:
320,192,80054,1,0,0:0:0:0:
448,192,80165,1,0,0:0:0:0:
192,192,80276,1,0,0:0:0:0:
64,192,80276,1,0,0:0:0:0:
320,192,80387,1,0,0:0:0:0:
448,192,80498,1,0,0:0:0:0:
64,192,80498,1,0,0:0:0:0:
192,192,80609,1,0,0:0:0:0:
320,192,80720,1,0,0:0:0:0:
64,192,80720,1,0,0:0:0:0:
448,192,80720,128,0,80943:0:0:0:0:
64,192,80943,1,0,0:0:0:0:
192,192,80943,1,0,0:0:0:0:
320,192,81054,1,0,0:0:0:0:
448,192,81165,1,0,0:0:0:0:
64,192,81165,1,0,0:0:0:0:
192,192,81276,1,0,0:0:0:0:
320,192,81387,1,0,0:0:0:0:
192,192,81498,1,0,0:0:0:0:
320,192,81609,1,0,0:0:0:0:
448,192,81609,1,0,0:0:0:0:
64,192,81720,1,0,0:0:0:0:
192,192,81832,1,0,0:0:0:0:
320,192,81943,1,0,0:0:0:0:
448,192,82054,1,0,0:0:0:0:
64,192,82054,1,0,0:0:0:0:
192,192,82165,1,0,0:0:0:0:
448,192,82276,1,0,0:0:0:0:
320,192,82387,1,0,0:0:0:0:
64,192,82498,1,0,0:0:0:0:
448,192,82498,1,0,0:0:0:0:
192,192,82498,128,0,82720:0:0:0:0:
64,192,82720,1,0,0:0:0:0:
448,192,82720,1,0,0:0:0:0:
320,192,82832,1,0,0:0:0:0:
64,192,82943,1,0,0:0:0:0:
448,192,82943,1,0,0:0:0:0:
192,192,83054,1,0,0:0:0:0:
448,192,83165,1,0,0:0:0:0:
320,192,83276,1,0,0:0:0:0:
64,192,83387,1,0,0:0:0:0:
192,192,83387,1,0,0:0:0:0:
320,192,83498,1,0,0:0:0:0:
448,192,83498,1,0,0:0:0:0:
192,192,83609,1,0,0:0:0:0:
64,192,83609,1,0,0:0:0:0:
320,192,83720,1,0,0:0:0:0:
448,192,83720,1,0,0:0:0:0:
448,192,83832,1,0,0:0:0:0:
64,192,83832,128,0,83980:0:0:0:0:
192,192,83906,128,0,84054:0:0:0:0:
320,192,83980,128,0,84128:0:0:0:0:
448,192,84054,128,0,84202:0:0:0:0:
64,192,84054,128,0,84202:0:0:0:0:
448,192,84276,128,0,84720:0:0:0:0:
64,192,84276,128,0,84498:0:0:0:0:
192,192,84609,1,0,0:0:0:0:
320,192,84609,1,0,0:0:0:0:
64,192,84720,128,0,84943:0:0:0:0:
320,192,84943,128,0,85609:0:0:0:0:
192,192,84943,1,0,0:0:0:0:
448,192,85054,1,0,0:0:0:0:
192,192,85165,1,0,0:0:0:0:
64,192,85165,1,0,0:0:0:0:
192,192,85387,1,0,0:0:0:0:
448,192,85498,1,0,0:0:0:0:
192,192,85609,1,0,0:0:0:0:
448,192,85609,1,0,0:0:0:0:
64,192,85609,128,0,85832:0:0:0:0:
320,192,85832,128,0,86054:0:0:0:0:
192,192,85943,128,0,86165:0:0:0:0:
64,192,86054,128,0,86165:0:0:0:0:
448,192,86054,128,0,86498:0:0:0:0:
64,192,86276,1,0,0:0:0:0:
192,192,86387,1,0,0:0:0:0:
320,192,86387,1,0,0:0:0:0:
64,192,86498,128,0,86720:0:0:0:0:
192,192,86498,1,0,0:0:0:0:
448,192,86720,128,0,87387:0:0:0:0:
320,192,86720,128,0,86943:0:0:0:0:
64,192,86943,128,0,87165:0:0:0:0:
320,192,87165,1,0,0:0:0:0:
192,192,87276,1,0,0:0:0:0:
320,192,87387,1,0,0:0:0:0:
64,192,87387,128,0,87609:0:0:0:0:
192,192,87609,128,0,87832:0:0:0:0:
320,192,87720,128,0,87943:0:0:0:0:
64,192,87832,1,0,0:0:0:0:
448,192,87832,128,0,88276:0:0:0:0:
64,192,88054,128,0,88165:0:0:0:0:
192,192,88165,128,0,88276:0:0:0:0:
64,192,88276,1,0,0:0:0:0:
320,192,88276,128,0,88498:0:0:0:0:
64,192,88498,128,0,89165:0:0:0:0:
448,192,88498,1,0,0:0:0:0:
192,192,88498,128,0,88720:0:0:0:0:
448,192,88720,1,0,0:0:0:0:
320,192,88832,1,0,0:0:0:0:
192,192,88943,1,0,0:0:0:0:
448,192,88943,1,0,0:0:0:0:
320,192,89165,1,0,0:0:0:0:
448,192,89165,1,0,0:0:0:0:
64,192,89387,128,0,89609:0:0:0:0:
192,192,89498,128,0,89720:0:0:0:0:
320,192,89609,128,0,89832:0:0:0:0:
448,192,89720,128,0,89943:0:0:0:0:
64,192,89832,128,0,89943:0:0:0:0:
192,192,89832,128,0,89943:0:0:0:0:
448,192,90054,128,0,90498:0:0:0:0:
64,192,90054,128,0,90276:0:0:0:0:
320,192,90276,128,0,90498:0:0:0:0:
192,192,90387,128,0,90498:0:0:0:0:
64,192,90498,128,0,90720:0:0:0:0:
192,192,90720,1,0,0:0:0:0:
320,192,90720,128,0,90943:0:0:0:0:
448,192,90720,1,0,0:0:0:0:
448,192,90943,128,0,91091:0:0:0:0:
64,192,90943,128,0,91017:0:0:0:0:
320,192,91017,128,0,91165:0:0:0:0:
192,192,91091,128,0,91239:0:0:0:0:
64,192,91165,128,0,91313:0:0:0:0:
320,192,91239,128,0,91387:0:0:0:0:
448,192,91313,128,0,91387:0:0:0:0:
64,192,91387,128,0,91832:0:0:0:0:
192,192,91387,128,0,91609:0:0:0:0:
448,192,91609,1,0,0:0:0:0:
320,192,91720,1,0,0:0:0:0:
192,192,91720,1,0,0:0:0:0:
448,192,91832,128,0,92054:0:0:0:0:
320,192,91832,1,0,0:0:0:0:
192,192,92054,128,0,92720:0:0:0:0:
320,192,92054,1,0,0:0:0:0:
64,192,92165,1,0,0:0:0:0:
320,192,92276,1,0,0:0:0:0:
448,192,92276,1,0,0:0:0:0:
320,192,92498,1,0,0:0:0:0:
64,192,92609,1,0,0:0:0:0:
320,192,92720,1,0,0:0:0:0:
64,192,92720,1,0,0:0:0:0:
448,192,92720,128,0,92943:0:0:0:0:
192,192,92943,128,0,93165:0:0:0:0:
320,192,93054,128,0,93276:0:0:0:0:
448,192,93165,128,0,93276:0:0:0:0:
64,192,93165,128,0,93609:0:0:0:0:
448,192,93387,1,0,0:0:0:0:
320,192,93498,1,0,0:0:0:0:
192,192,93498,1,0,0:0:0:0:
448,192,93609,128,0,93832:0:0:0:0:
320,192,93609,1,0,0:0:0:0:
64,192,93832,128,0,94498:0:0:0:0:
192,192,93832,128,0,94054:0:0:0:0:
448,192,94054,128,0,94276:0:0:0:0:
192,192,94276,1,0,0:0:0:0:
320,192,94387,1,0,0:0:0:0:
448,192,94498,1,0,0:0:0:0:
192,192,94498,128,0,94720:0:0:0:0:
320,192,94720,128,0,94943:0:0:0:0:
192,192,94832,128,0,95054:0:0:0:0:
448,192,94943,1,0,0:0:0:0:
64,192,94943,128,0,95387:0:0:0:0:
448,192,95165,128,0,95276:0:0:0:0:
320,192,95276,128,0,95387:0:0:0:0:
448,192,95387,1,0,0:0:0:0:
192,192,95387,128,0,95609:0:0:0:0:
448,192,95609,128,0,96276:0:0:0:0:
64,192,95609,1,0,0:0:0:0:
320,192,95609,128,0,95832:0:0:0:0:
64,192,95832,1,0,0:0:0:0:
192,192,95943,1,0,0:0:0:0:
320,192,96054,1,0,0:0:0:0:
64,192,96054,1,0,0:0:0:0:
192,192,96276,1,0,0:0:0:0:
64,192,96276,128,0,96609:0:0:0:0:
448,192,96498,128,0,96720:0:0:0:0:
320,192,96609,128,0,96832:0:0:0:0:
192,192,96720,128,0,96943:0:0:0:0:
64,192,96832,128,0,97054:0:0:0:0:
448,192,96943,128,0,97054:0:0:0:0:
320,192,96943,128,0,97054:0:0:0:0:
64,192,97165,128,0,97609:0:0:0:0:
448,192,97165,128,0,97387:0:0:0:0:
320,192,97276,128,0,97387:0:0:0:0:
192,192,97387,128,0,97609:0:0:0:0:
320,192,97498,128,0,97609:0:0:0:0:
448,192,97609,128,0,97832:0:0:0:0:
192,192,97832,1,0,0:0:0:0:
64,192,97832,128,0,98054:0:0:0:0:
448,192,98054,128,0,98202:0:0:0:0:
320,192,98128,128,0,98276:0:0:0:0:
192,192,98202,128,0,98350:0:0:0:0:
64,192,98276,128,0,98424:0:0:0:0:
448,192,98276,128,0,98424:0:0:0:0:
64,192,98498,128,0,98720:0:0:0:0:
448,192,98498,1,0,0:0:0:0:
192,192,98609,1,0,0:0:0:0:
320,192,98720,1,0,0:0:0:0:
448,192,98720,1,0,0:0:0:0:
64,192,98832,1,0,0:0:0:0:
192,192,98943,1,0,0:0:0:0:
448,192,98943,1,0,0:0:0:0:
320,192,99054,1,0,0:0:0:0:
448,192,99165,128,0,99387:0:0:0:0:
64,192,99165,1,0,0:0:0:0:
192,192,99276,1,0,0:0:0:0:
192,192,99387,128,0,99609:0:0:0:0:
320,192,99387,1,0,0:0:0:0:
64,192,99498,1,0,0:0:0:0:
64,192,99609,128,0,99832:0:0:0:0:
448,192,99609,1,0,0:0:0:0:
320,192,99720,1,0,0:0:0:0:
192,192,99832,1,0,0:0:0:0:
320,192,99832,128,0,100054:0:0:0:0:
448,192,99943,1,0,0:0:0:0:
64,192,100054,1,0,0:0:0:0:
192,192,100054,1,0,0:0:0:0:
320,192,100165,1,0,0:0:0:0:
448,192,100276,1,0,0:0:0:0:
64,192,100276,1,0,0:0:0:0:
192,192,100276,1,0,0:0:0:0:
320,192,100498,1,0,0:0:0:0:
448,192,100498,1,0,0:0:0:0:
192,192,100609,1,0,0:0:0:0:
64,192,100720,1,0,0:0:0:0:
320,192,100720,1,0,0:0:0:0:
448,192,100832,1,0,0:0:0:0:
64,192,100943,128,0,101165:0:0:0:0:
192,192,100943,1,0,0:0:0:0:
448,192,101054,1,0,0:0:0:0:
320,192,101165,128,0,101387:0:0:0:0:
192,192,101165,1,0,0:0:0:0:
64,192,101276,1,0,0:0:0:0:
448,192,101387,128,0,101609:0:0:0:0:
192,192,101387,1,0,0:0:0:0:
320,192,101498,1,0,0:0:0:0:
64,192,101609,128,0,101832:0:0:0:0:
192,192,101609,1,0,0:0:0:0:
448,192,101720,1,0,0:0:0:0:
192,192,101832,1,0,0:0:0:0:
320,192,101832,128,0,102276:0:0:0:0:
448,192,101943,1,0,0:0:0:0:
192,192,102054,1,0,0:0:0:0:
64,192,102054,1,0,0:0:0:0:
448,192,102054,1,0,0:0:0:0:
64,192,102276,1,0,0:0:0:0:
192,192,102276,1,0,0:0:0:0:
448,192,102387,1,0,0:0:0:0:
192,192,102498,128,0,102720:0:0:0:0:
64,192,102498,1,0,0:0:0:0:
320,192,102609,1,0,0:0:0:0:
448,192,102720,128,0,102943:0:0:0:0:
64,192,102720,1,0,0:0:0:0:
320,192,102832,1,0,0:0:0:0:
64,192,102943,128,0,103387:0:0:0:0:
192,192,102943,1,0,0:0:0:0:
320,192,103165,1,0,0:0:0:0:
448,192,103165,1,0,0:0:0:0:
448,192,103387,128,0,103609:0:0:0:0:
320,192,103387,1,0,0:0:0:0:
192,192,103498,1,0,0:0:0:0:
192,192,103609,128,0,103832:0:0:0:0:
64,192,103609,1,0,0:0:0:0:
320,192,103720,1,0,0:0:0:0:
448,192,103832,1,0,0:0:0:0:
64,192,103832,1,0,0:0:0:0:
320,192,103943,1,0,0:0:0:0:
192,192,104054,1,0,0:0:0:0:
64,192,104054,128,0,104276:0:0:0:0:
320,192,104276,1,0,0:0:0:0:
448,192,104276,1,0,0:0:0:0:
192,192,104387,1,0,0:0:0:0:
320,192,104498,128,0,104720:0:0:0:0:
64,192,104498,1,0,0:0:0:0:
448,192,104609,1,0,0:0:0:0:
64,192,104720,128,0,104943:0:0:0:0:
192,192,104720,1,0,0:0:0:0:
320,192,104832,1,0,0:0:0:0:
448,192,104943,128,0,105165:0:0:0:0:
192,192,104943,1,0,0:0:0:0:
64,192,105054,1,0,0:0:0:0:
192,192,105165,128,0,105387:0:0:0:0:
320,192,105165,1,0,0:0:0:0:
320,192,105387,1,0,0:0:0:0:
448,192,105387,1,0,0:0:0:0:
64,192,105498,128,0,106054:0:0:0:0:
192,192,105498,1,0,0:0:0:0:
320,192,105609,1,0,0:0:0:0:
448,192,105609,1,0,0:0:0:0:
192,192,105720,1,0,0:0:0:0:
448,192,105832,1,0,0:0:0:0:
320,192,105943,1,0,0:0:0:0:
192,192,106054,1,0,0:0:0:0:
448,192,106054,128,0,106276:0:0:0:0:
192,192,106276,1,0,0:0:0:0:
64,192,106276,1,0,0:0:0:0:
320,192,106387,1,0,0:0:0:0:
64,192,106498,128,0,106720:0:0:0:0:
448,192,106498,1,0,0:0:0:0:
192,192,106609,1,0,0:0:0:0:
320,192,106720,128,0,106943:0:0:0:0:
448,192,106720,1,0,0:0:0:0:
192,192,106832,1,0,0:0:0:0:
192,192,106943,128,0,107165:0:0:0:0:
64,192,106943,1,0,0:0:0:0:
320,192,107054,1,0,0:0:0:0:
448,192,107165,128,0,107832:0:0:0:0:
64,192,107165,1,0,0:0:0:0:
64,192,107387,1,0,0:0:0:0:
192,192,107387,1,0,0:0:0:0:
320,192,107609,1,0,0:0:0:0:
192,192,107720,1,0,0:0:0:0:
192,192,107832,128,0,108054:0:0:0:0:
64,192,107832,1,0,0:0:0:0:
320,192,107943,1,0,0:0:0:0:
448,192,108054,1,0,0:0:0:0:
64,192,108054,1,0,0:0:0:0:
192,192,108165,1,0,0:0:0:0:
448,192,108276,128,0,108498:0:0:0:0:
320,192,108276,1,0,0:0:0:0:
192,192,108387,1,0,0:0:0:0:
64,192,108498,128,0,108720:0:0:0:0:
320,192,108498,1,0,0:0:0:0:
192,192,108609,1,0,0:0:0:0:
320,192,108720,128,0,108943:0:0:0:0:
448,192,108720,1,0,0:0:0:0:
192,192,108943,128,0,109609:0:0:0:0:
64,192,108943,1,0,0:0:0:0:
64,192,109165,1,0,0:0:0:0:
320,192,109165,1,0,0:0:0:0:
448,192,109165,1,0,0:0:0:0:
64,192,109387,128,0,109609:0:0:0:0:
320,192,109609,1,0,0:0:0:0:
448,192,109609,128,0,109832:0:0:0:0:
64,192,109832,1,0,0:0:0:0:
192,192,109832,1,0,0:0:0:0:
320,192,109943,1,0,0:0:0:0:
64,192,110054,128,0,110498:0:0:0:0:
448,192,110054,1,0,0:0:0:0:
192,192,110165,1,0,0:0:0:0:
448,192,110276,1,0,0:0:0:0:
320,192,110387,1,0,0:0:0:0:
448,192,110498,128,0,110720:0:0:0:0:
192,192,110498,1,0,0:0:0:0:
64,192,110720,1,0,0:0:0:0:
320,192,110720,1,0,0:0:0:0:
192,192,110832,1,0,0:0:0:0:
64,192,110943,128,0,111165:0:0:0:0:
448,192,110943,128,0,111054:0:0:0:0:
320,192,110943,128,0,111054:0:0:0:0:
320,192,111165,1,0,0:0:0:0:
448,192,111165,1,0,0:0:0:0:
192,192,111276,1,0,0:0:0:0:
64,192,111387,128,0,111535:0:0:0:0:
320,192,111387,1,0,0:0:0:0:
448,192,111387,1,0,0:0:0:0:
192,192,111461,128,0,111609:0:0:0:0:
448,192,111535,128,0,111683:0:0:0:0:
320,192,111609,128,0,111758:0:0:0:0:
64,192,111683,128,0,111832:0:0:0:0:
192,192,111758,128,0,111906:0:0:0:0:
320,192,111832,128,0,111980:0:0:0:0:
448,192,111906,128,0,112054:0:0:0:0:
192,192,111980,128,0,112128:0:0:0:0:
64,192,112054,128,0,112202:0:0:0:0:
448,192,112128,128,0,112276:0:0:0:0:
320,192,112202,128,0,112350:0:0:0:0:
192,192,112276,128,0,112498:0:0:0:0:
64,192,112276,128,0,112498:0:0:0:0:
320,192,112498,1,0,0:0:0:0:
448,192,112498,1,0,0:0:0:0:
64,192,112720,128,0,112943:0:0:0:0:
192,192,112832,128,0,113054:0:0:0:0:
320,192,112943,128,0,113165:0:0:0:0:
448,192,112943,128,0,113054:0:0:0:0:
448,192,113165,128,0,113387:0:0:0:0:
64,192,113165,128,0,113276:0:0:0:0:
192,192,113276,128,0,113387:0:0:0:0:
64,192,113387,128,0,113832:0:0:0:0:
320,192,113387,128,0,113498:0:0:0:0:
448,192,113498,128,0,113609:0:0:0:0:
320,192,113609,128,0,113720:0:0:0:0:
192,192,113720,128,0,113832:0:0:0:0:
320,192,113832,128,0,114054:0:0:0:0:
448,192,113832,128,0,113943:0:0:0:0:
64,192,113943,128,0,114054:0:0:0:0:
192,192,114054,128,0,114276:0:0:0:0:
448,192,114054,128,0,114165:0:0:0:0:
320,192,114165,128,0,114276:0:0:0:0:
64,192,114276,128,0,114498:0:0:0:0:
448,192,114276,128,0,114387:0:0:0:0:
192,192,114387,128,0,114498:0:0:0:0:
448,192,114498,128,0,114720:0:0:0:0:
320,192,114498,128,0,114609:0:0:0:0:
64,192,114609,128,0,114720:0:0:0:0:
192,192,114720,128,0,114943:0:0:0:0:
320,192,114720,128,0,114832:0:0:0:0:
64,192,114832,128,0,114943:0:0:0:0:
448,192,114943,128,0,115165:0:0:0:0:
320,192,114943,128,0,115054:0:0:0:0:
192,192,115054,128,0,115165:0:0:0:0:
64,192,115165,128,0,115832:0:0:0:0:
320,192,115165,128,0,115276:0:0:0:0:
448,192,115276,128,0,115387:0:0:0:0:
320,192,115387,128,0,115498:0:0:0:0:
192,192,115498,128,0,115609:0:0:0:0:
320,192,115609,128,0,115720:0:0:0:0:
448,192,115720,128,0,115832:0:0:0:0:
192,192,115832,128,0,115943:0:0:0:0:
320,192,115832,1,0,0:0:0:0:
64,192,115943,128,0,116054:0:0:0:0:
320,192,116054,128,0,116276:0:0:0:0:
448,192,116054,128,0,116165:0:0:0:0:
192,192,116165,128,0,116276:0:0:0:0:
64,192,116276,128,0,116498:0:0:0:0:
448,192,116276,128,0,116387:0:0:0:0:
320,192,116387,128,0,116498:0:0:0:0:
192,192,116498,128,0,116609:0:0:0:0:
64,192,116609,128,0,116720:0:0:0:0:
320,192,116720,128,0,116832:0:0:0:0:
192,192,116832,128,0,116943:0:0:0:0:
448,192,116943,128,0,117387:0:0:0:0:
64,192,116943,128,0,117054:0:0:0:0:
320,192,117054,128,0,117165:0:0:0:0:
192,192,117165,128,0,117276:0:0:0:0:
320,192,117276,128,0,117387:0:0:0:0:
64,192,117387,128,0,117609:0:0:0:0:
192,192,117387,128,0,117498:0:0:0:0:
448,192,117498,128,0,117609:0:0:0:0:
320,192,117609,128,0,117832:0:0:0:0:
192,192,117609,128,0,117720:0:0:0:0:
64,192,117720,128,0,117832:0:0:0:0:
192,192,117832,128,0,118498:0:0:0:0:
448,192,117832,128,0,117943:0:0:0:0:
320,192,117943,128,0,118054:0:0:0:0:
64,192,118054,128,0,118165:0:0:0:0:
448,192,118165,128,0,118276:0:0:0:0:
320,192,118276,128,0,118387:0:0:0:0:
64,192,118387,128,0,118498:0:0:0:0:
320,192,118498,1,0,0:0:0:0:
448,192,118498,1,0,0:0:0:0:
192,192,118609,1,0,0:0:0:0:
64,192,118720,1,0,0:0:0:0:
448,192,118720,1,0,0:0:0:0:
320,192,118832,1,0,0:0:0:0:
192,192,118943,1,0,0:0:0:0:
64,192,118943,1,0,0:0:0:0:
320,192,119054,1,0,0:0:0:0:
320,192,119165,128,0,119387:0:0:0:0:
448,192,119165,1,0,0:0:0:0:
64,192,119165,128,0,119276:0:0:0:0:
448,192,119276,128,0,119387:0:0:0:0:
64,192,119387,128,0,119609:0:0:0:0:
192,192,119387,128,0,119498:0:0:0:0:
320,192,119498,128,0,119609:0:0:0:0:
448,192,119609,128,0,119832:0:0:0:0:
192,192,119609,128,0,119720:0:0:0:0:
64,192,119720,128,0,119832:0:0:0:0:
192,192,119832,128,0,120054:0:0:0:0:
320,192,119832,128,0,119943:0:0:0:0:
64,192,119943,128,0,120054:0:0:0:0:
320,192,120054,1,0,0:0:0:0:
448,192,120054,1,0,0:0:0:0:
64,192,120165,1,0,0:0:0:0:
192,192,120165,1,0,0:0:0:0:
320,192,120276,1,0,0:0:0:0:
448,192,120276,1,0,0:0:0:0:
192,192,120387,1,0,0:0:0:0:
64,192,120387,1,0,0:0:0:0:
64,192,120498,128,0,120720:0:0:0:0:
320,192,120498,1,0,0:0:0:0:
448,192,120498,128,0,120609:0:0:0:0:
192,192,120609,128,0,120720:0:0:0:0:
320,192,120720,1,0,0:0:0:0:
448,192,120720,1,0,0:0:0:0:
192,192,120832,1,0,0:0:0:0:
448,192,120943,128,0,121165:0:0:0:0:
320,192,120943,1,0,0:0:0:0:
64,192,120943,128,0,121054:0:0:0:0:
320,192,121054,128,0,121165:0:0:0:0:
192,192,121165,128,0,121387:0:0:0:0:
64,192,121165,128,0,121276:0:0:0:0:
448,192,121276,128,0,121387:0:0:0:0:
320,192,121387,128,0,121609:0:0:0:0:
64,192,121387,128,0,121498:0:0:0:0:
192,192,121498,128,0,121609:0:0:0:0:
448,192,121609,128,0,121832:0:0:0:0:
64,192,121609,128,0,121720:0:0:0:0:
192,192,121720,128,0,121832:0:0:0:0:
320,192,121832,128,0,121943:0:0:0:0:
448,192,121943,128,0,122054:0:0:0:0:
192,192,122054,1,0,0:0:0:0:
64,192,122054,128,0,122165:0:0:0:0:
320,192,122165,128,0,122276:0:0:0:0:
64,192,122276,128,0,122498:0:0:0:0:
448,192,122276,128,0,122387:0:0:0:0:
192,192,122387,128,0,122498:0:0:0:0:
320,192,122498,1,0,0:0:0:0:
448,192,122498,1,0,0:0:0:0:
192,192,122609,1,0,0:0:0:0:
64,192,122720,1,0,0:0:0:0:
448,192,122720,1,0,0:0:0:0:
320,192,122832,1,0,0:0:0:0:
64,192,122943,128,0,123054:0:0:0:0:
192,192,122943,128,0,123054:0:0:0:0:
448,192,122943,128,0,123054:0:0:0:0:
64,192,123165,1,0,0:0:0:0:
192,192,123165,1,0,0:0:0:0:
320,192,123165,1,0,0:0:0:0:
448,192,123165,1,0,0:0:0:0:
192,192,123609,1,0,0:0:0:0:
320,192,123609,1,0,0:0:0:0:
320,192,123832,1,0,0:0:0:0:
448,192,123832,1,0,0:0:0:0:
192,192,124054,1,0,0:0:0:0:
64,192,124054,1,0,0:0:0:0:
320,192,124276,1,0,0:0:0:0:
448,192,124276,1,0,0:0:0:0:
320,192,124498,1,0,0:0:0:0:
192,192,124498,1,0,0:0:0:0:
64,192,124720,1,0,0:0:0:0:
192,192,124720,1,0,0:0:0:0:
64,192,124943,1,0,0:0:0:0:
192,192,124943,1,0,0:0:0:0:
320,192,124943,1,0,0:0:0:0:
448,192,124943,1,0,0:0:0:0:
64,192,125387,1,0,0:0:0:0:
448,192,125387,1,0,0:0:0:0:
64,192,125609,1,0,0:0:0:0:
192,192,125609,1,0,0:0:0:0:
192,192,125832,1,0,0:0:0:0:
448,192,125832,1,0,0:0:0:0:
320,192,125943,1,0,0:0:0:0:
192,192,126054,1,0,0:0:0:0:
64,192,126054,1,0,0:0:0:0:
320,192,126165,1,0,0:0:0:0:
448,192,126276,1,0,0:0:0:0:
64,192,126276,1,0,0:0:0:0:
192,192,126387,1,0,0:0:0:0:
320,192,126498,1,0,0:0:0:0:
448,192,126498,1,0,0:0:0:0:
64,192,126498,1,0,0:0:0:0:
64,192,126720,128,0,126869:0:0:0:0:
448,192,126720,128,0,126869:0:0:0:0:
192,192,126795,128,0,126943:0:0:0:0:
320,192,126869,128,0,127017:0:0:0:0:
448,192,126943,128,0,127091:0:0:0:0:
192,192,127017,128,0,127165:0:0:0:0:
64,192,127091,128,0,127239:0:0:0:0:
320,192,127165,128,0,127313:0:0:0:0:
448,192,127239,128,0,127387:0:0:0:0:
192,192,127313,128,0,127461:0:0:0:0:
64,192,127387,128,0,127535:0:0:0:0:
320,192,127461,128,0,127609:0:0:0:0:
448,192,127535,128,0,127683:0:0:0:0:
64,192,127609,128,0,127758:0:0:0:0:
192,192,127683,128,0,127832:0:0:0:0:
320,192,127758,128,0,127906:0:0:0:0:
448,192,127832,128,0,127980:0:0:0:0:
64,192,127832,128,0,127980:0:0:0:0:
192,192,127906,128,0,128054:0:0:0:0:
320,192,127980,128,0,128128:0:0:0:0:
448,192,128054,128,0,128202:0:0:0:0:
192,192,128128,128,0,128276:0:0:0:0:
64,192,128202,128,0,128350:0:0:0:0:
448,192,128276,128,0,128424:0:0:0:0:
320,192,128350,128,0,128498:0:0:0:0:
192,192,128424,128,0,128572:0:0:0:0:
64,192,128498,128,0,128646:0:0:0:0:
448,192,128498,128,0,128646:0:0:0:0:
64,192,128720,1,0,0:0:0:0:
448,192,128720,1,0,0:0:0:0:
192,192,128795,1,0,0:0:0:0:
448,192,128869,1,0,0:0:0:0:
320,192,128943,1,0,0:0:0:0:
192,192,129017,1,0,0:0:0:0:
64,192,129091,1,0,0:0:0:0:
320,192,129165,1,0,0:0:0:0:
448,192,129165,1,0,0:0:0:0:
192,192,129387,5,0,0:0:0:0:
64,192,129387,1,0,0:0:0:0:
320,192,129498,1,0,0:0:0:0:
448,192,129609,1,0,0:0:0:0:
64,192,129609,1,0,0:0:0:0:
192,192,129720,1,0,0:0:0:0:
448,192,129832,1,0,0:0:0:0:
64,192,129832,1,0,0:0:0:0:
320,192,129832,1,0,0:0:0:0:
64,192,130054,1,0,0:0:0:0:
192,192,130054,1,0,0:0:0:0:
320,192,130054,1,0,0:0:0:0:
448,192,130054,1,0,0:0:0:0:
448,192,130498,128,0,130646:0:0:0:0:
320,192,130572,128,0,130720:0:0:0:0:
192,192,130646,128,0,130795:0:0:0:0:
64,192,130720,128,0,130869:0:0:0:0:
320,192,130795,128,0,130943:0:0:0:0:
448,192,130869,128,0,131017:0:0:0:0:
64,192,130943,128,0,131276:0:0:0:0:
192,192,130943,128,0,131165:0:0:0:0:
320,192,131165,128,0,131276:0:0:0:0:
448,192,131165,128,0,131276:0:0:0:0:
192,192,131276,128,0,131498:0:0:0:0:
448,192,131387,128,0,131609:0:0:0:0:
320,192,131387,128,0,131609:0:0:0:0:
64,192,131387,128,0,131609:0:0:0:0:
192,192,131609,128,0,132054:0:0:0:0:
64,192,131832,128,0,132165:0:0:0:0:
320,192,131832,128,0,131943:0:0:0:0:
448,192,131832,128,0,132165:0:0:0:0:
320,192,132054,128,0,132165:0:0:0:0:
192,192,132165,128,0,132387:0:0:0:0:
64,192,132276,128,0,132609:0:0:0:0:
320,192,132276,128,0,132387:0:0:0:0:
448,192,132276,128,0,132609:0:0:0:0:
192,192,132498,128,0,132609:0:0:0:0:
320,192,132498,128,0,132609:0:0:0:0:
192,192,132720,128,0,133165:0:0:0:0:
64,192,132720,128,0,132832:0:0:0:0:
320,192,132720,128,0,133054:0:0:0:0:
448,192,132720,128,0,132832:0:0:0:0:
64,192,132943,128,0,133165:0:0:0:0:
448,192,132943,128,0,133054:0:0:0:0:
448,192,133165,128,0,133313:0:0:0:0:
320,192,133239,128,0,133387:0:0:0:0:
64,192,133313,128,0,133461:0:0:0:0:
192,192,133387,128,0,133535:0:0:0:0:
320,192,133461,128,0,133609:0:0:0:0:
448,192,133535,128,0,133609:0:0:0:0:
64,192,133609,128,0,133758:0:0:0:0:
192,192,133683,128,0,133832:0:0:0:0:
320,192,133758,128,0,133906:0:0:0:0:
448,192,133832,128,0,133980:0:0:0:0:
64,192,133832,128,0,134165:0:0:0:0:
448,192,134054,128,0,134387:0:0:0:0:
192,192,134054,128,0,134165:0:0:0:0:
320,192,134165,128,0,134609:0:0:0:0:
192,192,134276,128,0,134609:0:0:0:0:
64,192,134276,128,0,134387:0:0:0:0:
448,192,134498,128,0,134832:0:0:0:0:
64,192,134498,128,0,134609:0:0:0:0:
64,192,134720,128,0,134943:0:0:0:0:
192,192,134720,128,0,134832:0:0:0:0:
448,192,134943,128,0,135054:0:0:0:0:
320,192,134943,128,0,135276:0:0:0:0:
192,192,135054,128,0,135276:0:0:0:0:
64,192,135165,128,0,135276:0:0:0:0:
448,192,135165,128,0,135276:0:0:0:0:
448,192,135387,128,0,135609:0:0:0:0:
64,192,135387,128,0,135498:0:0:0:0:
320,192,135387,128,0,135609:0:0:0:0:
64,192,135609,128,0,135758:0:0:0:0:
448,192,135832,128,0,136128:0:0:0:0:
320,192,135832,128,0,136054:0:0:0:0:
64,192,135832,128,0,135980:0:0:0:0:
192,192,135980,128,0,136128:0:0:0:0:
64,192,136054,128,0,136202:0:0:0:0:
320,192,136128,128,0,136276:0:0:0:0:
448,192,136202,128,0,136350:0:0:0:0:
64,192,136276,128,0,136498:0:0:0:0:
192,192,136276,128,0,136498:0:0:0:0:
448,192,136498,128,0,136832:0:0:0:0:
320,192,136498,128,0,136720:0:0:0:0:
64,192,136720,128,0,136869:0:0:0:0:
192,192,136795,128,0,136943:0:0:0:0:
320,192,136869,128,0,137017:0:0:0:0:
448,192,136943,128,0,137091:0:0:0:0:
192,192,137017,128,0,137165:0:0:0:0:
64,192,137091,128,0,137239:0:0:0:0:
320,192,137165,128,0,137313:0:0:0:0:
448,192,137239,128,0,137387:0:0:0:0:
192,192,137387,128,0,137720:0:0:0:0:
64,192,137387,128,0,137498:0:0:0:0:
320,192,137498,128,0,137720:0:0:0:0:
448,192,137609,128,0,137832:0:0:0:0:
64,192,137609,128,0,137720:0:0:0:0:
192,192,137832,128,0,137980:0:0:0:0:
320,192,137832,128,0,137980:0:0:0:0:
64,192,137906,128,0,138054:0:0:0:0:
448,192,138054,128,0,138276:0:0:0:0:
320,192,138054,128,0,138165:0:0:0:0:
64,192,138276,128,0,138387:0:0:0:0:
192,192,138276,128,0,138387:0:0:0:0:
320,192,138387,128,0,138498:0:0:0:0:
64,192,138498,128,0,138646:0:0:0:0:
448,192,138498,128,0,138609:0:0:0:0:
192,192,138572,128,0,138720:0:0:0:0:
320,192,138646,128,0,138795:0:0:0:0:
448,192,138720,128,0,138869:0:0:0:0:
192,192,138795,128,0,138943:0:0:0:0:
64,192,138869,128,0,139017:0:0:0:0:
320,192,138943,1,0,0:0:0:0:
448,192,138943,128,0,139165:0:0:0:0:
192,192,139165,128,0,139387:0:0:0:0:
320,192,139165,128,0,139276:0:0:0:0:
64,192,139276,128,0,139498:0:0:0:0:
320,192,139387,128,0,139498:0:0:0:0:
448,192,139387,128,0,139498:0:0:0:0:
192,192,139498,128,0,139720:0:0:0:0:
64,192,139609,128,0,139720:0:0:0:0:
448,192,139609,128,0,139720:0:0:0:0:
320,192,139832,128,0,140165:0:0:0:0:
448,192,139832,128,0,139943:0:0:0:0:
64,192,139832,128,0,139943:0:0:0:0:
192,192,139943,128,0,140054:0:0:0:0:
64,192,140054,128,0,140276:0:0:0:0:
448,192,140054,128,0,140165:0:0:0:0:
192,192,140165,128,0,140387:0:0:0:0:
448,192,140276,128,0,140609:0:0:0:0:
320,192,140276,128,0,140498:0:0:0:0:
64,192,140387,128,0,140609:0:0:0:0:
192,192,140498,128,0,140720:0:0:0:0:
320,192,140609,128,0,140832:0:0:0:0:
64,192,140720,128,0,140943:0:0:0:0:
448,192,140720,128,0,140832:0:0:0:0:
192,192,140832,128,0,140943:0:0:0:0:
448,192,140943,128,0,141165:0:0:0:0:
320,192,140943,1,0,0:0:0:0:
64,192,141165,128,0,141276:0:0:0:0:
192,192,141165,128,0,141387:0:0:0:0:
320,192,141276,128,0,141498:0:0:0:0:
448,192,141387,128,0,141498:0:0:0:0:
64,192,141387,128,0,141609:0:0:0:0:
192,192,141498,128,0,141720:0:0:0:0:
320,192,141609,128,0,141720:0:0:0:0:
448,192,141609,128,0,141832:0:0:0:0:
64,192,141720,128,0,141943:0:0:0:0:
192,192,141832,128,0,141943:0:0:0:0:
320,192,141832,128,0,142054:0:0:0:0:
448,192,141943,128,0,142165:0:0:0:0:
192,192,142054,128,0,142276:0:0:0:0:
64,192,142054,128,0,142165:0:0:0:0:
320,192,142165,128,0,142387:0:0:0:0:
448,192,142276,128,0,142387:0:0:0:0:
64,192,142276,128,0,142609:0:0:0:0:
192,192,142387,128,0,142498:0:0:0:0:
320,192,142498,128,0,142720:0:0:0:0:
448,192,142498,128,0,142609:0:0:0:0:
192,192,142609,128,0,142832:0:0:0:0:
64,192,142720,128,0,142832:0:0:0:0:
448,192,142720,128,0,142832:0:0:0:0:
320,192,142832,128,0,143054:0:0:0:0:
64,192,142943,128,0,143165:0:0:0:0:
192,192,142943,128,0,143054:0:0:0:0:
448,192,142943,128,0,143054:0:0:0:0:
448,192,143165,128,0,143276:0:0:0:0:
320,192,143165,128,0,143387:0:0:0:0:
192,192,143276,128,0,143498:0:0:0:0:
64,192,143387,128,0,143498:0:0:0:0:
448,192,143387,128,0,143832:0:0:0:0:
320,192,143498,128,0,143609:0:0:0:0:
192,192,143609,128,0,143720:0:0:0:0:
64,192,143609,128,0,143720:0:0:0:0:
320,192,143720,128,0,143832:0:0:0:0:
64,192,143832,128,0,143943:0:0:0:0:
192,192,143832,128,0,143943:0:0:0:0:
320,192,143943,128,0,144054:0:0:0:0:
448,192,143943,128,0,144165:0:0:0:0:
192,192,144054,128,0,144165:0:0:0:0:
64,192,144054,128,0,144165:0:0:0:0:
320,192,144165,128,0,144387:0:0:0:0:
192,192,144276,128,0,144387:0:0:0:0:
64,192,144276,128,0,144387:0:0:0:0:
448,192,144276,128,0,144387:0:0:0:0:
448,192,144498,1,0,0:0:0:0:
64,192,144498,1,0,0:0:0:0:
192,192,144498,1,0,0:0:0:0:
320,192,144720,128,0,144869:0:0:0:0:
448,192,144720,128,0,144869:0:0:0:0:
192,192,144795,128,0,144943:0:0:0:0:
64,192,144869,128,0,145017:0:0:0:0:
320,192,144943,128,0,145091:0:0:0:0:
448,192,145017,128,0,145165:0:0:0:0:
64,192,145165,128,0,145387:0:0:0:0:
192,192,145165,1,0,0:0:0:0:
320,192,145387,128,0,145720:0:0:0:0:
448,192,145387,128,0,145498:0:0:0:0:
192,192,145498,128,0,145720:0:0:0:0:
448,192,145609,128,0,145832:0:0:0:0:
64,192,145609,128,0,145720:0:0:0:0:
64,192,145832,128,0,145943:0:0:0:0:
192,192,145832,128,0,146165:0:0:0:0:
320,192,145943,128,0,146165:0:0:0:0:
64,192,146054,128,0,146276:0:0:0:0:
448,192,146054,128,0,146165:0:0:0:0:
320,192,146276,128,0,146498:0:0:0:0:
448,192,146276,128,0,146498:0:0:0:0:
192,192,146498,128,0,146646:0:0:0:0:
64,192,146572,128,0,146720:0:0:0:0:
320,192,146646,128,0,146795:0:0:0:0:
448,192,146720,128,0,146869:0:0:0:0:
64,192,146795,128,0,146943:0:0:0:0:
192,192,146869,128,0,147017:0:0:0:0:
320,192,146943,128,0,147091:0:0:0:0:
448,192,147017,128,0,147165:0:0:0:0:
192,192,147091,128,0,147239:0:0:0:0:
64,192,147165,128,0,147313:0:0:0:0:
320,192,147239,128,0,147387:0:0:0:0:
448,192,147313,128,0,147461:0:0:0:0:
192,192,147387,128,0,147609:0:0:0:0:
64,192,147461,128,0,147609:0:0:0:0:
448,192,147609,128,0,147832:0:0:0:0:
192,192,147832,1,0,0:0:0:0:
64,192,147832,128,0,148054:0:0:0:0:
320,192,148054,128,0,148276:0:0:0:0:
64,192,148276,128,0,148609:0:0:0:0:
448,192,148276,128,0,148387:0:0:0:0:
192,192,148387,128,0,148609:0:0:0:0:
320,192,148498,128,0,148720:0:0:0:0:
448,192,148609,128,0,149054:0:0:0:0:
64,192,148720,128,0,148943:0:0:0:0:
192,192,148720,128,0,148832:0:0:0:0:
320,192,148832,128,0,149054:0:0:0:0:
192,192,148943,128,0,149165:0:0:0:0:
64,192,149054,128,0,149276:0:0:0:0:
320,192,149165,128,0,149387:0:0:0:0:
448,192,149165,128,0,149498:0:0:0:0:
192,192,149276,128,0,149609:0:0:0:0:
64,192,149387,128,0,149498:0:0:0:0:
320,192,149498,128,0,149720:0:0:0:0:
448,192,149609,128,0,149720:0:0:0:0:
64,192,149609,128,0,149943:0:0:0:0:
192,192,149720,128,0,149832:0:0:0:0:
320,192,149832,128,0,150054:0:0:0:0:
448,192,149832,128,0,149943:0:0:0:0:
192,192,149943,128,0,150387:0:0:0:0:
64,192,150054,128,0,150165:0:0:0:0:
448,192,150054,128,0,150276:0:0:0:0:
320,192,150165,128,0,150387:0:0:0:0:
64,192,150276,128,0,150498:0:0:0:0:
448,192,150387,128,0,150832:0:0:0:0:
192,192,150498,128,0,150609:0:0:0:0:
320,192,150498,128,0,150720:0:0:0:0:
64,192,150609,128,0,150943:0:0:0:0:
192,192,150720,128,0,150943:0:0:0:0:
320,192,150832,128,0,150943:0:0:0:0:
448,192,150943,1,0,0:0:0:0:
192,192,151054,1,0,0:0:0:0:
320,192,151054,1,0,0:0:0:0:
64,192,151165,1,0,0:0:0:0:
448,192,151165,1,0,0:0:0:0:
64,192,151387,1,0,0:0:0:0:
192,192,151387,1,0,0:0:0:0:
320,192,151387,1,0,0:0:0:0:
448,192,151387,1,0,0:0:0:0:
192,192,151609,1,0,0:0:0:0:
320,192,151609,1,0,0:0:0:0:
320,192,151832,128,0,151980:0:0:0:0:
448,192,151832,128,0,151980:0:0:0:0:
192,192,151906,128,0,152054:0:0:0:0:
64,192,151980,128,0,152128:0:0:0:0:
320,192,152054,128,0,152202:0:0:0:0:
448,192,152128,128,0,152276:0:0:0:0:
192,192,152276,1,0,0:0:0:0:
64,192,152276,1,0,0:0:0:0:
320,192,152387,1,0,0:0:0:0:
192,192,152498,1,0,0:0:0:0:
64,192,152609,1,0,0:0:0:0:
320,192,152720,1,0,0:0:0:0:
448,192,152720,1,0,0:0:0:0:
192,192,152832,1,0,0:0:0:0:
320,192,152943,1,0,0:0:0:0:
448,192,153054,1,0,0:0:0:0:
192,192,153165,1,0,0:0:0:0:
64,192,153165,1,0,0:0:0:0:
320,192,153276,1,0,0:0:0:0:
448,192,153387,1,0,0:0:0:0:
192,192,153498,1,0,0:0:0:0:
448,192,153609,1,0,0:0:0:0:
320,192,153609,1,0,0:0:0:0:
64,192,153609,1,0,0:0:0:0:
320,192,153832,1,0,0:0:0:0:
448,192,153832,1,0,0:0:0:0:
192,192,153943,1,0,0:0:0:0:
64,192,154054,1,0,0:0:0:0:
448,192,154054,1,0,0:0:0:0:
320,192,154165,1,0,0:0:0:0:
192,192,154276,1,0,0:0:0:0:
64,192,154387,1,0,0:0:0:0:
320,192,154498,1,0,0:0:0:0:
448,192,154498,1,0,0:0:0:0:
192,192,154609,1,0,0:0:0:0:
320,192,154720,1,0,0:0:0:0:
448,192,154832,1,0,0:0:0:0:
192,192,154943,1,0,0:0:0:0:
64,192,154943,1,0,0:0:0:0:
320,192,155054,1,0,0:0:0:0:
448,192,155165,1,0,0:0:0:0:
64,192,155165,1,0,0:0:0:0:
192,192,155276,1,0,0:0:0:0:
320,192,155387,1,0,0:0:0:0:
64,192,155387,1,0,0:0:0:0:
448,192,155387,1,0,0:0:0:0:
64,192,155609,1,0,0:0:0:0:
192,192,155609,1,0,0:0:0:0:
320,192,155720,1,0,0:0:0:0:
448,192,155832,1,0,0:0:0:0:
64,192,155832,1,0,0:0:0:0:
192,192,155943,1,0,0:0:0:0:
320,192,156054,1,0,0:0:0:0:
192,192,156165,1,0,0:0:0:0:
320,192,156276,1,0,0:0:0:0:
448,192,156276,1,0,0:0:0:0:
64,192,156387,1,0,0:0:0:0:
192,192,156498,1,0,0:0:0:0:
320,192,156609,1,0,0:0:0:0:
448,192,156720,1,0,0:0:0:0:
64,192,156720,1,0,0:0:0:0:
192,192,156832,1,0,0:0:0:0:
448,192,156943,1,0,0:0:0:0:
320,192,157054,1,0,0:0:0:0:
64,192,157165,1,0,0:0:0:0:
448,192,157165,1,0,0:0:0:0:
192,192,157165,1,0,0:0:0:0:
64,192,157387,1,0,0:0:0:0:
448,192,157387,1,0,0:0:0:0:
320,192,157498,1,0,0:0:0:0:
64,192,157609,1,0,0:0:0:0:
448,192,157609,1,0,0:0:0:0:
192,192,157720,1,0,0:0:0:0:
448,192,157832,1,0,0:0:0:0:
320,192,157943,1,0,0:0:0:0:
64,192,158054,1,0,0:0:0:0:
192,192,158054,1,0,0:0:0:0:
320,192,158165,1,0,0:0:0:0:
448,192,158165,1,0,0:0:0:0:
192,192,158276,1,0,0:0:0:0:
64,192,158276,1,0,0:0:0:0:
320,192,158387,1,0,0:0:0:0:
448,192,158387,1,0,0:0:0:0:
448,192,158498,1,0,0:0:0:0:
64,192,158498,128,0,158646:0:0:0:0:
192,192,158572,128,0,158720:0:0:0:0:
320,192,158646,128,0,158795:0:0:0:0:
448,192,158720,128,0,158869:0:0:0:0:
64,192,158720,128,0,158869:0:0:0:0:
64,192,158943,128,0,159165:0:0:0:0:
448,192,158943,128,0,159165:0:0:0:0:
192,192,159054,128,0,159276:0:0:0:0:
320,192,159165,128,0,159387:0:0:0:0:
448,192,159276,128,0,159498:0:0:0:0:
192,192,159387,128,0,159609:0:0:0:0:
64,192,159498,128,0,159720:0:0:0:0:
448,192,159609,128,0,159832:0:0:0:0:
320,192,159720,128,0,159943:0:0:0:0:
192,192,159832,128,0,160054:0:0:0:0:
64,192,159943,128,0,160165:0:0:0:0:
320,192,160054,128,0,160276:0:0:0:0:
448,192,160165,128,0,160387:0:0:0:0:
192,192,160276,128,0,160498:0:0:0:0:
64,192,160387,128,0,160609:0:0:0:0:
448,192,160498,128,0,160720:0:0:0:0:
320,192,160609,128,0,160832:0:0:0:0:
192,192,160720,128,0,160943:0:0:0:0:
64,192,160832,128,0,161054:0:0:0:0:
320,192,160943,128,0,161165:0:0:0:0:
448,192,161054,128,0,161276:0:0:0:0:
64,192,161165,128,0,161387:0:0:0:0:
192,192,161276,128,0,161498:0:0:0:0:
320,192,161387,128,0,161609:0:0:0:0:
448,192,161498,128,0,161720:0:0:0:0:
192,192,161609,128,0,161832:0:0:0:0:
64,192,161720,128,0,161943:0:0:0:0:
448,192,161832,128,0,162054:0:0:0:0:
320,192,161943,128,0,162165:0:0:0:0:
192,192,162054,128,0,162276:0:0:0:0:
64,192,162165,128,0,162387:0:0:0:0:
320,192,162276,128,0,162498:0:0:0:0:
448,192,162387,128,0,162609:0:0:0:0:
192,192,162498,128,0,162720:0:0:0:0:
64,192,162498,128,0,162720:0:0:0:0:
448,192,162720,128,0,162943:0:0:0:0:
320,192,162832,128,0,163054:0:0:0:0:
192,192,162943,128,0,163165:0:0:0:0:
64,192,163054,128,0,163276:0:0:0:0:
320,192,163165,128,0,163387:0:0:0:0:
448,192,163276,128,0,163498:0:0:0:0:
64,192,163387,128,0,163609:0:0:0:0:
192,192,163498,128,0,163720:0:0:0:0:
320,192,163609,128,0,163832:0:0:0:0:
448,192,163720,128,0,163943:0:0:0:0:
192,192,163832,128,0,164054:0:0:0:0:
64,192,163943,128,0,164165:0:0:0:0:
448,192,164054,128,0,164276:0:0:0:0:
320,192,164165,128,0,164387:0:0:0:0:
192,192,164276,128,0,164498:0:0:0:0:
64,192,164387,128,0,164609:0:0:0:0:
320,192,164498,128,0,164720:0:0:0:0:
448,192,164609,128,0,164832:0:0:0:0:
192,192,164720,128,0,164943:0:0:0:0:
64,192,164720,1,0,0:0:0:0:
64,192,164832,128,0,165054:0:0:0:0:
448,192,164943,128,0,165165:0:0:0:0:
320,192,165054,128,0,165276:0:0:0:0:
192,192,165165,128,0,165387:0:0:0:0:
64,192,165165,1,0,0:0:0:0:
64,192,165276,128,0,165498:0:0:0:0:
320,192,165387,128,0,165609:0:0:0:0:
448,192,165498,128,0,165720:0:0:0:0:
64,192,165609,128,0,165832:0:0:0:0:
192,192,165609,1,0,0:0:0:0:
192,192,165720,128,0,165943:0:0:0:0:
320,192,165832,128,0,166054:0:0:0:0:
448,192,165943,128,0,166165:0:0:0:0:
192,192,166054,128,0,166276:0:0:0:0:
64,192,166165,128,0,166387:0:0:0:0:
448,192,166276,128,0,166498:0:0:0:0:
320,192,166387,128,0,166609:0:0:0:0:
192,192,166498,128,0,166720:0:0:0:0:
64,192,166609,128,0,166832:0:0:0:0:
320,192,166720,128,0,166943:0:0:0:0:
448,192,166832,128,0,167054:0:0:0:0:
192,192,166943,128,0,167165:0:0:0:0:
64,192,167054,128,0,167276:0:0:0:0:
448,192,167165,128,0,167387:0:0:0:0:
320,192,167276,128,0,167498:0:0:0:0:
192,192,167387,128,0,167609:0:0:0:0:
64,192,167498,128,0,167720:0:0:0:0:
320,192,167609,128,0,167832:0:0:0:0:
448,192,167720,128,0,167943:0:0:0:0:
192,192,167832,128,0,168054:0:0:0:0:
64,192,167832,128,0,168054:0:0:0:0:
320,192,167943,128,0,168165:0:0:0:0:
448,192,168054,128,0,168276:0:0:0:0:
64,192,168165,128,0,168387:0:0:0:0:
192,192,168276,128,0,168498:0:0:0:0:
320,192,168387,128,0,168609:0:0:0:0:
448,192,168498,128,0,168720:0:0:0:0:
192,192,168720,1,0,0:0:0:0:
64,192,168720,1,0,0:0:0:0:
320,192,168832,1,0,0:0:0:0:
448,192,168943,1,0,0:0:0:0:
64,192,168943,1,0,0:0:0:0:
192,192,169054,1,0,0:0:0:0:
320,192,169054,1,0,0:0:0:0:
64,192,169165,1,0,0:0:0:0:
320,192,169165,1,0,0:0:0:0:
448,192,169165,1,0,0:0:0:0:
192,192,169276,1,0,0:0:0:0:
448,192,169387,1,0,0:0:0:0:
320,192,169498,1,0,0:0:0:0:
192,192,169609,1,0,0:0:0:0:
64,192,169609,128,0,169832:0:0:0:0:
448,192,169609,128,0,169832:0:0:0:0:
192,192,169720,128,0,169943:0:0:0:0:
320,192,169832,128,0,170054:0:0:0:0:
448,192,169943,128,0,170165:0:0:0:0:
192,192,170054,128,0,170276:0:0:0:0:
64,192,170165,128,0,170387:0:0:0:0:
448,192,170276,128,0,170498:0:0:0:0:
320,192,170387,128,0,170609:0:0:0:0:
192,192,170498,128,0,170720:0:0:0:0:
64,192,170609,128,0,170832:0:0:0:0:
320,192,170720,128,0,170943:0:0:0:0:
448,192,170832,128,0,171054:0:0:0:0:
192,192,170943,128,0,171165:0:0:0:0:
64,192,171054,128,0,171276:0:0:0:0:
448,192,171165,128,0,171387:0:0:0:0:
320,192,171276,128,0,171498:0:0:0:0:
192,192,171387,128,0,171609:0:0:0:0:
64,192,171498,128,0,171720:0:0:0:0:
320,192,171609,128,0,171832:0:0:0:0:
448,192,171720,128,0,171943:0:0:0:0:
64,192,171832,128,0,172054:0:0:0:0:
192,192,171943,128,0,172165:0:0:0:0:
320,192,172054,128,0,172276:0:0:0:0:
448,192,172165,128,0,172387:0:0:0:0:
192,192,172276,128,0,172498:0:0:0:0:
64,192,172387,128,0,172609:0:0:0:0:
448,192,172498,128,0,172720:0:0:0:0:
320,192,172609,128,0,172832:0:0:0:0:
192,192,172720,128,0,172943:0:0:0:0:
64,192,172832,128,0,173054:0:0:0:0:
320,192,172943,128,0,173165:0:0:0:0:
448,192,173054,128,0,173165:0:0:0:0:
64,192,173165,1,0,0:0:0:0:
192,192,173165,1,0,0:0:0:0:
320,192,173276,1,0,0:0:0:0:
448,192,173387,1,0,0:0:0:0:
192,192,173498,1,0,0:0:0:0:
448,192,173609,1,0,0:0:0:0:
320,192,173609,1,0,0:0:0:0:
64,192,173720,1,0,0:0:0:0:
192,192,173832,1,0,0:0:0:0:
320,192,173943,1,0,0:0:0:0:
448,192,174054,1,0,0:0:0:0:
64,192,174054,1,0,0:0:0:0:
192,192,174165,1,0,0:0:0:0:
448,192,174276,1,0,0:0:0:0:
320,192,174387,1,0,0:0:0:0:
192,192,174498,1,0,0:0:0:0:
64,192,174498,1,0,0:0:0:0:
320,192,174609,1,0,0:0:0:0:
448,192,174720,1,0,0:0:0:0:
192,192,174832,1,0,0:0:0:0:
64,192,174943,1,0,0:0:0:0:
448,192,174943,1,0,0:0:0:0:
320,192,174943,1,0,0:0:0:0:
64,192,175054,1,0,0:0:0:0:
448,192,175165,1,0,0:0:0:0:
320,192,175276,1,0,0:0:0:0:
192,192,175387,1,0,0:0:0:0:
64,192,175387,1,0,0:0:0:0:
320,192,175498,1,0,0:0:0:0:
192,192,175609,1,0,0:0:0:0:
64,192,175720,1,0,0:0:0:0:
192,192,175832,1,0,0:0:0:0:
320,192,175832,1,0,0:0:0:0:
448,192,175943,1,0,0:0:0:0:
64,192,176054,1,0,0:0:0:0:
192,192,176165,1,0,0:0:0:0:
320,192,176276,1,0,0:0:0:0:
448,192,176276,1,0,0:0:0:0:
64,192,176387,1,0,0:0:0:0:
192,192,176498,1,0,0:0:0:0:
320,192,176609,1,0,0:0:0:0:
448,192,176720,1,0,0:0:0:0:
192,192,176720,1,0,0:0:0:0:
64,192,176720,1,0,0:0:0:0:
64,192,176832,1,0,0:0:0:0:
192,192,176943,1,0,0:0:0:0:
448,192,177054,1,0,0:0:0:0:
320,192,177165,1,0,0:0:0:0:
192,192,177165,1,0,0:0:0:0:
64,192,177276,1,0,0:0:0:0:
448,192,177387,1,0,0:0:0:0:
320,192,177498,1,0,0:0:0:0:
192,192,177609,1,0,0:0:0:0:
64,192,177609,1,0,0:0:0:0:
448,192,177720,1,0,0:0:0:0:
64,192,177832,1,0,0:0:0:0:
192,192,177943,1,0,0:0:0:0:
64,192,178054,1,0,0:0:0:0:
448,192,178054,1,0,0:0:0:0:
320,192,178165,1,0,0:0:0:0:
192,192,178276,1,0,0:0:0:0:
320,192,178387,1,0,0:0:0:0:
192,192,178498,1,0,0:0:0:0:
64,192,178498,1,0,0:0:0:0:
448,192,178498,1,0,0:0:0:0:
64,192,178609,1,0,0:0:0:0:
448,192,178720,1,0,0:0:0:0:
320,192,178832,1,0,0:0:0:0:
64,192,178943,1,0,0:0:0:0:
448,192,178943,1,0,0:0:0:0:
192,192,179054,1,0,0:0:0:0:
320,192,179165,1,0,0:0:0:0:
448,192,179276,1,0,0:0:0:0:
192,192,179387,1,0,0:0:0:0:
64,192,179387,1,0,0:0:0:0:
320,192,179498,1,0,0:0:0:0:
192,192,179609,1,0,0:0:0:0:
64,192,179720,1,0,0:0:0:0:
320,192,179832,1,0,0:0:0:0:
448,192,179832,1,0,0:0:0:0:
192,192,179832,1,0,0:0:0:0:
64,192,180054,1,0,0:0:0:0:
192,192,180054,1,0,0:0:0:0:
448,192,180054,1,0,0:0:0:0:
448,192,180276,1,0,0:0:0:0:
320,192,180276,1,0,0:0:0:0:
64,192,180276,1,0,0:0:0:0:
192,192,180387,1,0,0:0:0:0:
64,192,180498,1,0,0:0:0:0:
320,192,180609,1,0,0:0:0:0:
192,192,180720,1,0,0:0:0:0:
64,192,180720,1,0,0:0:0:0:
448,192,180832,1,0,0:0:0:0:
320,192,180943,1,0,0:0:0:0:
192,192,181054,1,0,0:0:0:0:
448,192,181165,1,0,0:0:0:0:
64,192,181165,1,0,0:0:0:0:
320,192,181276,1,0,0:0:0:0:
64,192,181387,1,0,0:0:0:0:
192,192,181498,1,0,0:0:0:0:
448,192,181609,1,0,0:0:0:0:
320,192,181609,1,0,0:0:0:0:
192,192,181720,1,0,0:0:0:0:
64,192,181832,1,0,0:0:0:0:
320,192,181943,1,0,0:0:0:0:
192,192,182054,1,0,0:0:0:0:
64,192,182054,1,0,0:0:0:0:
448,192,182054,1,0,0:0:0:0:
448,192,182165,1,0,0:0:0:0:
64,192,182276,1,0,0:0:0:0:
192,192,182387,1,0,0:0:0:0:
448,192,182498,1,0,0:0:0:0:
320,192,182498,1,0,0:0:0:0:
192,192,182609,1,0,0:0:0:0:
320,192,182720,1,0,0:0:0:0:
448,192,182832,1,0,0:0:0:0:
192,192,182943,1,0,0:0:0:0:
320,192,182943,1,0,0:0:0:0:
64,192,183054,1,0,0:0:0:0:
448,192,183165,1,0,0:0:0:0:
320,192,183276,1,0,0:0:0:0:
64,192,183387,1,0,0:0:0:0:
192,192,183387,1,0,0:0:0:0:
448,192,183498,1,0,0:0:0:0:
320,192,183609,1,0,0:0:0:0:
192,192,183720,1,0,0:0:0:0:
448,192,183832,1,0,0:0:0:0:
320,192,183832,1,0,0:0:0:0:
64,192,183832,1,0,0:0:0:0:
448,192,183943,1,0,0:0:0:0:
320,192,184054,1,0,0:0:0:0:
64,192,184165,1,0,0:0:0:0:
320,192,184276,1,0,0:0:0:0:
192,192,184276,1,0,0:0:0:0:
448,192,184387,1,0,0:0:0:0:
64,192,184498,1,0,0:0:0:0:
192,192,184609,1,0,0:0:0:0:
448,192,184720,1,0,0:0:0:0:
320,192,184720,1,0,0:0:0:0:
64,192,184832,1,0,0:0:0:0:
448,192,184943,1,0,0:0:0:0:
320,192,185054,1,0,0:0:0:0:
64,192,185165,1,0,0:0:0:0:
448,192,185165,1,0,0:0:0:0:
192,192,185276,1,0,0:0:0:0:
320,192,185387,1,0,0:0:0:0:
192,192,185498,1,0,0:0:0:0:
64,192,185609,1,0,0:0:0:0:
448,192,185609,1,0,0:0:0:0:
320,192,185609,1,0,0:0:0:0:
448,192,185720,1,0,0:0:0:0:
64,192,185832,1,0,0:0:0:0:
192,192,185943,1,0,0:0:0:0:
64,192,186054,1,0,0:0:0:0:
448,192,186054,1,0,0:0:0:0:
320,192,186165,1,0,0:0:0:0:
192,192,186276,1,0,0:0:0:0:
64,192,186387,1,0,0:0:0:0:
448,192,186498,1,0,0:0:0:0:
320,192,186498,1,0,0:0:0:0:
192,192,186609,1,0,0:0:0:0:
320,192,186720,1,0,0:0:0:0:
448,192,186832,1,0,0:0:0:0:
320,192,186943,1,0,0:0:0:0:
64,192,186943,1,0,0:0:0:0:
192,192,186943,1,0,0:0:0:0:
64,192,187165,1,0,0:0:0:0:
320,192,187165,1,0,0:0:0:0:
448,192,187165,1,0,0:0:0:0:
64,192,187387,128,0,187720:0:0:0:0:
320,192,187387,128,0,187498:0:0:0:0:
448,192,187387,128,0,187609:0:0:0:0:
192,192,187498,128,0,187720:0:0:0:0:
320,192,187609,128,0,187832:0:0:0:0:
448,192,187720,128,0,188165:0:0:0:0:
64,192,187832,128,0,188054:0:0:0:0:
192,192,187832,128,0,187943:0:0:0:0:
320,192,187943,128,0,188165:0:0:0:0:
192,192,188054,128,0,188276:0:0:0:0:
64,192,188165,128,0,188387:0:0:0:0:
320,192,188276,128,0,188498:0:0:0:0:
448,192,188276,128,0,188720:0:0:0:0:
192,192,188387,128,0,188609:0:0:0:0:
64,192,188498,128,0,188609:0:0:0:0:
320,192,188609,128,0,188832:0:0:0:0:
192,192,188720,128,0,188943:0:0:0:0:
64,192,188720,128,0,189054:0:0:0:0:
448,192,188832,128,0,189054:0:0:0:0:
320,192,188943,128,0,189165:0:0:0:0:
192,192,189054,128,0,189387:0:0:0:0:
64,192,189165,128,0,189276:0:0:0:0:
448,192,189165,128,0,189498:0:0:0:0:
320,192,189276,128,0,189498:0:0:0:0:
64,192,189387,128,0,189609:0:0:0:0:
192,192,189498,128,0,189720:0:0:0:0:
320,192,189609,128,0,189832:0:0:0:0:
448,192,189609,128,0,189943:0:0:0:0:
64,192,189720,128,0,189943:0:0:0:0:
192,192,189832,128,0,190054:0:0:0:0:
320,192,189943,128,0,190276:0:0:0:0:
448,192,190054,128,0,190165:0:0:0:0:
64,192,190054,128,0,190387:0:0:0:0:
192,192,190165,128,0,190387:0:0:0:0:
448,192,190276,128,0,190498:0:0:0:0:
320,192,190387,128,0,190609:0:0:0:0:
192,192,190498,128,0,190720:0:0:0:0:
64,192,190498,128,0,190832:0:0:0:0:
448,192,190609,128,0,190832:0:0:0:0:
320,192,190720,128,0,190832:0:0:0:0:
192,192,190832,128,0,190943:0:0:0:0:
64,192,190943,128,0,191276:0:0:0:0:
320,192,190943,128,0,191054:0:0:0:0:
448,192,190943,128,0,191165:0:0:0:0:
192,192,191054,128,0,191276:0:0:0:0:
320,192,191165,128,0,191387:0:0:0:0:
448,192,191276,128,0,191720:0:0:0:0:
192,192,191387,128,0,191498:0:0:0:0:
64,192,191387,128,0,191609:0:0:0:0:
320,192,191498,128,0,191720:0:0:0:0:
192,192,191609,128,0,191832:0:0:0:0:
64,192,191720,128,0,191943:0:0:0:0:
320,192,191832,128,0,192054:0:0:0:0:
448,192,191832,128,0,192276:0:0:0:0:
192,192,191943,128,0,192165:0:0:0:0:
64,192,192054,128,0,192165:0:0:0:0:
320,192,192165,128,0,192387:0:0:0:0:
192,192,192276,128,0,192498:0:0:0:0:
64,192,192276,128,0,192609:0:0:0:0:
448,192,192387,128,0,192609:0:0:0:0:
320,192,192498,128,0,192720:0:0:0:0:
192,192,192609,128,0,192943:0:0:0:0:
64,192,192720,128,0,192832:0:0:0:0:
448,192,192720,128,0,193054:0:0:0:0:
320,192,192832,128,0,193054:0:0:0:0:
64,192,192943,128,0,193165:0:0:0:0:
192,192,193054,128,0,193276:0:0:0:0:
320,192,193165,128,0,193387:0:0:0:0:
448,192,193165,128,0,193498:0:0:0:0:
64,192,193276,128,0,193498:0:0:0:0:
192,192,193387,128,0,193609:0:0:0:0:
320,192,193498,128,0,193832:0:0:0:0:
448,192,193609,128,0,193720:0:0:0:0:
64,192,193609,128,0,194054:0:0:0:0:
192,192,193720,128,0,193943:0:0:0:0:
448,192,193832,128,0,193943:0:0:0:0:
320,192,193943,128,0,194276:0:0:0:0:
192,192,194054,128,0,194165:0:0:0:0:
448,192,194054,128,0,194387:0:0:0:0:
64,192,194165,128,0,194387:0:0:0:0:
192,192,194276,128,0,194387:0:0:0:0:
320,192,194387,128,0,194498:0:0:0:0:
64,192,194498,128,0,194720:0:0:0:0:
192,192,194498,128,0,194609:0:0:0:0:
448,192,194498,128,0,194832:0:0:0:0:
320,192,194609,128,0,194832:0:0:0:0:
192,192,194720,128,0,194943:0:0:0:0:
64,192,194832,128,0,195276:0:0:0:0:
320,192,194943,128,0,195054:0:0:0:0:
448,192,194943,128,0,195165:0:0:0:0:
192,192,195054,128,0,195276:0:0:0:0:
320,192,195165,128,0,195387:0:0:0:0:
448,192,195276,128,0,195498:0:0:0:0:
192,192,195387,128,0,195609:0:0:0:0:
64,192,195387,128,0,195832:0:0:0:0:
320,192,195498,128,0,195720:0:0:0:0:
448,192,195609,128,0,195720:0:0:0:0:
192,192,195720,128,0,195943:0:0:0:0:
320,192,195832,128,0,196054:0:0:0:0:
448,192,195832,128,0,196165:0:0:0:0:
64,192,195943,128,0,196165:0:0:0:0:
192,192,196054,128,0,196276:0:0:0:0:
320,192,196165,128,0,196498:0:0:0:0:
448,192,196276,128,0,196387:0:0:0:0:
64,192,196276,128,0,196609:0:0:0:0:
192,192,196387,128,0,196609:0:0:0:0:
448,192,196498,128,0,196720:0:0:0:0:
320,192,196609,128,0,196832:0:0:0:0:
192,192,196720,128,0,196943:0:0:0:0:
64,192,196720,128,0,197054:0:0:0:0:
448,192,196832,128,0,197054:0:0:0:0:
320,192,196943,128,0,197165:0:0:0:0:
192,192,197054,128,0,197387:0:0:0:0:
64,192,197165,128,0,197276:0:0:0:0:
448,192,197165,128,0,197498:0:0:0:0:
320,192,197276,128,0,197498:0:0:0:0:
64,192,197387,128,0,197609:0:0:0:0:
192,192,197498,128,0,197720:0:0:0:0:
320,192,197609,128,0,197832:0:0:0:0:
448,192,197609,128,0,197832:0:0:0:0:
64,192,197720,128,0,197943:0:0:0:0:
192,192,197832,128,0,197943:0:0:0:0:
320,192,197943,1,0,0:0:0:0:
448,192,197943,128,0,198054:0:0:0:0:
64,192,198054,128,0,198202:0:0:0:0:
192,192,198128,128,0,198276:0:0:0:0:
320,192,198202,128,0,198350:0:0:0:0:
448,192,198276,128,0,198424:0:0:0:0:
192,192,198350,128,0,198498:0:0:0:0:
64,192,198424,128,0,198572:0:0:0:0:
320,192,198498,128,0,198646:0:0:0:0:
448,192,198572,128,0,198720:0:0:0:0:
64,192,198646,128,0,198795:0:0:0:0:
192,192,198720,128,0,198869:0:0:0:0:
320,192,198795,128,0,198943:0:0:0:0:
448,192,198869,128,0,199017:0:0:0:0:
64,192,198869,128,0,199017:0:0:0:0:
192,192,198943,128,0,199091:0:0:0:0:
320,192,199017,128,0,199165:0:0:0:0:
448,192,199091,128,0,199239:0:0:0:0:
192,192,199165,128,0,199313:0:0:0:0:
64,192,199239,128,0,199387:0:0:0:0:
320,192,199313,128,0,199461:0:0:0:0:
448,192,199387,128,0,199535:0:0:0:0:
64,192,199461,128,0,199609:0:0:0:0:
192,192,199535,128,0,199683:0:0:0:0:
320,192,199609,128,0,199758:0:0:0:0:
448,192,199683,128,0,199832:0:0:0:0:
192,192,199758,128,0,199906:0:0:0:0:
64,192,199832,128,0,199980:0:0:0:0:
448,192,199906,128,0,200054:0:0:0:0:
320,192,199980,128,0,200128:0:0:0:0:
192,192,200054,128,0,200202:0:0:0:0:
64,192,200128,128,0,200276:0:0:0:0:
448,192,200128,128,0,200276:0:0:0:0:
320,192,200202,128,0,200350:0:0:0:0:
192,192,200276,128,0,200424:0:0:0:0:
64,192,200350,128,0,200498:0:0:0:0:
320,192,200424,128,0,200572:0:0:0:0:
448,192,200498,128,0,200646:0:0:0:0:
192,192,200572,128,0,200720:0:0:0:0:
64,192,200646,128,0,200795:0:0:0:0:
320,192,200720,128,0,200869:0:0:0:0:
448,192,200795,128,0,200943:0:0:0:0:
64,192,200869,128,0,201017:0:0:0:0:
192,192,200943,128,0,201091:0:0:0:0:
320,192,201017,128,0,201165:0:0:0:0:
448,192,201091,128,0,201239:0:0:0:0:
64,192,201165,128,0,201387:0:0:0:0:
192,192,201165,128,0,201387:0:0:0:0:
320,192,201387,128,0,201609:0:0:0:0:
448,192,201387,1,0,0:0:0:0:
192,192,201609,1,0,0:0:0:0:
64,192,201609,1,0,0:0:0:0:
448,192,201609,1,0,0:0:0:0:
64,192,212276,132,0,212424:0:0:0:0:
192,192,212350,128,0,212498:0:0:0:0:
448,192,212424,128,0,212572:0:0:0:0:
320,192,212498,128,0,212646:0:0:0:0:
64,192,212498,128,0,212646:0:0:0:0:
192,192,212572,128,0,212720:0:0:0:0:
448,192,212646,128,0,212795:0:0:0:0:
320,192,212720,128,0,212869:0:0:0:0:
192,192,212795,128,0,212943:0:0:0:0:
64,192,212869,128,0,213017:0:0:0:0:
448,192,212943,128,0,213758:0:0:0:0:
448,192,213832,128,0,213887:0:0:0:0:
320,192,213832,128,0,213943:0:0:0:0:
192,192,213832,128,0,213998:0:0:0:0:
64,192,213832,128,0,214109:0:0:0:0:
448,192,214054,128,0,214109:0:0:0:0:
320,192,214054,128,0,214128:0:0:0:0:
64,192,214276,128,0,214387:0:0:0:0:
192,192,214276,128,0,214387:0:0:0:0:
64,192,214498,128,0,214609:0:0:0:0:
192,192,214498,128,0,214609:0:0:0:0:
320,192,214720,1,0,0:0:0:0:
448,192,214720,1,0,0:0:0:0:
192,192,214832,1,0,0:0:0:0:
64,192,214943,1,0,0:0:0:0:
320,192,214943,1,0,0:0:0:0:
448,192,214943,1,0,0:0:0:0:
64,192,215165,1,0,0:0:0:0:
192,192,215165,1,0,0:0:0:0:
320,192,215387,1,0,0:0:0:0:
448,192,215387,1,0,0:0:0:0:
192,192,215498,1,0,0:0:0:0:
64,192,215609,1,0,0:0:0:0:
448,192,215609,1,0,0:0:0:0:
320,192,215720,1,0,0:0:0:0:
64,192,215832,128,0,216220:0:0:0:0:
192,192,215832,128,0,216220:0:0:0:0:
320,192,215887,128,0,216220:0:0:0:0:
448,192,215943,128,0,216220:0:0:0:0:
64,192,217164,5,0,0:0:0:0:
192,192,217164,1,0,0:0:0:0:
320,192,217164,1,0,0:0:0:0:
448,192,217164,1,0,0:0:0:0:
448,192,217609,128,0,217757:0:0:0:0:
320,192,217683,128,0,217831:0:0:0:0:
192,192,217757,128,0,217905:0:0:0:0:
64,192,217831,128,0,217979:0:0:0:0:
320,192,217905,128,0,218053:0:0:0:0:
448,192,217979,128,0,218127:0:0:0:0:
192,192,218053,1,0,0:0:0:0:
64,192,218053,128,0,218275:0:0:0:0:
448,192,218275,1,0,0:0:0:0:
320,192,218275,1,0,0:0:0:0:
192,192,218386,1,0,0:0:0:0:
320,192,218497,128,0,218720:0:0:0:0:
448,192,218497,128,0,218720:0:0:0:0:
64,192,218497,1,0,0:0:0:0:
192,192,218720,128,0,218942:0:0:0:0:
64,192,218942,1,0,0:0:0:0:
448,192,218942,1,0,0:0:0:0:
320,192,219164,1,0,0:0:0:0:
192,192,219275,1,0,0:0:0:0:
64,192,219386,1,0,0:0:0:0:
448,192,219386,1,0,0:0:0:0:
320,192,219609,1,0,0:0:0:0:
192,192,219609,1,0,0:0:0:0:
448,192,219831,1,0,0:0:0:0:
192,192,219831,128,0,220053:0:0:0:0:
64,192,219831,1,0,0:0:0:0:
320,192,219831,1,0,0:0:0:0:
448,192,220053,128,0,220164:0:0:0:0:
64,192,220053,128,0,220275:0:0:0:0:
448,192,220275,128,0,220423:0:0:0:0:
320,192,220349,128,0,220497:0:0:0:0:
64,192,220423,128,0,220571:0:0:0:0:
192,192,220497,128,0,220646:0:0:0:0:
320,192,220571,128,0,220720:0:0:0:0:
448,192,220646,128,0,220720:0:0:0:0:
64,192,220720,128,0,220868:0:0:0:0:
192,192,220794,128,0,220942:0:0:0:0:
320,192,220868,128,0,221016:0:0:0:0:
64,192,220942,128,0,221164:0:0:0:0:
448,192,220942,128,0,221090:0:0:0:0:
192,192,221164,1,0,0:0:0:0:
448,192,221164,128,0,221386:0:0:0:0:
320,192,221275,128,0,221497:0:0:0:0:
64,192,221386,128,0,221534:0:0:0:0:
192,192,221386,128,0,221609:0:0:0:0:
64,192,221609,1,0,0:0:0:0:
448,192,221609,128,0,221831:0:0:0:0:
320,192,221831,1,0,0:0:0:0:
64,192,221831,128,0,222053:0:0:0:0:
448,192,222053,1,0,0:0:0:0:
320,192,222053,1,0,0:0:0:0:
192,192,222164,1,0,0:0:0:0:
448,192,222275,1,0,0:0:0:0:
64,192,222275,1,0,0:0:0:0:
448,192,222497,128,0,222720:0:0:0:0:
64,192,222497,1,0,0:0:0:0:
320,192,222497,1,0,0:0:0:0:
64,192,222720,128,0,222942:0:0:0:0:
192,192,222942,128,0,223053:0:0:0:0:
320,192,222942,128,0,223164:0:0:0:0:
448,192,222942,128,0,223275:0:0:0:0:
192,192,223090,128,0,223238:0:0:0:0:
64,192,223164,128,0,223312:0:0:0:0:
320,192,223238,128,0,223386:0:0:0:0:
448,192,223312,128,0,223460:0:0:0:0:
192,192,223386,1,0,0:0:0:0:
64,192,223386,128,0,223609:0:0:0:0:
448,192,223609,1,0,0:0:0:0:
320,192,223609,128,0,223831:0:0:0:0:
64,192,223831,128,0,223979:0:0:0:0:
192,192,223905,128,0,224053:0:0:0:0:
320,192,223979,128,0,224127:0:0:0:0:
448,192,224053,128,0,224201:0:0:0:0:
192,192,224127,128,0,224275:0:0:0:0:
64,192,224201,128,0,224349:0:0:0:0:
320,192,224275,128,0,224423:0:0:0:0:
448,192,224349,128,0,224497:0:0:0:0:
64,192,224497,1,0,0:0:0:0:
192,192,224497,128,0,224720:0:0:0:0:
320,192,224609,1,0,0:0:0:0:
64,192,224720,128,0,224831:0:0:0:0:
448,192,224720,128,0,224942:0:0:0:0:
192,192,224942,128,0,225090:0:0:0:0:
64,192,225016,128,0,225164:0:0:0:0:
320,192,225164,1,0,0:0:0:0:
448,192,225164,128,0,225386:0:0:0:0:
64,192,225386,1,0,0:0:0:0:
192,192,225386,1,0,0:0:0:0:
320,192,225497,1,0,0:0:0:0:
64,192,225609,128,0,225757:0:0:0:0:
448,192,225609,1,0,0:0:0:0:
192,192,225683,128,0,225831:0:0:0:0:
320,192,225757,128,0,225905:0:0:0:0:
448,192,225831,128,0,225979:0:0:0:0:
192,192,225905,128,0,226053:0:0:0:0:
64,192,225979,128,0,226127:0:0:0:0:
448,192,226053,128,0,226275:0:0:0:0:
320,192,226053,1,0,0:0:0:0:
320,192,226275,1,0,0:0:0:0:
192,192,226275,128,0,226497:0:0:0:0:
64,192,226386,128,0,226497:0:0:0:0:
320,192,226497,1,0,0:0:0:0:
448,192,226497,128,0,226609:0:0:0:0:
192,192,226609,128,0,226831:0:0:0:0:
64,192,226720,128,0,226942:0:0:0:0:
448,192,226720,128,0,226831:0:0:0:0:
448,192,226942,128,0,227053:0:0:0:0:
320,192,226942,128,0,227275:0:0:0:0:
192,192,227053,128,0,227164:0:0:0:0:
448,192,227164,128,0,227275:0:0:0:0:
64,192,227164,128,0,227386:0:0:0:0:
192,192,227275,128,0,227497:0:0:0:0:
320,192,227386,128,0,227609:0:0:0:0:
448,192,227386,128,0,227720:0:0:0:0:
64,192,227497,128,0,227720:0:0:0:0:
192,192,227609,128,0,227831:0:0:0:0:
320,192,227720,128,0,227942:0:0:0:0:
448,192,227831,128,0,227942:0:0:0:0:
64,192,227831,128,0,228053:0:0:0:0:
192,192,227942,128,0,228053:0:0:0:0:
320,192,228053,1,0,0:0:0:0:
448,192,228053,128,0,228275:0:0:0:0:
192,192,228275,1,0,0:0:0:0:
64,192,228275,1,0,0:0:0:0:
320,192,228386,1,0,0:0:0:0:
64,192,228497,1,0,0:0:0:0:
448,192,228497,1,0,0:0:0:0:
192,192,228609,1,0,0:0:0:0:
448,192,228720,1,0,0:0:0:0:
320,192,228720,1,0,0:0:0:0:
64,192,228831,1,0,0:0:0:0:
320,192,228942,1,0,0:0:0:0:
192,192,228942,1,0,0:0:0:0:
448,192,229053,1,0,0:0:0:0:
64,192,229164,1,0,0:0:0:0:
192,192,229164,1,0,0:0:0:0:
320,192,229275,1,0,0:0:0:0:
448,192,229386,1,0,0:0:0:0:
64,192,229386,1,0,0:0:0:0:
192,192,229497,1,0,0:0:0:0:
448,192,229609,1,0,0:0:0:0:
320,192,229609,1,0,0:0:0:0:
192,192,229720,1,0,0:0:0:0:
448,192,229831,1,0,0:0:0:0:
64,192,229831,1,0,0:0:0:0:
320,192,229942,1,0,0:0:0:0:
64,192,230053,128,0,230275:0:0:0:0:
192,192,230053,1,0,0:0:0:0:
448,192,230053,1,0,0:0:0:0:
448,192,230275,1,0,0:0:0:0:
320,192,230275,1,0,0:0:0:0:
192,192,230386,1,0,0:0:0:0:
448,192,230497,1,0,0:0:0:0:
64,192,230497,1,0,0:0:0:0:
320,192,230609,1,0,0:0:0:0:
64,192,230720,1,0,0:0:0:0:
192,192,230720,1,0,0:0:0:0:
320,192,230831,1,0,0:0:0:0:
64,192,230942,1,0,0:0:0:0:
192,192,230942,1,0,0:0:0:0:
448,192,231053,1,0,0:0:0:0:
320,192,231053,1,0,0:0:0:0:
64,192,231164,1,0,0:0:0:0:
192,192,231164,1,0,0:0:0:0:
320,192,231275,1,0,0:0:0:0:
64,192,231386,1,0,0:0:0:0:
192,192,231386,1,0,0:0:0:0:
448,192,231386,1,0,0:0:0:0:
64,192,231609,1,0,0:0:0:0:
448,192,231609,1,0,0:0:0:0:
448,192,231831,128,0,231979:0:0:0:0:
320,192,231831,128,0,231979:0:0:0:0:
192,192,231905,128,0,232053:0:0:0:0:
64,192,231979,128,0,232127:0:0:0:0:
320,192,232053,128,0,232201:0:0:0:0:
448,192,232127,128,0,232275:0:0:0:0:
64,192,232275,128,0,232497:0:0:0:0:
192,192,232275,128,0,232386:0:0:0:0:
448,192,232386,128,0,232497:0:0:0:0:
320,192,232497,128,0,232609:0:0:0:0:
192,192,232609,128,0,232831:0:0:0:0:
448,192,232720,128,0,232942:0:0:0:0:
64,192,232720,128,0,232831:0:0:0:0:
64,192,232942,128,0,233053:0:0:0:0:
192,192,232942,128,0,233053:0:0:0:0:
320,192,233053,128,0,233275:0:0:0:0:
64,192,233164,128,0,233386:0:0:0:0:
448,192,233164,128,0,233275:0:0:0:0:
320,192,233386,128,0,233608:0:0:0:0:
448,192,233386,128,0,233497:0:0:0:0:
64,192,233497,128,0,233608:0:0:0:0:
192,192,233608,128,0,233757:0:0:0:0:
448,192,233608,128,0,233720:0:0:0:0:
64,192,233683,128,0,233831:0:0:0:0:
320,192,233757,128,0,233905:0:0:0:0:
448,192,233831,128,0,233979:0:0:0:0:
64,192,233905,128,0,234053:0:0:0:0:
192,192,233979,128,0,234127:0:0:0:0:
320,192,234053,128,0,234201:0:0:0:0:
448,192,234127,128,0,234275:0:0:0:0:
192,192,234201,128,0,234349:0:0:0:0:
64,192,234275,128,0,234423:0:0:0:0:
320,192,234349,128,0,234497:0:0:0:0:
448,192,234423,128,0,234571:0:0:0:0:
192,192,234497,128,0,234720:0:0:0:0:
64,192,234571,128,0,234720:0:0:0:0:
448,192,234720,128,0,234942:0:0:0:0:
320,192,234831,128,0,234942:0:0:0:0:
64,192,234942,128,0,235164:0:0:0:0:
192,192,234942,128,0,235053:0:0:0:0:
448,192,235053,128,0,235164:0:0:0:0:
320,192,235164,128,0,235386:0:0:0:0:
192,192,235164,128,0,235275:0:0:0:0:
448,192,235386,128,0,235497:0:0:0:0:
64,192,235386,128,0,235720:0:0:0:0:
192,192,235497,128,0,235720:0:0:0:0:
320,192,235608,128,0,235831:0:0:0:0:
448,192,235720,128,0,236164:0:0:0:0:
192,192,235831,128,0,235942:0:0:0:0:
64,192,235831,128,0,236053:0:0:0:0:
320,192,235942,128,0,236164:0:0:0:0:
192,192,236053,128,0,236275:0:0:0:0:
64,192,236164,128,0,236386:0:0:0:0:
448,192,236275,128,0,236608:0:0:0:0:
320,192,236275,128,0,236497:0:0:0:0:
192,192,236386,128,0,236720:0:0:0:0:
64,192,236497,128,0,236608:0:0:0:0:
320,192,236608,128,0,236831:0:0:0:0:
64,192,236720,128,0,237053:0:0:0:0:
448,192,236720,128,0,236831:0:0:0:0:
192,192,236831,128,0,236942:0:0:0:0:
448,192,236942,128,0,237053:0:0:0:0:
320,192,236942,128,0,237164:0:0:0:0:
192,192,237053,128,0,237497:0:0:0:0:
448,192,237164,128,0,237386:0:0:0:0:
64,192,237164,128,0,237275:0:0:0:0:
320,192,237275,128,0,237497:0:0:0:0:
64,192,237386,128,0,237608:0:0:0:0:
448,192,237497,128,0,237942:0:0:0:0:
320,192,237608,128,0,237831:0:0:0:0:
192,192,237608,128,0,237720:0:0:0:0:
64,192,237720,128,0,238053:0:0:0:0:
192,192,237831,128,0,238053:0:0:0:0:
320,192,237942,128,0,238053:0:0:0:0:
448,192,238053,128,0,238164:0:0:0:0:
320,192,238164,1,0,0:0:0:0:
192,192,238164,128,0,238386:0:0:0:0:
64,192,238275,128,0,238386:0:0:0:0:
448,192,238275,128,0,238386:0:0:0:0:
320,192,238497,1,0,0:0:0:0:
448,192,238497,1,0,0:0:0:0:
64,192,238497,1,0,0:0:0:0:
192,192,238497,1,0,0:0:0:0:
320,192,238720,1,0,0:0:0:0:
192,192,238720,1,0,0:0:0:0:
448,192,238942,128,0,239090:0:0:0:0:
320,192,238942,128,0,239090:0:0:0:0:
192,192,239016,128,0,239164:0:0:0:0:
64,192,239090,128,0,239238:0:0:0:0:
320,192,239164,128,0,239312:0:0:0:0:
448,192,239238,128,0,239386:0:0:0:0:
64,192,239386,128,0,239608:0:0:0:0:
192,192,239386,128,0,239497:0:0:0:0:
320,192,239497,128,0,239720:0:0:0:0:
192,192,239608,128,0,239831:0:0:0:0:
64,192,239720,128,0,240164:0:0:0:0:
320,192,239831,128,0,239942:0:0:0:0:
448,192,239831,128,0,240053:0:0:0:0:
192,192,239942,128,0,240164:0:0:0:0:
320,192,240053,128,0,240275:0:0:0:0:
448,192,240164,128,0,240386:0:0:0:0:
64,192,240275,128,0,240608:0:0:0:0:
192,192,240275,128,0,240497:0:0:0:0:
320,192,240386,128,0,240608:0:0:0:0:
448,192,240497,128,0,240608:0:0:0:0:
192,192,240608,128,0,240942:0:0:0:0:
64,192,240720,128,0,241053:0:0:0:0:
320,192,240720,128,0,240831:0:0:0:0:
448,192,240720,128,0,240831:0:0:0:0:
320,192,240942,128,0,241164:0:0:0:0:
448,192,240942,128,0,241053:0:0:0:0:
192,192,241053,128,0,241275:0:0:0:0:
64,192,241164,128,0,241386:0:0:0:0:
448,192,241164,128,0,241497:0:0:0:0:
320,192,241275,128,0,241497:0:0:0:0:
192,192,241386,128,0,241608:0:0:0:0:
64,192,241497,128,0,241942:0:0:0:0:
320,192,241608,128,0,241720:0:0:0:0:
448,192,241608,128,0,241831:0:0:0:0:
192,192,241720,128,0,241942:0:0:0:0:
320,192,241831,128,0,242053:0:0:0:0:
448,192,241942,128,0,242164:0:0:0:0:
192,192,242053,128,0,242275:0:0:0:0:
64,192,242053,128,0,242164:0:0:0:0:
320,192,242164,128,0,242386:0:0:0:0:
448,192,242275,128,0,242386:0:0:0:0:
64,192,242275,128,0,242386:0:0:0:0:
192,192,242386,128,0,242608:0:0:0:0:
448,192,242497,128,0,242831:0:0:0:0:
64,192,242497,128,0,242608:0:0:0:0:
320,192,242497,128,0,242720:0:0:0:0:
192,192,242720,128,0,242942:0:0:0:0:
64,192,242720,128,0,242831:0:0:0:0:
320,192,242831,128,0,243053:0:0:0:0:
448,192,242942,128,0,243275:0:0:0:0:
64,192,242942,128,0,243386:0:0:0:0:
192,192,243053,128,0,243164:0:0:0:0:
320,192,243164,128,0,243275:0:0:0:0:
192,192,243275,128,0,243497:0:0:0:0:
320,192,243386,128,0,243608:0:0:0:0:
448,192,243386,128,0,243720:0:0:0:0:
64,192,243497,128,0,243720:0:0:0:0:
192,192,243608,128,0,243831:0:0:0:0:
320,192,243720,128,0,244053:0:0:0:0:
448,192,243831,128,0,243942:0:0:0:0:
64,192,243831,128,0,244164:0:0:0:0:
192,192,243942,128,0,244164:0:0:0:0:
448,192,244053,128,0,244164:0:0:0:0:
320,192,244164,128,0,244497:0:0:0:0:
192,192,244275,128,0,244720:0:0:0:0:
64,192,244275,128,0,244386:0:0:0:0:
448,192,244275,128,0,244386:0:0:0:0:
64,192,244497,128,0,244608:0:0:0:0:
448,192,244497,128,0,244608:0:0:0:0:
320,192,244608,128,0,244942:0:0:0:0:
448,192,244720,128,0,244831:0:0:0:0:
64,192,244720,128,0,245053:0:0:0:0:
192,192,244831,128,0,245053:0:0:0:0:
448,192,244942,128,0,245164:0:0:0:0:
320,192,245053,128,0,245164:0:0:0:0:
192,192,245164,1,0,0:0:0:0:
64,192,245164,1,0,0:0:0:0:
448,192,245275,1,0,0:0:0:0:
320,192,245275,1,0,0:0:0:0:
64,192,245386,1,0,0:0:0:0:
192,192,245386,1,0,0:0:0:0:
448,192,245497,1,0,0:0:0:0:
320,192,245497,1,0,0:0:0:0:
64,192,245608,128,0,245757:0:0:0:0:
448,192,245608,1,0,0:0:0:0:
192,192,245683,128,0,245831:0:0:0:0:
320,192,245757,128,0,245905:0:0:0:0:
64,192,245831,128,0,245979:0:0:0:0:
448,192,245831,128,0,245979:0:0:0:0:
448,192,246053,128,0,246497:0:0:0:0:
64,192,246053,128,0,246386:0:0:0:0:
192,192,246386,1,0,0:0:0:0:
320,192,246386,1,0,0:0:0:0:
64,192,246497,128,0,246720:0:0:0:0:
192,192,246497,1,0,0:0:0:0:
320,192,246720,128,0,247386:0:0:0:0:
192,192,246720,1,0,0:0:0:0:
448,192,246831,1,0,0:0:0:0:
192,192,246942,1,0,0:0:0:0:
64,192,246942,1,0,0:0:0:0:
192,192,247164,1,0,0:0:0:0:
448,192,247275,1,0,0:0:0:0:
192,192,247386,1,0,0:0:0:0:
448,192,247386,1,0,0:0:0:0:
64,192,247386,128,0,247608:0:0:0:0:
320,192,247608,128,0,247831:0:0:0:0:
192,192,247720,128,0,247942:0:0:0:0:
64,192,247831,128,0,247942:0:0:0:0:
448,192,247831,128,0,248275:0:0:0:0:
64,192,248053,1,0,0:0:0:0:
192,192,248164,1,0,0:0:0:0:
320,192,248164,1,0,0:0:0:0:
64,192,248275,128,0,248497:0:0:0:0:
192,192,248275,1,0,0:0:0:0:
448,192,248497,128,0,249164:0:0:0:0:
320,192,248497,128,0,248720:0:0:0:0:
64,192,248720,128,0,248942:0:0:0:0:
192,192,248720,1,0,0:0:0:0:
320,192,248942,1,0,0:0:0:0:
192,192,249053,1,0,0:0:0:0:
320,192,249164,1,0,0:0:0:0:
64,192,249164,128,0,249386:0:0:0:0:
192,192,249386,128,0,249608:0:0:0:0:
320,192,249497,128,0,249720:0:0:0:0:
64,192,249608,1,0,0:0:0:0:
448,192,249608,128,0,250053:0:0:0:0:
64,192,249831,128,0,249942:0:0:0:0:
192,192,249942,128,0,250053:0:0:0:0:
64,192,250053,1,0,0:0:0:0:
320,192,250053,128,0,250275:0:0:0:0:
64,192,250275,128,0,250942:0:0:0:0:
448,192,250275,1,0,0:0:0:0:
192,192,250275,128,0,250497:0:0:0:0:
448,192,250497,1,0,0:0:0:0:
320,192,250608,1,0,0:0:0:0:
192,192,250720,1,0,0:0:0:0:
448,192,250720,1,0,0:0:0:0:
320,192,250942,1,0,0:0:0:0:
448,192,250942,1,0,0:0:0:0:
192,192,251053,1,0,0:0:0:0:
64,192,251164,128,0,251386:0:0:0:0:
448,192,251164,1,0,0:0:0:0:
192,192,251275,128,0,251497:0:0:0:0:
320,192,251386,128,0,251608:0:0:0:0:
448,192,251497,128,0,251720:0:0:0:0:
64,192,251608,128,0,251720:0:0:0:0:
192,192,251608,128,0,251720:0:0:0:0:
448,192,251831,128,0,252275:0:0:0:0:
64,192,251831,128,0,252053:0:0:0:0:
192,192,251831,1,0,0:0:0:0:
320,192,252053,128,0,252275:0:0:0:0:
192,192,252164,128,0,252275:0:0:0:0:
64,192,252275,128,0,252497:0:0:0:0:
192,192,252497,1,0,0:0:0:0:
320,192,252497,128,0,252720:0:0:0:0:
448,192,252497,1,0,0:0:0:0:
448,192,252720,128,0,252868:0:0:0:0:
64,192,252720,128,0,252794:0:0:0:0:
320,192,252794,128,0,252942:0:0:0:0:
192,192,252868,128,0,253016:0:0:0:0:
64,192,252942,128,0,253090:0:0:0:0:
320,192,253016,128,0,253164:0:0:0:0:
448,192,253090,128,0,253164:0:0:0:0:
64,192,253164,128,0,253608:0:0:0:0:
192,192,253164,128,0,253386:0:0:0:0:
448,192,253386,1,0,0:0:0:0:
320,192,253497,1,0,0:0:0:0:
192,192,253497,1,0,0:0:0:0:
448,192,253608,128,0,253831:0:0:0:0:
320,192,253608,1,0,0:0:0:0:
192,192,253831,128,0,254497:0:0:0:0:
320,192,253831,1,0,0:0:0:0:
64,192,253942,1,0,0:0:0:0:
320,192,254053,1,0,0:0:0:0:
448,192,254053,1,0,0:0:0:0:
320,192,254275,1,0,0:0:0:0:
64,192,254386,1,0,0:0:0:0:
320,192,254497,1,0,0:0:0:0:
64,192,254497,1,0,0:0:0:0:
448,192,254497,128,0,254720:0:0:0:0:
192,192,254720,128,0,254942:0:0:0:0:
320,192,254831,128,0,255053:0:0:0:0:
448,192,254942,128,0,255053:0:0:0:0:
64,192,254942,128,0,255386:0:0:0:0:
448,192,255164,1,0,0:0:0:0:
320,192,255275,1,0,0:0:0:0:
192,192,255275,1,0,0:0:0:0:
448,192,255386,128,0,255608:0:0:0:0:
320,192,255386,1,0,0:0:0:0:
64,192,255608,128,0,256275:0:0:0:0:
192,192,255608,128,0,255831:0:0:0:0:
448,192,255831,128,0,256053:0:0:0:0:
192,192,256053,1,0,0:0:0:0:
320,192,256164,1,0,0:0:0:0:
448,192,256275,1,0,0:0:0:0:
192,192,256275,128,0,256497:0:0:0:0:
320,192,256497,128,0,256720:0:0:0:0:
192,192,256608,128,0,256831:0:0:0:0:
448,192,256720,1,0,0:0:0:0:
64,192,256720,128,0,257164:0:0:0:0:
448,192,256942,128,0,257053:0:0:0:0:
320,192,257053,128,0,257164:0:0:0:0:
448,192,257164,1,0,0:0:0:0:
192,192,257164,128,0,257386:0:0:0:0:
448,192,257386,128,0,258053:0:0:0:0:
64,192,257386,1,0,0:0:0:0:
320,192,257386,128,0,257608:0:0:0:0:
64,192,257608,1,0,0:0:0:0:
192,192,257720,1,0,0:0:0:0:
320,192,257831,1,0,0:0:0:0:
64,192,257831,1,0,0:0:0:0:
192,192,258053,1,0,0:0:0:0:
64,192,258053,128,0,258386:0:0:0:0:
448,192,258275,128,0,258497:0:0:0:0:
320,192,258386,128,0,258608:0:0:0:0:
192,192,258497,128,0,258720:0:0:0:0:
64,192,258608,128,0,258831:0:0:0:0:
448,192,258720,128,0,258831:0:0:0:0:
320,192,258720,128,0,258831:0:0:0:0:
64,192,258942,128,0,259386:0:0:0:0:
448,192,258942,128,0,259164:0:0:0:0:
320,192,259053,128,0,259164:0:0:0:0:
192,192,259164,128,0,259386:0:0:0:0:
320,192,259275,128,0,259386:0:0:0:0:
448,192,259386,128,0,259608:0:0:0:0:
192,192,259608,1,0,0:0:0:0:
64,192,259608,128,0,259831:0:0:0:0:
448,192,259831,128,0,259979:0:0:0:0:
320,192,259905,128,0,260053:0:0:0:0:
192,192,259979,128,0,260127:0:0:0:0:
64,192,260053,128,0,260201:0:0:0:0:
448,192,260053,128,0,260201:0:0:0:0:
448,192,260275,1,0,0:0:0:0:
64,192,260275,128,0,260608:0:0:0:0:
192,192,260275,128,0,260608:0:0:0:0:
320,192,260608,1,0,0:0:0:0:
448,192,260608,1,0,0:0:0:0:
448,192,260720,1,0,0:0:0:0:
64,192,260720,1,0,0:0:0:0:
192,192,260720,1,0,0:0:0:0:
448,192,260942,128,0,261275:0:0:0:0:
320,192,260942,128,0,261275:0:0:0:0:
64,192,260942,128,0,261164:0:0:0:0:
64,192,261275,128,0,261497:0:0:0:0:
192,192,261275,1,0,0:0:0:0:
320,192,261497,1,0,0:0:0:0:
448,192,261497,1,0,0:0:0:0:
320,192,261608,128,0,263608:0:0:0:0:
64,192,261608,128,0,263831:0:0:0:0:
192,192,261608,128,0,263720:0:0:0:0:
448,192,261608,128,0,263497:0:0:0:0:
448,192,263608,128,0,263831:0:0:0:0:
320,192,263720,128,0,263942:0:0:0:0:
192,192,263831,128,0,267386:0:0:0:0:
64,192,263942,128,0,267386:0:0:0:0:
